  0
SECTION
  2
HEADER
  9
$ACADVER
  1
AC1014
  9
$ACADMAINTVER
 70
     0
  9
$DWGCODEPAGE
  3
ANSI_1250
  9
$INSBASE
 10
0.0
 20
0.0
 30
0.0
  9
$EXTMIN
 10
486.041244
 20
0.0
 30
0.0
  9
$EXTMAX
 10
687.671651
 20
297.0
 30
0.0
  9
$LIMMIN
 10
0.0
 20
0.0
  9
$LIMMAX
 10
420.0
 20
297.0
  9
$ORTHOMODE
 70
     0
  9
$REGENMODE
 70
     1
  9
$FILLMODE
 70
     1
  9
$QTEXTMODE
 70
     0
  9
$MIRRTEXT
 70
     1
  9
$DRAGMODE
 70
     2
  9
$LTSCALE
 40
6.0
  9
$OSMODE
 70
    45
  9
$ATTMODE
 70
     1
  9
$TEXTSIZE
 40
3.5
  9
$TRACEWID
 40
0.05
  9
$TEXTSTYLE
  7
ITALIC
  9
$CLAYER
  8
WYMIARY
  9
$CELTYPE
  6
BYLAYER
  9
$CECOLOR
 62
     3
  9
$CELTSCALE
 40
1.0
  9
$DELOBJ
 70
     1
  9
$DISPSILH
 70
     0
  9
$DIMSCALE
 40
1.0
  9
$DIMASZ
 40
3.5
  9
$DIMEXO
 40
1.5
  9
$DIMDLI
 40
7.0
  9
$DIMRND
 40
0.0
  9
$DIMDLE
 40
0.0
  9
$DIMEXE
 40
1.5
  9
$DIMTP
 40
0.1
  9
$DIMTM
 40
0.0
  9
$DIMTXT
 40
3.6
  9
$DIMCEN
 40
-1.0
  9
$DIMTSZ
 40
0.0
  9
$DIMTOL
 70
     0
  9
$DIMLIM
 70
     0
  9
$DIMTIH
 70
     0
  9
$DIMTOH
 70
     0
  9
$DIMSE1
 70
     0
  9
$DIMSE2
 70
     0
  9
$DIMTAD
 70
     1
  9
$DIMZIN
 70
     0
  9
$DIMBLK
  1

  9
$DIMASO
 70
     1
  9
$DIMSHO
 70
     0
  9
$DIMPOST
  1

  9
$DIMAPOST
  1

  9
$DIMALT
 70
     0
  9
$DIMALTD
 70
     2
  9
$DIMALTF
 40
25.4
  9
$DIMLFAC
 40
1.0
  9
$DIMTOFL
 70
     0
  9
$DIMTVP
 40
0.0
  9
$DIMTIX
 70
     0
  9
$DIMSOXD
 70
     0
  9
$DIMSAH
 70
     0
  9
$DIMBLK1
  1

  9
$DIMBLK2
  1

  9
$DIMSTYLE
  2
STANDARD
  9
$DIMCLRD
 70
     0
  9
$DIMCLRE
 70
     0
  9
$DIMCLRT
 70
     0
  9
$DIMTFAC
 40
1.0
  9
$DIMGAP
 40
1.5
  9
$DIMJUST
 70
     0
  9
$DIMSD1
 70
     0
  9
$DIMSD2
 70
     0
  9
$DIMTOLJ
 70
     1
  9
$DIMTZIN
 70
     0
  9
$DIMALTZ
 70
     0
  9
$DIMALTTZ
 70
     0
  9
$DIMFIT
 70
     3
  9
$DIMUPT
 70
     0
  9
$DIMUNIT
 70
     2
  9
$DIMDEC
 70
     2
  9
$DIMTDEC
 70
     4
  9
$DIMALTU
 70
     2
  9
$DIMALTTD
 70
     2
  9
$DIMTXSTY
  7
STANDARD
  9
$DIMAUNIT
 70
     0
  9
$LUNITS
 70
     2
  9
$LUPREC
 70
     2
  9
$SKETCHINC
 40
0.1
  9
$FILLETRAD
 40
0.1
  9
$AUNITS
 70
     0
  9
$AUPREC
 70
     2
  9
$MENU
  1
ACAD
  9
$ELEVATION
 40
0.0
  9
$PELEVATION
 40
0.0
  9
$THICKNESS
 40
0.0
  9
$LIMCHECK
 70
     0
  9
$BLIPMODE
 70
     0
  9
$CHAMFERA
 40
0.0
  9
$CHAMFERB
 40
0.0
  9
$CHAMFERC
 40
0.0
  9
$CHAMFERD
 40
0.0
  9
$SKPOLY
 70
     0
  9
$TDCREATE
 40
2448721.399136690
  9
$TDUPDATE
 40
2454571.424163229
  9
$TDINDWG
 40
1.5090949769
  9
$TDUSRTIMER
 40
1.5090949769
  9
$USRTIMER
 70
     1
  9
$ANGBASE
 50
0.0
  9
$ANGDIR
 70
     0
  9
$PDMODE
 70
     0
  9
$PDSIZE
 40
0.0
  9
$PLINEWID
 40
0.5
  9
$COORDS
 70
     2
  9
$SPLFRAME
 70
     0
  9
$SPLINETYPE
 70
     6
  9
$SPLINESEGS
 70
     8
  9
$ATTDIA
 70
     0
  9
$ATTREQ
 70
     1
  9
$HANDLING
 70
     1
  9
$HANDSEED
  5
9124
  9
$SURFTAB1
 70
     6
  9
$SURFTAB2
 70
     6
  9
$SURFTYPE
 70
     6
  9
$SURFU
 70
     6
  9
$SURFV
 70
     6
  9
$UCSNAME
  2

  9
$UCSORG
 10
0.0
 20
0.0
 30
0.0
  9
$UCSXDIR
 10
1.0
 20
0.0
 30
0.0
  9
$UCSYDIR
 10
0.0
 20
1.0
 30
0.0
  9
$PUCSNAME
  2

  9
$PUCSORG
 10
0.0
 20
0.0
 30
0.0
  9
$PUCSXDIR
 10
1.0
 20
0.0
 30
0.0
  9
$PUCSYDIR
 10
0.0
 20
1.0
 30
0.0
  9
$USERI1
 70
     0
  9
$USERI2
 70
     0
  9
$USERI3
 70
     0
  9
$USERI4
 70
     0
  9
$USERI5
 70
     0
  9
$USERR1
 40
0.0
  9
$USERR2
 40
0.0
  9
$USERR3
 40
0.0
  9
$USERR4
 40
0.0
  9
$USERR5
 40
0.0
  9
$WORLDVIEW
 70
     1
  9
$SHADEDGE
 70
     3
  9
$SHADEDIF
 70
    70
  9
$TILEMODE
 70
     1
  9
$MAXACTVP
 70
    16
  9
$PINSBASE
 10
0.0
 20
0.0
 30
0.0
  9
$PLIMCHECK
 70
     0
  9
$PEXTMIN
 10
1.000000E+20
 20
1.000000E+20
 30
1.000000E+20
  9
$PEXTMAX
 10
-1.000000E+20
 20
-1.000000E+20
 30
-1.000000E+20
  9
$PLIMMIN
 10
0.0
 20
0.0
  9
$PLIMMAX
 10
12.0
 20
9.0
  9
$UNITMODE
 70
     0
  9
$VISRETAIN
 70
     0
  9
$PLINEGEN
 70
     0
  9
$PSLTSCALE
 70
     0
  9
$TREEDEPTH
 70
  3020
  9
$PICKSTYLE
 70
     1
  9
$CMLSTYLE
  2
STANDARD
  9
$CMLJUST
 70
     0
  9
$CMLSCALE
 40
1.0
  9
$PROXYGRAPHICS
 70
     1
  9
$MEASUREMENT
 70
     0
  0
ENDSEC
  0
SECTION
  2
CLASSES
  0
CLASS
  1
HATCH
  2
AcDbHatch
  3
"ACAD_SEDONA"
 90
        0
280
     0
281
     1
  0
CLASS
  1
LWPOLYLINE
  2
AcDbPolyline
  3
"AutoCAD"
 90
        0
280
     0
281
     1
  0
CLASS
  1
DICTIONARYVAR
  2
AcDbDictionaryVar
  3
"AutoCAD"
 90
        0
280
     0
281
     0
  0
ENDSEC
  0
SECTION
  2
TABLES
  0
TABLE
  2
VPORT
  5
8
100
AcDbSymbolTable
 70
     2
  0
VPORT
  5
9123
100
AcDbSymbolTableRecord
100
AcDbViewportTableRecord
  2
*ACTIVE
 70
     0
 10
0.0
 20
0.0
 11
1.0
 21
1.0
 12
650.145322
 22
148.500001
 13
0.0
 23
0.0
 14
1.0
 24
1.0
 15
5.0
 25
5.0
 16
0.0
 26
0.0
 36
1.0
 17
0.0
 27
0.0
 37
0.0
 40
299.428494
 41
2.008696
 42
50.0
 43
0.0
 44
0.0
 50
0.0
 51
0.0
 71
     0
 72
   100
 73
     1
 74
     0
 75
     0
 76
     0
 77
     0
 78
     0
  0
ENDTAB
  0
TABLE
  2
LTYPE
  5
5
100
AcDbSymbolTable
 70
     5
  0
LTYPE
  5
12
100
AcDbSymbolTableRecord
100
AcDbLinetypeTableRecord
  2
BYBLOCK
 70
     0
  3

 72
    65
 73
     0
 40
0.0
  0
LTYPE
  5
13
100
AcDbSymbolTableRecord
100
AcDbLinetypeTableRecord
  2
BYLAYER
 70
     0
  3

 72
    65
 73
     0
 40
0.0
  0
LTYPE
  5
14
100
AcDbSymbolTableRecord
100
AcDbLinetypeTableRecord
  2
CONTINUOUS
 70
     0
  3
Solid line
 72
    65
 73
     0
 40
0.0
  0
LTYPE
  5
1D
100
AcDbSymbolTableRecord
100
AcDbLinetypeTableRecord
  2
CENTER
 70
     0
  3
____ _ ____ _ ____ _ ____ _ ____ _ ____ _ ____
 72
    65
 73
     4
 40
2.0
 49
1.25
 74
     0
 49
-0.25
 74
     0
 49
0.25
 74
     0
 49
-0.25
 74
     0
  0
LTYPE
  5
1E
100
AcDbSymbolTableRecord
100
AcDbLinetypeTableRecord
  2
HIDDEN
 70
     0
  3
_ _ _ _ _ _ _ _ _ _ _ _ _ _ _ _ _ _ _ _ _ _ _
 72
    65
 73
     2
 40
0.375
 49
0.25
 74
     0
 49
-0.125
 74
     0
  0
LTYPE
  5
7F5D
100
AcDbSymbolTableRecord
100
AcDbLinetypeTableRecord
  2
CENTERX2
 70
     0
  3
Center (2x) ________  __  ________  __  _____
 72
    65
 73
     4
 40
20.32
 49
12.7
 74
     0
 49
-2.54
 74
     0
 49
2.54
 74
     0
 49
-2.54
 74
     0
  0
LTYPE
  5
7F5E
100
AcDbSymbolTableRecord
100
AcDbLinetypeTableRecord
  2
PHANTOM
 70
     0
  3
Phantom ______  __  __  ______  __  __  ______
 72
    65
 73
     6
 40
12.7
 49
6.35
 74
     0
 49
-1.27
 74
     0
 49
1.27
 74
     0
 49
-1.27
 74
     0
 49
1.27
 74
     0
 49
-1.27
 74
     0
  0
ENDTAB
  0
TABLE
  2
LAYER
  5
2
100
AcDbSymbolTable
 70
     8
  0
LAYER
  5
F
100
AcDbSymbolTableRecord
100
AcDbLayerTableRecord
  2
0
 70
     0
 62
     7
  6
CONTINUOUS
  0
LAYER
  5
21
100
AcDbSymbolTableRecord
100
AcDbLayerTableRecord
  2
1
 70
     0
 62
     3
  6
CONTINUOUS
  0
LAYER
  5
22
100
AcDbSymbolTableRecord
100
AcDbLayerTableRecord
  2
2
 70
     0
 62
     6
  6
CONTINUOUS
  0
LAYER
  5
23
100
AcDbSymbolTableRecord
100
AcDbLayerTableRecord
  2
3
 70
     0
 62
     4
  6
HIDDEN
  0
LAYER
  5
24
100
AcDbSymbolTableRecord
100
AcDbLayerTableRecord
  2
OSIE
 70
     0
 62
     2
  6
CENTER
  0
LAYER
  5
25
100
AcDbSymbolTableRecord
100
AcDbLayerTableRecord
  2
WY
 70
     0
 62
     1
  6
CONTINUOUS
  0
LAYER
  5
26
100
AcDbSymbolTableRecord
100
AcDbLayerTableRecord
  2
DEFPOINTS
 70
     0
 62
     7
  6
CONTINUOUS
  0
LAYER
  5
464
100
AcDbSymbolTableRecord
100
AcDbLayerTableRecord
  2
WYMIARY
 70
     0
 62
     1
  6
CONTINUOUS
  0
ENDTAB
  0
TABLE
  2
STYLE
  5
3
100
AcDbSymbolTable
 70
     2
  0
STYLE
  5
10
100
AcDbSymbolTableRecord
100
AcDbTextStyleTableRecord
  2
STANDARD
 70
     0
 40
0.0
 41
1.0
 50
0.0
 71
     0
 42
6.0
  3
txt
  4

  0
STYLE
  5
1C
100
AcDbSymbolTableRecord
100
AcDbTextStyleTableRecord
  2
ITALIC
 70
     0
 40
0.0
 41
1.0
 50
15.0
 71
     0
 42
3.5
  3
simplex
  4

  0
ENDTAB
  0
TABLE
  2
VIEW
  5
6
100
AcDbSymbolTable
 70
     0
  0
ENDTAB
  0
TABLE
  2
UCS
  5
7
100
AcDbSymbolTable
 70
     0
  0
ENDTAB
  0
TABLE
  2
APPID
  5
9
100
AcDbSymbolTable
 70
     1
  0
APPID
  5
11
100
AcDbSymbolTableRecord
100
AcDbRegAppTableRecord
  2
ACAD
 70
     0
  0
ENDTAB
  0
TABLE
  2
DIMSTYLE
  5
A
100
AcDbSymbolTable
 70
     1
  0
DIMSTYLE
105
3B
102
{ACAD_REACTORS
330
8734
330
8916
330
90FB
102
}
100
AcDbSymbolTableRecord
100
AcDbDimStyleTableRecord
  2
STANDARD
 70
     0
  3

  4

  5

  6

  7

 40
1.0
 41
3.5
 42
1.5
 43
7.0
 44
1.5
 45
0.0
 46
0.0
 47
0.1
 48
0.0
140
3.6
141
-1.0
142
0.0
143
25.4
144
1.0
145
0.0
146
1.0
147
1.5
 71
     0
 72
     0
 73
     0
 74
     0
 75
     0
 76
     0
 77
     1
 78
     0
170
     0
171
     2
172
     0
173
     0
174
     0
175
     0
176
     0
177
     0
178
     0
270
     2
271
     2
272
     4
273
     2
274
     2
340
10
275
     0
280
     0
281
     0
282
     0
283
     1
284
     0
285
     0
286
     0
287
     3
288
     0
  0
ENDTAB
  0
TABLE
  2
BLOCK_RECORD
  5
1
100
AcDbSymbolTable
 70
     8
  0
BLOCK_RECORD
  5
18
100
AcDbSymbolTableRecord
100
AcDbBlockTableRecord
  2
*MODEL_SPACE
  0
BLOCK_RECORD
  5
15
100
AcDbSymbolTableRecord
100
AcDbBlockTableRecord
  2
*PAPER_SPACE
  0
BLOCK_RECORD
  5
5C39
100
AcDbSymbolTableRecord
100
AcDbBlockTableRecord
  2
A$C25565E68
  0
BLOCK_RECORD
  5
5C7E
100
AcDbSymbolTableRecord
100
AcDbBlockTableRecord
  2
A$C43230CC9
  0
BLOCK_RECORD
  5
5C86
100
AcDbSymbolTableRecord
100
AcDbBlockTableRecord
  2
A$C312173AA
  0
BLOCK_RECORD
  5
5C97
100
AcDbSymbolTableRecord
100
AcDbBlockTableRecord
  2
A$C43233A65
  0
BLOCK_RECORD
  5
8EEF
100
AcDbSymbolTableRecord
100
AcDbBlockTableRecord
  2
*D4
  0
BLOCK_RECORD
  5
8F08
100
AcDbSymbolTableRecord
100
AcDbBlockTableRecord
  2
*D5
  0
BLOCK_RECORD
  5
90CE
100
AcDbSymbolTableRecord
100
AcDbBlockTableRecord
  2
A$C30C750A4
  0
BLOCK_RECORD
  5
90EE
100
AcDbSymbolTableRecord
100
AcDbBlockTableRecord
  2
*D7
  0
ENDTAB
  0
ENDSEC
  0
SECTION
  2
BLOCKS
  0
BLOCK
  5
29
100
AcDbEntity
  8
0
100
AcDbBlockBegin
  2
*MODEL_SPACE
 70
     0
 10
0.0
 20
0.0
 30
0.0
  3
*MODEL_SPACE
  1

  0
ENDBLK
  5
2A
100
AcDbEntity
  8
0
100
AcDbBlockEnd
  0
BLOCK
  5
27
100
AcDbEntity
 67
     1
  8
0
100
AcDbBlockBegin
  2
*PAPER_SPACE
 70
     0
 10
0.0
 20
0.0
 30
0.0
  3
*PAPER_SPACE
  1

  0
ENDBLK
  5
28
100
AcDbEntity
 67
     1
  8
0
100
AcDbBlockEnd
  0
BLOCK
  5
5C7C
100
AcDbEntity
  8
0
100
AcDbBlockBegin
  2
A$C25565E68
 70
     0
 10
0.0
 20
0.0
 30
0.0
  3
A$C25565E68
  1

  0
LINE
  5
5C3A
100
AcDbEntity
  8
1
100
AcDbLine
 10
5.7
 20
9.950758
 30
0.0
 11
5.7
 21
8.842535
 31
0.0
  0
LINE
  5
5C3B
100
AcDbEntity
  8
1
100
AcDbLine
 10
4.3
 20
9.950758
 30
0.0
 11
4.3
 21
8.842535
 31
0.0
  0
ARC
  5
5C3C
100
AcDbEntity
  8
1
100
AcDbCircle
 10
5.0
 20
5.0
 30
0.0
 40
5.0
100
AcDbArc
 50
0.0
 51
180.0
  0
LINE
  5
5C3D
100
AcDbEntity
  8
OSIE
 48
3.0
100
AcDbLine
 10
2.256298
 20
7.743702
 30
0.0
 11
7.743701
 21
2.256299
 31
0.0
  0
LINE
  5
5C3E
100
AcDbEntity
  8
OSIE
 48
3.0
100
AcDbLine
 10
2.256298
 20
2.256299
 30
0.0
 11
7.743701
 21
7.743702
 31
0.0
  0
LINE
  5
5C3F
100
AcDbEntity
  8
1
100
AcDbLine
 10
3.2
 20
4.23195
 30
0.0
 11
3.945348
 21
3.945349
 31
0.0
  0
LINE
  5
5C40
100
AcDbEntity
  8
1
100
AcDbLine
 10
6.054652
 20
3.945349
 30
0.0
 11
6.81307
 21
4.232682
 31
0.0
  0
LINE
  5
5C41
100
AcDbEntity
  8
1
100
AcDbLine
 10
4.186087
 20
4.186088
 30
0.0
 11
4.52804
 21
3.262976
 31
0.0
  0
LINE
  5
5C42
100
AcDbEntity
  8
1
100
AcDbLine
 10
5.47196
 20
3.262976
 30
0.0
 11
5.813912
 21
4.186088
 31
0.0
  0
ARC
  5
5C43
100
AcDbEntity
  8
1
100
AcDbCircle
 10
5.0
 20
5.0
 30
0.0
 40
5.0
100
AcDbArc
 50
180.0
 51
0.0
  0
ARC
  5
5C44
100
AcDbEntity
  8
1
100
AcDbCircle
 10
5.0
 20
5.0
 30
0.0
 40
1.8
100
AcDbArc
 50
254.79935
 51
285.20065
  0
ARC
  5
5C45
100
AcDbEntity
  8
1
100
AcDbCircle
 10
5.0
 20
5.0
 30
0.0
 40
3.905775
100
AcDbArc
 50
259.675564
 51
280.324436
  0
ARC
  5
5C46
100
AcDbEntity
  8
1
100
AcDbCircle
 10
5.0
 20
5.0
 30
0.0
 40
3.622932
100
AcDbArc
 50
259.351483
 51
280.648517
  0
LINE
  5
5C47
100
AcDbEntity
  8
1
100
AcDbLine
 10
4.52804
 20
3.262976
 30
0.0
 11
4.23195
 21
3.2
 31
0.0
  0
LINE
  5
5C48
100
AcDbEntity
  8
1
100
AcDbLine
 10
4.330541
 20
1.439458
 30
0.0
 11
4.23195
 21
3.2
 31
0.0
  0
LINE
  5
5C49
100
AcDbEntity
  8
1
100
AcDbLine
 10
4.3
 20
0.049243
 30
0.0
 11
4.3
 21
1.157465
 31
0.0
  0
LINE
  5
5C4A
100
AcDbEntity
  8
1
100
AcDbLine
 10
4.3
 20
1.157465
 30
0.0
 11
4.52804
 21
3.262976
 31
0.0
  0
LINE
  5
5C4B
100
AcDbEntity
  8
1
100
AcDbLine
 10
3.945348
 20
3.945349
 30
0.0
 11
4.232681
 21
3.18693
 31
0.0
  0
LINE
  5
5C4C
100
AcDbEntity
  8
1
100
AcDbLine
 10
5.47196
 20
3.262976
 30
0.0
 11
5.76805
 21
3.2
 31
0.0
  0
LINE
  5
5C4D
100
AcDbEntity
  8
1
100
AcDbLine
 10
5.669458
 20
1.439458
 30
0.0
 11
5.76805
 21
3.2
 31
0.0
  0
LINE
  5
5C4E
100
AcDbEntity
  8
1
100
AcDbLine
 10
5.7
 20
0.049243
 30
0.0
 11
5.7
 21
1.157465
 31
0.0
  0
LINE
  5
5C4F
100
AcDbEntity
  8
1
100
AcDbLine
 10
5.7
 20
1.157465
 30
0.0
 11
5.47196
 21
3.262976
 31
0.0
  0
LINE
  5
5C50
100
AcDbEntity
  8
1
100
AcDbLine
 10
5.76805
 20
3.2
 30
0.0
 11
6.054652
 21
3.945349
 31
0.0
  0
ARC
  5
5C51
100
AcDbEntity
  8
1
100
AcDbCircle
 10
5.0
 20
5.0
 30
0.0
 40
3.905775
100
AcDbArc
 50
79.675564
 51
100.324436
  0
ARC
  5
5C52
100
AcDbEntity
  8
1
100
AcDbCircle
 10
5.0
 20
5.0
 30
0.0
 40
3.622932
100
AcDbArc
 50
79.351483
 51
100.648517
  0
ARC
  5
5C53
100
AcDbEntity
  8
1
100
AcDbCircle
 10
5.0
 20
5.0
 30
0.0
 40
1.8
100
AcDbArc
 50
74.79935
 51
105.20065
  0
LINE
  5
5C54
100
AcDbEntity
  8
1
100
AcDbLine
 10
4.52804
 20
6.737025
 30
0.0
 11
4.23195
 21
6.8
 31
0.0
  0
LINE
  5
5C55
100
AcDbEntity
  8
1
100
AcDbLine
 10
4.186087
 20
5.813913
 30
0.0
 11
4.52804
 21
6.737025
 31
0.0
  0
LINE
  5
5C56
100
AcDbEntity
  8
1
100
AcDbLine
 10
4.3
 20
8.842535
 30
0.0
 11
4.52804
 21
6.737025
 31
0.0
  0
LINE
  5
5C57
100
AcDbEntity
  8
1
100
AcDbLine
 10
4.330541
 20
8.560542
 30
0.0
 11
4.23195
 21
6.8
 31
0.0
  0
ARC
  5
5C58
100
AcDbEntity
  8
1
100
AcDbCircle
 10
5.0
 20
5.0
 30
0.0
 40
1.8
100
AcDbArc
 50
164.79935
 51
180.0
  0
LINE
  5
5C59
100
AcDbEntity
  8
1
100
AcDbLine
 10
3.262975
 20
5.471961
 30
0.0
 11
3.2
 21
5.768051
 31
0.0
  0
LINE
  5
5C5A
100
AcDbEntity
  8
1
100
AcDbLine
 10
3.2
 20
5.768051
 30
0.0
 11
3.945348
 21
6.054652
 31
0.0
  0
LINE
  5
5C5B
100
AcDbEntity
  8
1
100
AcDbLine
 10
3.262975
 20
4.52804
 30
0.0
 11
3.2
 21
4.23195
 31
0.0
  0
ARC
  5
5C5C
100
AcDbEntity
  8
1
100
AcDbCircle
 10
5.0
 20
5.0
 30
0.0
 40
1.8
100
AcDbArc
 50
180.0
 51
195.20065
  0
ARC
  5
5C5D
100
AcDbEntity
  8
1
100
AcDbCircle
 10
5.0
 20
5.0
 30
0.0
 40
3.622932
100
AcDbArc
 50
169.351483
 51
180.0
  0
ARC
  5
5C5E
100
AcDbEntity
  8
1
100
AcDbCircle
 10
5.0
 20
5.0
 30
0.0
 40
3.622932
100
AcDbArc
 50
180.0
 51
190.648517
  0
ARC
  5
5C5F
100
AcDbEntity
  8
1
100
AcDbCircle
 10
5.0
 20
5.0
 30
0.0
 40
3.905775
100
AcDbArc
 50
169.675564
 51
180.0
  0
ARC
  5
5C60
100
AcDbEntity
  8
1
100
AcDbCircle
 10
5.0
 20
5.0
 30
0.0
 40
3.905775
100
AcDbArc
 50
180.0
 51
190.324436
  0
LINE
  5
5C61
100
AcDbEntity
  8
1
100
AcDbLine
 10
1.439458
 20
5.669459
 30
0.0
 11
3.2
 21
5.768051
 31
0.0
  0
LINE
  5
5C62
100
AcDbEntity
  8
1
100
AcDbLine
 10
1.157465
 20
5.7
 30
0.0
 11
3.262975
 21
5.471961
 31
0.0
  0
LINE
  5
5C63
100
AcDbEntity
  8
1
100
AcDbLine
 10
1.157465
 20
4.3
 30
0.0
 11
3.262975
 21
4.52804
 31
0.0
  0
LINE
  5
5C64
100
AcDbEntity
  8
1
100
AcDbLine
 10
1.439458
 20
4.330542
 30
0.0
 11
3.2
 21
4.23195
 31
0.0
  0
LINE
  5
5C65
100
AcDbEntity
  8
1
100
AcDbLine
 10
3.262975
 20
5.471961
 30
0.0
 11
4.186087
 21
5.813913
 31
0.0
  0
LINE
  5
5C66
100
AcDbEntity
  8
1
100
AcDbLine
 10
3.262975
 20
4.52804
 30
0.0
 11
4.186087
 21
4.186088
 31
0.0
  0
LINE
  5
5C67
100
AcDbEntity
  8
1
100
AcDbLine
 10
3.945348
 20
6.054652
 30
0.0
 11
4.232681
 21
6.81307
 31
0.0
  0
ARC
  5
5C68
100
AcDbEntity
  8
1
100
AcDbCircle
 10
5.0
 20
5.0
 30
0.0
 40
3.905775
100
AcDbArc
 50
0.0
 51
10.324436
  0
ARC
  5
5C69
100
AcDbEntity
  8
1
100
AcDbCircle
 10
5.0
 20
5.0
 30
0.0
 40
3.622932
100
AcDbArc
 50
0.0
 51
10.648517
  0
ARC
  5
5C6A
100
AcDbEntity
  8
1
100
AcDbCircle
 10
5.0
 20
5.0
 30
0.0
 40
3.905775
100
AcDbArc
 50
349.675564
 51
360.0
  0
ARC
  5
5C6B
100
AcDbEntity
  8
1
100
AcDbCircle
 10
5.0
 20
5.0
 30
0.0
 40
3.622932
100
AcDbArc
 50
349.351483
 51
360.0
  0
LINE
  5
5C6C
100
AcDbEntity
  8
1
100
AcDbLine
 10
6.737024
 20
5.471961
 30
0.0
 11
6.8
 21
5.768051
 31
0.0
  0
ARC
  5
5C6D
100
AcDbEntity
  8
1
100
AcDbCircle
 10
5.0
 20
5.0
 30
0.0
 40
1.8
100
AcDbArc
 50
0.0
 51
15.20065
  0
LINE
  5
5C6E
100
AcDbEntity
  8
1
100
AcDbLine
 10
6.737024
 20
4.52804
 30
0.0
 11
6.8
 21
4.23195
 31
0.0
  0
ARC
  5
5C6F
100
AcDbEntity
  8
1
100
AcDbCircle
 10
5.0
 20
5.0
 30
0.0
 40
1.8
100
AcDbArc
 50
344.79935
 51
360.0
  0
LINE
  5
5C70
100
AcDbEntity
  8
1
100
AcDbLine
 10
8.842535
 20
5.7
 30
0.0
 11
6.737024
 21
5.471961
 31
0.0
  0
LINE
  5
5C71
100
AcDbEntity
  8
1
100
AcDbLine
 10
8.560542
 20
5.669459
 30
0.0
 11
6.8
 21
5.768051
 31
0.0
  0
LINE
  5
5C72
100
AcDbEntity
  8
1
100
AcDbLine
 10
8.560542
 20
4.330542
 30
0.0
 11
6.8
 21
4.23195
 31
0.0
  0
LINE
  5
5C73
100
AcDbEntity
  8
1
100
AcDbLine
 10
8.842535
 20
4.3
 30
0.0
 11
6.737024
 21
4.52804
 31
0.0
  0
LINE
  5
5C74
100
AcDbEntity
  8
1
100
AcDbLine
 10
5.47196
 20
6.737025
 30
0.0
 11
5.76805
 21
6.8
 31
0.0
  0
LINE
  5
5C75
100
AcDbEntity
  8
1
100
AcDbLine
 10
5.76805
 20
6.8
 30
0.0
 11
6.054652
 21
6.054652
 31
0.0
  0
LINE
  5
5C76
100
AcDbEntity
  8
1
100
AcDbLine
 10
5.47196
 20
6.737025
 30
0.0
 11
5.813912
 21
5.813913
 31
0.0
  0
LINE
  5
5C77
100
AcDbEntity
  8
1
100
AcDbLine
 10
6.054652
 20
6.054652
 30
0.0
 11
6.81307
 21
5.767319
 31
0.0
  0
LINE
  5
5C78
100
AcDbEntity
  8
1
100
AcDbLine
 10
5.813912
 20
5.813913
 30
0.0
 11
6.737024
 21
5.471961
 31
0.0
  0
LINE
  5
5C79
100
AcDbEntity
  8
1
100
AcDbLine
 10
5.813912
 20
4.186088
 30
0.0
 11
6.737024
 21
4.52804
 31
0.0
  0
LINE
  5
5C7A
100
AcDbEntity
  8
1
100
AcDbLine
 10
5.7
 20
8.842535
 30
0.0
 11
5.47196
 21
6.737025
 31
0.0
  0
LINE
  5
5C7B
100
AcDbEntity
  8
1
100
AcDbLine
 10
5.669458
 20
8.560542
 30
0.0
 11
5.76805
 21
6.8
 31
0.0
  0
ENDBLK
  5
5C7D
100
AcDbEntity
  8
0
100
AcDbBlockEnd
  0
BLOCK
  5
5C84
100
AcDbEntity
  8
0
100
AcDbBlockBegin
  2
A$C43230CC9
 70
     0
 10
0.0
 20
0.0
 30
0.0
  3
A$C43230CC9
  1

  0
LINE
  5
5C7F
100
AcDbEntity
  8
1
100
AcDbLine
 10
2.328763
 20
0.016703
 30
0.0
 11
0.0
 21
3.926269
 31
0.0
  0
LINE
  5
5C80
100
AcDbEntity
  8
1
100
AcDbLine
 10
2.328763
 20
0.016703
 30
0.0
 11
0.0
 21
3.926269
 31
0.0
  0
HATCH
  5
5C81
100
AcDbEntity
  8
1
100
AcDbHatch
 10
0.0
 20
0.0
 30
0.0
210
0.0
220
0.0
230
1.0
  2
SOLID
 70
     1
 71
     0
 91
        1
 92
        7
 72
     0
 73
     1
 93
        4
 10
0.0052449407473887
 20
3.91746308980305
 10
2.338712431123099
 20
0.0000001106941454
 10
2.356967801253517
 20
0.0000001106941454
 10
4.662984676850214
 20
3.91746308980305
 97
        0
 75
     0
 76
     1
 47
0.057765
 98
        1
 10
2.742519
 20
3.188007
  0
HATCH
  5
5C82
100
AcDbEntity
  8
1
100
AcDbHatch
 10
0.0
 20
0.0
 30
0.0
210
0.0
220
0.0
230
1.0
  2
SOLID
 70
     1
 71
     0
 91
        1
 92
        7
 72
     0
 73
     1
 93
        4
 10
0.0052449407473887
 20
3.91746308980305
 10
2.338712431123099
 20
0.0000001106941454
 10
2.356967801253517
 20
0.0000001106941454
 10
4.662984676850214
 20
3.91746308980305
 97
        0
 75
     0
 76
     1
 47
0.057765
 98
        1
 10
2.742519
 20
3.188007
  0
LINE
  5
5C83
100
AcDbEntity
  8
1
100
AcDbLine
 10
4.657529
 20
0.0
 30
0.0
 11
0.0
 21
0.0
 31
0.0
  0
ENDBLK
  5
5C85
100
AcDbEntity
  8
0
100
AcDbBlockEnd
  0
BLOCK
  5
5C95
100
AcDbEntity
  8
0
100
AcDbBlockBegin
  2
A$C312173AA
 70
     0
 10
0.0
 20
0.0
 30
0.0
  3
A$C312173AA
  1

  0
HATCH
  5
5C87
100
AcDbEntity
  8
1
100
AcDbHatch
 10
0.0
 20
0.0
 30
0.0
210
0.0
220
0.0
230
1.0
  2
SOLID
 70
     1
 71
     1
 91
        1
 92
        7
 72
     0
 73
     1
 93
        4
 10
2.724690422176692
 20
5.013136352600675
 10
5.058157912552374
 20
1.095673373491763
 10
5.076413282682707
 20
1.095673373491756
 10
7.382430158279476
 20
5.013136352600668
 97
        4
330
5C8C
330
5C90
330
5C8B
330
5C8E
 75
     0
 76
     1
 47
0.057765
 98
        1
 10
5.461965
 20
4.283681
  0
HATCH
  5
5C88
100
AcDbEntity
  8
1
100
AcDbHatch
 10
0.0
 20
0.0
 30
0.0
210
0.0
220
0.0
230
1.0
  2
SOLID
 70
     1
 71
     1
 91
        1
 92
        7
 72
     0
 73
     1
 93
        4
 10
2.724690422176692
 20
5.013136352600675
 10
5.058157912552374
 20
1.095673373491763
 10
5.076413282682707
 20
1.095673373491756
 10
7.382430158279476
 20
5.013136352600668
 97
        4
330
5C8A
330
5C8F
330
5C89
330
5C8D
 75
     0
 76
     1
 47
0.057765
 98
        1
 10
5.461965
 20
4.283681
  0
LINE
  5
5C89
102
{ACAD_REACTORS
330
5C88
102
}
100
AcDbEntity
  8
1
100
AcDbLine
 10
7.376974
 20
1.095673
 30
0.0
 11
2.719445
 21
1.095673
 31
0.0
  0
LINE
  5
5C8A
102
{ACAD_REACTORS
330
5C88
102
}
100
AcDbEntity
  8
1
100
AcDbLine
 10
2.716507
 20
5.013136
 30
0.0
 11
7.38243
 21
5.013136
 31
0.0
  0
LINE
  5
5C8B
102
{ACAD_REACTORS
330
5C87
102
}
100
AcDbEntity
  8
1
100
AcDbLine
 10
7.376974
 20
1.095673
 30
0.0
 11
2.719445
 21
1.095673
 31
0.0
  0
LINE
  5
5C8C
102
{ACAD_REACTORS
330
5C87
102
}
100
AcDbEntity
  8
1
100
AcDbLine
 10
2.716507
 20
5.013136
 30
0.0
 11
7.38243
 21
5.013136
 31
0.0
  0
LINE
  5
5C8D
102
{ACAD_REACTORS
330
5C88
102
}
100
AcDbEntity
  8
1
100
AcDbLine
 10
7.38243
 20
5.013136
 30
0.0
 11
5.049469
 21
1.0499
 31
0.0
  0
LINE
  5
5C8E
102
{ACAD_REACTORS
330
5C87
102
}
100
AcDbEntity
  8
1
100
AcDbLine
 10
7.38243
 20
5.013136
 30
0.0
 11
5.049469
 21
1.0499
 31
0.0
  0
LINE
  5
5C8F
102
{ACAD_REACTORS
330
5C88
102
}
100
AcDbEntity
  8
1
100
AcDbLine
 10
5.048209
 20
1.112376
 30
0.0
 11
2.719445
 21
5.021942
 31
0.0
  0
LINE
  5
5C90
102
{ACAD_REACTORS
330
5C87
102
}
100
AcDbEntity
  8
1
100
AcDbLine
 10
5.048209
 20
1.112376
 30
0.0
 11
2.719445
 21
5.021942
 31
0.0
  0
LINE
  5
5C91
100
AcDbEntity
  8
1
100
AcDbLine
 10
3.176777
 20
2.240563
 30
0.0
 11
1.859991
 21
0.714974
 31
0.0
  0
LINE
  5
5C92
100
AcDbEntity
  8
1
100
AcDbLine
 10
1.935572
 20
2.29404
 30
0.0
 11
0.618786
 21
0.768452
 31
0.0
  0
HATCH
  5
5C93
100
AcDbEntity
  8
1
100
AcDbHatch
 10
0.0
 20
0.0
 30
0.0
210
0.0
220
0.0
230
1.0
  2
SOLID
 70
     1
 71
     0
 91
        1
 92
        7
 72
     0
 73
     1
 93
        3
 10
2.13435432304297
 20
0.5079866047149438
 10
1.594971700028992
 20
0.9149117569309055
 10
1.241204476589189
 20
0.0000001052034975
 97
        0
 75
     0
 76
     1
 47
0.009825
 98
        1
 10
1.617082
 20
0.370646
  0
HATCH
  5
5C94
100
AcDbEntity
  8
1
100
AcDbHatch
 10
0.0
 20
0.0
 30
0.0
210
0.0
220
0.0
230
1.0
  2
SOLID
 70
     1
 71
     0
 91
        1
 92
        7
 72
     0
 73
     1
 93
        3
 10
0.8931496793437361
 20
0.5614642425206
 10
0.3537670563297865
 20
0.9683893947365334
 10
-0.0000001671100733
 20
0.0534777430091538
 97
        0
 75
     0
 76
     1
 47
0.009825
 98
        1
 10
0.375878
 20
0.424123
  0
ENDBLK
  5
5C96
100
AcDbEntity
  8
0
100
AcDbBlockEnd
  0
BLOCK
  5
5C99
100
AcDbEntity
  8
0
100
AcDbBlockBegin
  2
A$C43233A65
 70
     0
 10
0.0
 20
0.0
 30
0.0
  3
A$C43233A65
  1

  0
INSERT
  5
5C98
100
AcDbEntity
  8
1
100
AcDbBlockReference
  2
A$C312173AA
 10
0.0
 20
7.38243
 30
0.0
 50
270.0
  0
ENDBLK
  5
5C9A
100
AcDbEntity
  8
0
100
AcDbBlockEnd
  0
BLOCK
  5
8F80
100
AcDbEntity
  8
0
100
AcDbBlockBegin
  2
*D4
 70
     1
 10
0.0
 20
0.0
 30
0.0
  3
*D4
  1

  0
LINE
  5
8F81
100
AcDbEntity
  8
0
  6
BYBLOCK
 62
     0
100
AcDbLine
 10
536.829375
 20
90.55095
 30
0.0
 11
536.829375
 21
75.131811
 31
0.0
  0
LINE
  5
8F82
100
AcDbEntity
  8
0
  6
BYBLOCK
 62
     0
100
AcDbLine
 10
612.129375
 20
90.55095
 30
0.0
 11
612.129375
 21
75.131811
 31
0.0
  0
LINE
  5
8F83
100
AcDbEntity
  8
0
  6
BYBLOCK
 62
     0
100
AcDbLine
 10
540.329375
 20
76.631811
 30
0.0
 11
608.629375
 21
76.631811
 31
0.0
  0
SOLID
  5
8F84
100
AcDbEntity
  8
0
  6
BYBLOCK
 62
     0
100
AcDbTrace
 10
540.329375
 20
77.215144
 30
0.0
 11
540.329375
 21
76.048477
 31
0.0
 12
536.829375
 22
76.631811
 32
0.0
 13
536.829375
 23
76.631811
 33
0.0
  0
SOLID
  5
8F85
100
AcDbEntity
  8
0
  6
BYBLOCK
 62
     0
100
AcDbTrace
 10
608.629375
 20
77.215144
 30
0.0
 11
608.629375
 21
76.048477
 31
0.0
 12
612.129375
 22
76.631811
 32
0.0
 13
612.129375
 23
76.631811
 33
0.0
  0
MTEXT
  5
8F86
100
AcDbEntity
  8
0
  6
BYBLOCK
 62
     0
100
AcDbMText
 10
574.479375
 20
79.931811
 30
0.0
 40
3.6
 41
0.0
 71
     5
 72
     1
  1
\A1;75.3
  0
POINT
  5
8F87
100
AcDbEntity
  8
DEFPOINTS
  6
BYBLOCK
 62
     0
100
AcDbPoint
 10
536.829375
 20
92.05095
 30
0.0
  0
POINT
  5
8F88
100
AcDbEntity
  8
DEFPOINTS
  6
BYBLOCK
 62
     0
100
AcDbPoint
 10
612.129375
 20
92.05095
 30
0.0
  0
POINT
  5
8F89
100
AcDbEntity
  8
DEFPOINTS
  6
BYBLOCK
 62
     0
100
AcDbPoint
 10
612.129375
 20
76.631811
 30
0.0
  0
ENDBLK
  5
8F8A
100
AcDbEntity
  8
0
100
AcDbBlockEnd
  0
BLOCK
  5
8F97
100
AcDbEntity
  8
0
100
AcDbBlockBegin
  2
*D5
 70
     1
 10
0.0
 20
0.0
 30
0.0
  3
*D5
  1

  0
LINE
  5
8F98
100
AcDbEntity
  8
0
  6
BYBLOCK
 62
     0
100
AcDbLine
 10
612.85627
 20
91.65095
 30
0.0
 11
623.580159
 21
91.65095
 31
0.0
  0
LINE
  5
8F99
100
AcDbEntity
  8
0
  6
BYBLOCK
 62
     0
100
AcDbLine
 10
612.85627
 20
107.128397
 30
0.0
 11
623.580159
 21
107.128397
 31
0.0
  0
LINE
  5
8F9A
100
AcDbEntity
  8
0
  6
BYBLOCK
 62
     0
100
AcDbLine
 10
622.080159
 20
95.15095
 30
0.0
 11
622.080159
 21
103.628397
 31
0.0
  0
SOLID
  5
8F9B
100
AcDbEntity
  8
0
  6
BYBLOCK
 62
     0
100
AcDbTrace
 10
621.496826
 20
95.15095
 30
0.0
 11
622.663493
 21
95.15095
 31
0.0
 12
622.080159
 22
91.65095
 32
0.0
 13
622.080159
 23
91.65095
 33
0.0
  0
SOLID
  5
8F9C
100
AcDbEntity
  8
0
  6
BYBLOCK
 62
     0
100
AcDbTrace
 10
621.496826
 20
103.628397
 30
0.0
 11
622.663493
 21
103.628397
 31
0.0
 12
622.080159
 22
107.128397
 32
0.0
 13
622.080159
 23
107.128397
 33
0.0
  0
MTEXT
  5
8F9D
100
AcDbEntity
  8
0
  6
BYBLOCK
 62
     0
100
AcDbMText
 10
618.780159
 20
99.389674
 30
0.0
 40
3.6
 41
0.0
 71
     5
 72
     1
  1
\A1;15.5
 11
0.0
 21
1.0
 31
0.0
  0
POINT
  5
8F9E
100
AcDbEntity
  8
DEFPOINTS
  6
BYBLOCK
 62
     0
100
AcDbPoint
 10
611.35627
 20
91.65095
 30
0.0
  0
POINT
  5
8F9F
100
AcDbEntity
  8
DEFPOINTS
  6
BYBLOCK
 62
     0
100
AcDbPoint
 10
611.35627
 20
107.128397
 30
0.0
  0
POINT
  5
8FA0
100
AcDbEntity
  8
DEFPOINTS
  6
BYBLOCK
 62
     0
100
AcDbPoint
 10
622.080159
 20
107.128397
 30
0.0
  0
ENDBLK
  5
8FA1
100
AcDbEntity
  8
0
100
AcDbBlockEnd
  0
BLOCK
  5
90D0
100
AcDbEntity
  8
0
 62
     3
100
AcDbBlockBegin
  2
A$C30C750A4
 70
     0
 10
0.0
 20
0.0
 30
0.0
  3
A$C30C750A4
  1

  0
TEXT
  5
90CF
100
AcDbEntity
  8
1
100
AcDbText
 10
-0.153114
 20
1.333334
 30
0.0
 40
4.0
  1
Schematy połączeń / Connections diagrams
 41
0.7
 51
15.0
  7
ITALIC
100
AcDbText
  0
ENDBLK
  5
90D1
100
AcDbEntity
  8
0
 62
     3
100
AcDbBlockEnd
  0
BLOCK
  5
90FC
100
AcDbEntity
  8
0
100
AcDbBlockBegin
  2
*D7
 70
     1
 10
0.0
 20
0.0
 30
0.0
  3
*D7
  1

  0
LINE
  5
90FD
100
AcDbEntity
  8
0
  6
BYBLOCK
 62
     0
100
AcDbLine
 10
540.329375
 20
103.15095
 30
0.0
 11
528.878724
 21
103.15095
 31
0.0
  0
LINE
  5
90FE
100
AcDbEntity
  8
0
  6
BYBLOCK
 62
     0
100
AcDbLine
 10
540.329375
 20
95.65095
 30
0.0
 11
528.878724
 21
95.65095
 31
0.0
  0
LINE
  5
90FF
100
AcDbEntity
  8
0
  6
BYBLOCK
 62
     0
100
AcDbLine
 10
530.378724
 20
106.65095
 30
0.0
 11
530.378724
 21
110.15095
 31
0.0
  0
LINE
  5
9100
100
AcDbEntity
  8
0
  6
BYBLOCK
 62
     0
100
AcDbLine
 10
530.378724
 20
92.15095
 30
0.0
 11
530.378724
 21
75.45095
 31
0.0
  0
SOLID
  5
9101
100
AcDbEntity
  8
0
  6
BYBLOCK
 62
     0
100
AcDbTrace
 10
529.79539
 20
106.65095
 30
0.0
 11
530.962057
 21
106.65095
 31
0.0
 12
530.378724
 22
103.15095
 32
0.0
 13
530.378724
 23
103.15095
 33
0.0
  0
SOLID
  5
9102
100
AcDbEntity
  8
0
  6
BYBLOCK
 62
     0
100
AcDbTrace
 10
529.79539
 20
92.15095
 30
0.0
 11
530.962057
 21
92.15095
 31
0.0
 12
530.378724
 22
95.65095
 32
0.0
 13
530.378724
 23
95.65095
 33
0.0
  0
MTEXT
  5
9103
100
AcDbEntity
  8
0
  6
BYBLOCK
 62
     0
100
AcDbMText
 10
527.078724
 20
82.05095
 30
0.0
 40
3.6
 41
0.0
 71
     5
 72
     1
  1
\A1;7.50
 11
0.0
 21
1.0
 31
0.0
  0
POINT
  5
9104
100
AcDbEntity
  8
DEFPOINTS
  6
BYBLOCK
 62
     0
100
AcDbPoint
 10
541.829375
 20
103.15095
 30
0.0
  0
POINT
  5
9105
100
AcDbEntity
  8
DEFPOINTS
  6
BYBLOCK
 62
     0
100
AcDbPoint
 10
541.829375
 20
95.65095
 30
0.0
  0
POINT
  5
9106
100
AcDbEntity
  8
DEFPOINTS
  6
BYBLOCK
 62
     0
100
AcDbPoint
 10
530.378724
 20
95.65095
 30
0.0
  0
ENDBLK
  5
9107
100
AcDbEntity
  8
0
100
AcDbBlockEnd
  0
ENDSEC
  0
SECTION
  2
ENTITIES
  0
LINE
  5
2D2D
100
AcDbEntity
  8
WYMIARY
 62
     6
100
AcDbLine
 10
486.041244
 20
0.0
 30
0.0
 11
486.041244
 21
297.0
 31
0.0
  0
LINE
  5
2D2E
100
AcDbEntity
  8
WYMIARY
 62
     6
100
AcDbLine
 10
497.671651
 20
292.0
 30
0.0
 11
497.671651
 21
5.0
 31
0.0
  0
LINE
  5
2D34
100
AcDbEntity
  8
2
100
AcDbLine
 10
682.671651
 20
5.0
 30
0.0
 11
682.671651
 21
292.0
 31
0.0
  0
LINE
  5
2D35
100
AcDbEntity
  8
2
100
AcDbLine
 10
687.671651
 20
0.0
 30
0.0
 11
687.671651
 21
297.0
 31
0.0
  0
LINE
  5
2D36
100
AcDbEntity
  8
WY
  6
CONTINUOUS
 62
     3
100
AcDbLine
 10
682.671651
 20
19.689837
 30
0.0
 11
497.671651
 21
19.689837
 31
0.0
  0
LINE
  5
2D38
100
AcDbEntity
  8
2
100
AcDbLine
 10
497.671651
 20
5.0
 30
0.0
 11
682.671651
 21
5.0
 31
0.0
  0
LINE
  5
2D39
100
AcDbEntity
  8
2
 62
     6
100
AcDbLine
 10
497.671651
 20
0.0
 30
0.0
 11
687.671651
 21
0.0
 31
0.0
  0
LINE
  5
2D3A
100
AcDbEntity
  8
0
100
AcDbLine
 10
529.697667
 20
11.742481
 30
0.0
 11
528.795256
 21
11.742481
 31
0.0
1001
ACAD
1000
ASC_BOUNDS
1002
{
1070
    19
1002
}
  0
ELLIPSE
  5
2D3B
100
AcDbEntity
  8
0
100
AcDbEllipse
 10
529.697667
 20
11.742481
 30
0.0
 11
-1.203215696869327
 21
0.0000000000001967
 31
0.0
210
0.0
220
0.0
230
1.0
 40
0.958812
 41
-1.570796326794739
 42
0.0000000000001705
1001
ACAD
1000
ASC_BOUNDS
1002
{
1070
    19
1002
}
  0
TEXT
  5
2D3D
100
AcDbEntity
  8
1
100
AcDbText
 10
515.607578
 20
8.797457
 30
0.0
 40
5.0
  1
A4
 51
15.0
  7
ITALIC
100
AcDbText
  0
LINE
  5
2D40
100
AcDbEntity
  8
WYMIARY
 62
     6
100
AcDbLine
 10
497.671651
 20
0.0
 30
0.0
 11
486.041244
 21
0.0
 31
0.0
  0
TEXT
  5
2D42
100
AcDbEntity
  8
WY
100
AcDbText
 10
502.936765
 20
16.373844
 30
0.0
 40
2.0
  1
Skala
 51
15.0
  7
ITALIC
100
AcDbText
  0
TEXT
  5
2D43
100
AcDbEntity
  8
WY
100
AcDbText
 10
515.042219
 20
16.329369
 30
0.0
 40
2.0
  1
Format
 51
15.0
  7
ITALIC
100
AcDbText
  0
LINE
  5
2D44
100
AcDbEntity
  8
0
100
AcDbLine
 10
528.494452
 20
11.742481
 30
0.0
 11
528.795256
 21
11.742481
 31
0.0
1001
ACAD
1000
ASC_BOUNDS
1002
{
1070
    19
1002
}
  0
LINE
  5
2D45
100
AcDbEntity
  8
0
100
AcDbLine
 10
559.88722
 20
17.211264
 30
0.0
 11
559.88722
 21
9.015264
 31
0.0
  0
LINE
  5
2D46
100
AcDbEntity
  8
0
100
AcDbLine
 10
550.89322
 20
9.438264
 30
0.0
 11
550.89322
 21
7.416264
 31
0.0
  0
ARC
  5
2D47
100
AcDbEntity
  8
0
100
AcDbCircle
 10
551.5428
 20
9.724764
 30
0.0
 40
0.709955
100
AcDbArc
 50
203.80008
 51
272.051918
  0
LINE
  5
2D48
100
AcDbEntity
  8
0
100
AcDbLine
 10
549.34822
 20
7.416264
 30
0.0
 11
549.34822
 21
15.612264
 31
0.0
  0
ARC
  5
2D49
100
AcDbEntity
  8
0
100
AcDbCircle
 10
551.982126
 20
10.136416
 30
0.0
 40
1.128907
100
AcDbArc
 50
276.719576
 51
2.175194
  0
ARC
  5
2D4A
100
AcDbEntity
  8
0
100
AcDbCircle
 10
555.243059
 20
10.503572
 30
0.0
 40
1.488419
100
AcDbArc
 50
191.634268
 51
270.699113
  0
ARC
  5
2D4B
100
AcDbEntity
  8
0
100
AcDbCircle
 10
556.209381
 20
10.503572
 30
0.0
 40
1.488419
100
AcDbArc
 50
269.300887
 51
348.365732
  0
LINE
  5
2D4C
100
AcDbEntity
  8
0
100
AcDbLine
 10
558.34222
 20
9.015264
 30
0.0
 11
558.34222
 21
17.211264
 31
0.0
  0
ARC
  5
2D4D
100
AcDbEntity
  8
0
100
AcDbCircle
 10
545.056591
 20
10.472364
 30
0.0
 40
1.425319
100
AcDbArc
 50
269.703671
 51
350.465171
  0
ARC
  5
2D4E
100
AcDbEntity
  8
0
100
AcDbCircle
 10
544.201848
 20
10.472364
 30
0.0
 40
1.425319
100
AcDbArc
 50
189.534829
 51
270.296329
  0
LINE
  5
2D4F
100
AcDbEntity
  8
0
100
AcDbLine
 10
547.14922
 20
9.015264
 30
0.0
 11
547.14922
 21
17.211264
 31
0.0
  0
LINE
  5
2D50
100
AcDbEntity
  8
0
100
AcDbLine
 10
548.69422
 20
17.211264
 30
0.0
 11
548.69422
 21
9.015264
 31
0.0
  0
LINE
  5
2D51
100
AcDbEntity
  8
0
100
AcDbLine
 10
539.892236
 20
14.361264
 30
0.0
 11
539.903809
 21
9.015264
 31
0.0
  0
LINE
  5
2D52
100
AcDbEntity
  8
0
100
AcDbLine
 10
538.361694
 20
9.015264
 30
0.0
 11
538.361694
 21
15.60367
 31
0.0
1001
ACAD
1000
ASC_BOUNDS
1002
{
1070
    19
1002
}
  0
LINE
  5
2D53
100
AcDbEntity
  8
0
100
AcDbLine
 10
529.697667
 20
9.895061
 30
0.0
 11
529.697667
 21
8.185369
 31
0.0
1001
ACAD
1000
ASC_BOUNDS
1002
{
1070
    19
1002
}
  0
LINE
  5
2D54
100
AcDbEntity
  8
0
100
AcDbLine
 10
535.613478
 20
8.185369
 30
0.0
 11
535.613478
 21
11.742481
 31
0.0
1001
ACAD
1000
ASC_BOUNDS
1002
{
1070
    19
1002
}
  0
LINE
  5
2D55
100
AcDbEntity
  8
1
100
AcDbLine
 10
563.469863
 20
5.0
 30
0.0
 11
563.469863
 21
19.689837
 31
0.0
  0
LINE
  5
2D56
100
AcDbEntity
  8
0
100
AcDbLine
 10
530.499811
 20
7.416263
 30
0.0
 11
534.811334
 21
7.416263
 31
0.0
1001
ACAD
1000
ASC_BOUNDS
1002
{
1070
    19
1002
}
  0
ELLIPSE
  5
2D57
100
AcDbEntity
  8
0
100
AcDbEllipse
 10
530.499811
 20
8.185369
 30
0.0
 11
-0.8021437979128705
 21
0.0000000000000154
 31
0.0
210
0.0
220
0.0
230
1.0
 40
0.958812
 41
0.00000000000002
 42
1.570796326794914
1001
ACAD
1000
ASC_BOUNDS
1002
{
1070
    19
1002
}
  0
ELLIPSE
  5
2D58
100
AcDbEntity
  8
0
100
AcDbEllipse
 10
534.811334
 20
8.185369
 30
0.0
 11
0.8021437979128704
 21
0.0000000000001602
 31
0.0
210
0.0
220
0.0
230
1.0
 40
0.958812
 41
4.712388980384497
 42
6.283185307179378
1001
ACAD
1000
ASC_BOUNDS
1002
{
1070
    19
1002
}
  0
LINE
  5
2D59
100
AcDbEntity
  8
0
100
AcDbLine
 10
539.892236
 20
9.015264
 30
0.0
 11
539.903809
 21
9.022759
 31
0.0
  0
LINE
  5
2D5A
100
AcDbEntity
  8
0
100
AcDbLine
 10
538.361694
 20
9.015264
 30
0.0
 11
539.903809
 21
9.015264
 31
0.0
1001
ACAD
1000
ASC_BOUNDS
1002
{
1070
    19
1002
}
  0
LINE
  5
2D5B
100
AcDbEntity
  8
0
100
AcDbLine
 10
544.194477
 20
9.047064
 30
0.0
 11
545.04922
 21
9.047064
 31
0.0
  0
LINE
  5
2D5C
100
AcDbEntity
  8
0
100
AcDbLine
 10
550.89322
 20
7.416264
 30
0.0
 11
549.34822
 21
7.416264
 31
0.0
  0
LINE
  5
2D5D
100
AcDbEntity
  8
0
100
AcDbLine
 10
548.69422
 20
9.015264
 30
0.0
 11
547.14922
 21
9.015264
 31
0.0
  0
LINE
  5
2D5E
100
AcDbEntity
  8
0
100
AcDbLine
 10
551.576266
 20
9.015264
 30
0.0
 11
552.11422
 21
9.015264
 31
0.0
  0
LINE
  5
2D5F
100
AcDbEntity
  8
0
100
AcDbLine
 10
555.26122
 20
9.015264
 30
0.0
 11
556.19122
 21
9.015264
 31
0.0
  0
LINE
  5
2D60
100
AcDbEntity
  8
0
100
AcDbLine
 10
559.88722
 20
9.015264
 30
0.0
 11
558.34222
 21
9.015264
 31
0.0
  0
ARC
  5
2D61
100
AcDbEntity
  8
0
100
AcDbCircle
 10
545.056591
 20
14.17837
 30
0.0
 40
1.425319
100
AcDbArc
 50
9.534829
 51
90.296329
  0
LINE
  5
2D62
100
AcDbEntity
  8
0
100
AcDbLine
 10
546.46222
 20
11.81167
 30
0.0
 11
544.33822
 21
11.81167
 31
0.0
  0
LINE
  5
2D63
100
AcDbEntity
  8
0
100
AcDbLine
 10
545.01322
 20
11.13667
 30
0.0
 11
546.46222
 21
11.13667
 31
0.0
  0
LINE
  5
2D64
100
AcDbEntity
  8
0
100
AcDbLine
 10
529.697667
 20
13.461283
 30
0.0
 11
529.697667
 21
16.260974
 31
0.0
1001
ACAD
1000
ASC_BOUNDS
1002
{
1070
    19
1002
}
  0
ELLIPSE
  5
2D65
100
AcDbEntity
  8
0
100
AcDbEllipse
 10
532.630506
 20
15.17942
 30
0.0
 11
2.983077570132104
 21
0.0000000000002996
 31
0.0
210
0.0
220
0.0
230
1.0
 40
0.958812
 41
-1.562393163247347
 42
0.0084031635475457
1001
ACAD
1000
ASC_BOUNDS
1002
{
1070
    19
1002
}
  0
ELLIPSE
  5
2D66
100
AcDbEntity
  8
0
100
AcDbEllipse
 10
532.58733
 20
15.509539
 30
0.0
 11
-4.072692107280919
 21
0.0000000000000925
 31
0.0
210
0.0
220
0.0
230
1.0
 40
0.958812
 41
1.587553347046634
 42
2.408388587343224
1001
ACAD
1000
ASC_BOUNDS
1002
{
1070
    19
1002
}
  0
LINE
  5
2D67
100
AcDbEntity
  8
0
100
AcDbLine
 10
529.697667
 20
11.742481
 30
0.0
 11
529.697667
 21
11.034514
 31
0.0
1001
ACAD
1000
ASC_BOUNDS
1002
{
1070
    19
1002
}
  0
LINE
  5
2D68
100
AcDbEntity
  8
0
100
AcDbLine
 10
529.697667
 20
13.461283
 30
0.0
 11
529.697667
 21
12.896138
 31
0.0
1001
ACAD
1000
ASC_BOUNDS
1002
{
1070
    19
1002
}
  0
ELLIPSE
  5
2D69
100
AcDbEntity
  8
0
100
AcDbEllipse
 10
532.249598
 20
9.872487
 30
0.0
 11
2.960559210508897
 21
0.3570763225581005
 31
0.0
210
0.0
220
0.0
230
0.9999999999999998
 40
0.820999
 41
1.335209029023201
 42
2.503032872947537
1001
ACAD
1000
ASC_BOUNDS
1002
{
1070
    19
1002
}
  0
ELLIPSE
  5
2D6A
100
AcDbEntity
  8
0
100
AcDbEllipse
 10
532.480104
 20
8.937306
 30
0.0
 11
3.015746449176212
 21
0.7746519372140012
 31
0.0
210
0.0
220
0.0
230
1.0
 40
0.846775
 41
1.29973646820557
 42
2.479974117225238
1001
ACAD
1000
ASC_BOUNDS
1002
{
1070
    19
1002
}
  0
LINE
  5
2D6B
100
AcDbEntity
  8
0
100
AcDbLine
 10
536.816694
 20
12.896138
 30
0.0
 11
536.51589
 21
12.896138
 31
0.0
1001
ACAD
1000
ASC_BOUNDS
1002
{
1070
    19
1002
}
  0
LINE
  5
2D6C
100
AcDbEntity
  8
0
100
AcDbLine
 10
535.613478
 20
12.896138
 30
0.0
 11
536.51589
 21
12.896138
 31
0.0
1001
ACAD
1000
ASC_BOUNDS
1002
{
1070
    19
1002
}
  0
ELLIPSE
  5
2D6D
100
AcDbEntity
  8
0
100
AcDbEllipse
 10
535.613478
 20
12.896138
 30
0.0
 11
1.203215696869352
 21
0.0000000000000893
 31
0.0
210
0.0
220
0.0
230
1.0
 40
0.958812
 41
4.712388980384611
 42
6.283185307179508
1001
ACAD
1000
ASC_BOUNDS
1002
{
1070
    19
1002
}
  0
LINE
  5
2D6E
100
AcDbEntity
  8
0
100
AcDbLine
 10
530.499811
 20
17.030079
 30
0.0
 11
534.811334
 21
17.030079
 31
0.0
  0
ELLIPSE
  5
2D6F
100
AcDbEntity
  8
0
100
AcDbEllipse
 10
530.499811
 20
16.260974
 30
0.0
 11
0.8021437979128704
 21
0.000000000000038
 31
0.0
210
0.0
220
0.0
230
1.0
 40
0.958812
 41
1.570796326794851
 42
3.141592653589743
1001
ACAD
1000
ASC_BOUNDS
1002
{
1070
    19
1002
}
  0
LINE
  5
2D70
100
AcDbEntity
  8
0
100
AcDbLine
 10
535.613478
 20
15.155385
 30
0.0
 11
535.613478
 21
16.260974
 31
0.0
1001
ACAD
1000
ASC_BOUNDS
1002
{
1070
    19
1002
}
  0
ELLIPSE
  5
2D71
100
AcDbEntity
  8
0
100
AcDbEllipse
 10
534.811334
 20
16.260974
 30
0.0
 11
-0.8021437979128705
 21
0.000000000000038
 31
0.0
210
0.0
220
0.0
230
1.0
 40
0.958812
 41
3.141592653589842
 42
4.712388980384734
1001
ACAD
1000
ASC_BOUNDS
1002
{
1070
    19
1002
}
  0
ARC
  5
2D72
100
AcDbEntity
  8
0
100
AcDbCircle
 10
540.798894
 20
14.34127
 30
0.0
 40
1.377457
100
AcDbArc
 50
16.265061
 51
130.527299
  0
ARC
  5
2D73
100
AcDbEntity
  8
0
100
AcDbCircle
 10
544.201848
 20
14.17837
 30
0.0
 40
1.425319
100
AcDbArc
 50
89.703671
 51
170.465171
  0
LINE
  5
2D74
100
AcDbEntity
  8
0
100
AcDbLine
 10
540.911147
 20
12.93607
 30
0.0
 11
542.12122
 21
12.93607
 31
0.0
  0
LINE
  5
2D75
100
AcDbEntity
  8
0
100
AcDbLine
 10
540.578809
 20
12.93607
 30
0.0
 11
542.12122
 21
12.93607
 31
0.0
  0
ARC
  5
2D76
100
AcDbEntity
  8
0
100
AcDbCircle
 10
540.229736
 20
14.361264
 30
0.0
 40
0.3375
100
AcDbArc
 50
360.0
 51
180.0
  0
LINE
  5
2D77
100
AcDbEntity
  8
0
100
AcDbLine
 10
540.567236
 20
14.361264
 30
0.0
 11
540.578809
 21
12.93607
 31
0.0
  0
ARC
  5
2D78
100
AcDbEntity
  8
0
100
AcDbCircle
 10
544.67572
 20
14.361264
 30
0.0
 40
0.3375
100
AcDbArc
 50
360.0
 51
180.0
  0
LINE
  5
2D79
100
AcDbEntity
  8
0
100
AcDbLine
 10
544.33822
 20
11.81167
 30
0.0
 11
544.33822
 21
10.236264
 31
0.0
  0
LINE
  5
2D7A
100
AcDbEntity
  8
0
100
AcDbLine
 10
544.33822
 20
12.71167
 30
0.0
 11
545.01322
 21
12.71167
 31
0.0
  0
LINE
  5
2D7B
100
AcDbEntity
  8
0
100
AcDbLine
 10
545.01322
 20
11.13667
 30
0.0
 11
545.01322
 21
10.252764
 31
0.0
  0
LINE
  5
2D7C
100
AcDbEntity
  8
0
100
AcDbLine
 10
544.33822
 20
11.81167
 30
0.0
 11
544.33822
 21
10.252764
 31
0.0
  0
ARC
  5
2D7D
100
AcDbEntity
  8
0
100
AcDbCircle
 10
544.67572
 20
10.252764
 30
0.0
 40
0.3375
100
AcDbArc
 50
180.0
 51
0.0
  0
LINE
  5
2D7E
100
AcDbEntity
  8
0
100
AcDbLine
 10
545.01322
 20
14.361264
 30
0.0
 11
545.01322
 21
12.71167
 31
0.0
  0
LINE
  5
2D7F
100
AcDbEntity
  8
0
100
AcDbLine
 10
544.33822
 20
14.361264
 30
0.0
 11
544.33822
 21
12.71167
 31
0.0
  0
LINE
  5
2D80
100
AcDbEntity
  8
0
100
AcDbLine
 10
542.12122
 20
12.93607
 30
0.0
 11
542.12122
 21
14.72707
 31
0.0
1001
ACAD
1000
ASC_BOUNDS
1002
{
1070
    19
1002
}
  0
LINE
  5
2D81
100
AcDbEntity
  8
0
100
AcDbLine
 10
542.79622
 20
10.236264
 30
0.0
 11
542.79622
 21
14.41447
 31
0.0
  0
LINE
  5
2D82
100
AcDbEntity
  8
0
100
AcDbLine
 10
539.903809
 20
15.60367
 30
0.0
 11
539.903809
 21
15.38827
 31
0.0
  0
LINE
  5
2D83
100
AcDbEntity
  8
0
100
AcDbLine
 10
538.361694
 20
15.60367
 30
0.0
 11
539.903809
 21
15.60367
 31
0.0
1001
ACAD
1000
ASC_BOUNDS
1002
{
1070
    19
1002
}
  0
LINE
  5
2D84
100
AcDbEntity
  8
0
100
AcDbLine
 10
544.194477
 20
15.60367
 30
0.0
 11
545.04922
 21
15.60367
 31
0.0
  0
ARC
  5
2D85
100
AcDbEntity
  8
0
100
AcDbCircle
 10
555.243059
 20
14.124104
 30
0.0
 40
1.488419
100
AcDbArc
 50
89.300887
 51
168.365732
  0
ARC
  5
2D86
100
AcDbEntity
  8
0
100
AcDbCircle
 10
551.752247
 20
14.207365
 30
0.0
 40
1.409039
100
AcDbArc
 50
15.47255
 51
127.56454
  0
LINE
  5
2D87
100
AcDbEntity
  8
0
100
AcDbLine
 10
546.46222
 20
11.13667
 30
0.0
 11
546.46222
 21
10.236264
 31
0.0
  0
LINE
  5
2D88
100
AcDbEntity
  8
0
100
AcDbLine
 10
546.46222
 20
11.81167
 30
0.0
 11
546.46222
 21
14.41447
 31
0.0
  0
LINE
  5
2D89
100
AcDbEntity
  8
0
100
AcDbLine
 10
553.11022
 20
14.583264
 30
0.0
 11
553.11022
 21
10.179264
 31
0.0
  0
LINE
  5
2D8A
100
AcDbEntity
  8
0
100
AcDbLine
 10
551.56822
 20
14.361264
 30
0.0
 11
551.56822
 21
10.252764
 31
0.0
  0
LINE
  5
2D8B
100
AcDbEntity
  8
0
100
AcDbLine
 10
550.89322
 20
14.361264
 30
0.0
 11
550.89322
 21
10.252764
 31
0.0
  0
ARC
  5
2D8C
100
AcDbEntity
  8
0
100
AcDbCircle
 10
551.23072
 20
10.252764
 30
0.0
 40
0.3375
100
AcDbArc
 50
180.0
 51
0.0
  0
ARC
  5
2D8D
100
AcDbEntity
  8
0
100
AcDbCircle
 10
551.23072
 20
14.361264
 30
0.0
 40
0.3375
100
AcDbArc
 50
360.0
 51
180.0
  0
LINE
  5
2D8E
100
AcDbEntity
  8
0
100
AcDbLine
 10
549.34822
 20
15.612264
 30
0.0
 11
550.89322
 21
15.612264
 31
0.0
  0
LINE
  5
2D8F
100
AcDbEntity
  8
0
100
AcDbLine
 10
547.14922
 20
17.211264
 30
0.0
 11
548.69422
 21
17.211264
 31
0.0
  0
LINE
  5
2D90
100
AcDbEntity
  8
0
100
AcDbLine
 10
550.89322
 20
15.612264
 30
0.0
 11
550.89322
 21
15.324264
 31
0.0
  0
ARC
  5
2D91
100
AcDbEntity
  8
0
100
AcDbCircle
 10
556.209381
 20
14.124104
 30
0.0
 40
1.488419
100
AcDbArc
 50
11.634268
 51
90.699113
  0
LINE
  5
2D92
100
AcDbEntity
  8
0
100
AcDbLine
 10
557.66722
 20
14.424264
 30
0.0
 11
557.66722
 21
10.203412
 31
0.0
  0
ARC
  5
2D93
100
AcDbEntity
  8
0
100
AcDbCircle
 10
555.72622
 20
14.361264
 30
0.0
 40
0.3375
100
AcDbArc
 50
360.0
 51
180.0
  0
ARC
  5
2D94
100
AcDbEntity
  8
0
100
AcDbCircle
 10
555.72622
 20
10.252764
 30
0.0
 40
0.3375
100
AcDbArc
 50
180.0
 51
0.0
  0
LINE
  5
2D95
100
AcDbEntity
  8
0
100
AcDbLine
 10
555.38872
 20
14.361264
 30
0.0
 11
555.38872
 21
10.252764
 31
0.0
  0
LINE
  5
2D96
100
AcDbEntity
  8
0
100
AcDbLine
 10
556.06372
 20
14.361264
 30
0.0
 11
556.06372
 21
10.252764
 31
0.0
  0
LINE
  5
2D97
100
AcDbEntity
  8
0
100
AcDbLine
 10
553.78522
 20
10.203412
 30
0.0
 11
553.78522
 21
14.424264
 31
0.0
  0
LINE
  5
2D98
100
AcDbEntity
  8
0
100
AcDbLine
 10
555.26122
 20
15.612412
 30
0.0
 11
556.19122
 21
15.612412
 31
0.0
  0
LINE
  5
2D99
100
AcDbEntity
  8
0
100
AcDbLine
 10
558.34222
 20
17.211264
 30
0.0
 11
559.88722
 21
17.211264
 31
0.0
  0
TEXT
  5
2D9A
100
AcDbEntity
  8
WY
100
AcDbText
 10
564.417407
 20
11.60401
 30
0.0
 40
2.0
  1
01-12-2007
 51
15.0
  7
ITALIC
100
AcDbText
  0
TEXT
  5
2D9B
100
AcDbEntity
  8
WY
100
AcDbText
 10
568.848776
 20
16.149239
 30
0.0
 40
2.0
  1
Data
 51
15.0
  7
ITALIC
100
AcDbText
  0
TEXT
  5
2D9D
100
AcDbEntity
  8
1
100
AcDbText
 10
631.620292
 20
9.064009
 30
0.0
 40
5.0
  1
PI84   GZT80
 41
0.8
 51
15.0
  7
ITALIC
100
AcDbText
  0
LINE
  5
2D9E
100
AcDbEntity
  8
1
100
AcDbLine
 10
627.394234
 20
5.0
 30
0.0
 11
627.394234
 21
19.689837
 31
0.0
  0
TEXT
  5
2D9F
100
AcDbEntity
  8
WY
100
AcDbText
 10
629.585432
 20
16.599248
 30
0.0
 40
2.0
  1
Product type
 51
15.0
  7
ITALIC
100
AcDbText
  0
LINE
  5
2DF2
100
AcDbEntity
  8
2
100
AcDbLine
 10
682.671651
 20
292.0
 30
0.0
 11
497.671651
 21
292.0
 31
0.0
  0
LINE
  5
2DF3
100
AcDbEntity
  8
2
100
AcDbLine
 10
687.671651
 20
297.0
 30
0.0
 11
497.671651
 21
297.0
 31
0.0
  0
LINE
  5
2E74
100
AcDbEntity
  8
WYMIARY
 62
     6
100
AcDbLine
 10
497.671651
 20
297.0
 30
0.0
 11
486.041244
 21
297.0
 31
0.0
  0
MTEXT
  5
31F2
100
AcDbEntity
  8
WYMIARY
100
AcDbMText
 10
780.543201
 20
224.476865
 30
0.0
 40
3.5
 41
15.6
 71
     1
 72
     5
  1

  7
ITALIC
  0
TEXT
  5
478E
100
AcDbEntity
  8
1
100
AcDbText
 10
500.301985
 20
8.797457
 30
0.0
 40
5.0
  1
1:1
 51
15.0
  7
ITALIC
100
AcDbText
  0
LINE
  5
482F
100
AcDbEntity
  8
WYMIARY
 62
     6
100
AcDbLine
 10
687.671651
 20
0.0
 30
0.0
 11
687.671651
 21
297.0
 31
0.0
  0
LINE
  5
4AD7
100
AcDbEntity
  8
WYMIARY
 62
     3
100
AcDbLine
 10
512.671651
 20
19.689837
 30
0.0
 11
512.671651
 21
5.0
 31
0.0
  0
LINE
  5
4AD9
100
AcDbEntity
  8
WYMIARY
 62
     3
100
AcDbLine
 10
527.671651
 20
19.689837
 30
0.0
 11
527.671651
 21
5.0
 31
0.0
  0
LINE
  5
4ADA
100
AcDbEntity
  8
WYMIARY
 62
     3
100
AcDbLine
 10
586.373187
 20
19.689837
 30
0.0
 11
586.373187
 21
5.0
 31
0.0
  0
TEXT
  5
4ADB
100
AcDbEntity
  8
WY
100
AcDbText
 10
587.562196
 20
16.599248
 30
0.0
 40
2.0
  1
Draw. No.
 51
15.0
  7
ITALIC
100
AcDbText
  0
TEXT
  5
4ADF
100
AcDbEntity
  8
1
100
AcDbText
 10
587.640114
 20
9.064009
 30
0.0
 40
3.5
  1
PI84 z GZT80-01A
 41
0.7
 51
15.0
  7
ITALIC
100
AcDbText
  0
LINE
  5
4AE9
100
AcDbEntity
  8
WYMIARY
 62
     6
100
AcDbLine
 10
687.671651
 20
0.0
 30
0.0
 11
687.671651
 21
297.0
 31
0.0
  0
LINE
  5
8729
100
AcDbEntity
  8
1
100
AcDbLine
 10
604.895921
 20
241.854989
 30
0.0
 11
601.013778
 21
241.854989
 31
0.0
  0
LINE
  5
872A
100
AcDbEntity
  8
1
100
AcDbLine
 10
600.999818
 20
242.254989
 30
0.0
 11
604.881961
 21
242.254989
 31
0.0
  0
LINE
  5
872B
100
AcDbEntity
  8
OSIE
100
AcDbLine
 10
604.897141
 20
238.304989
 30
0.0
 11
602.897141
 21
238.304989
 31
0.0
  0
LINE
  5
872C
100
AcDbEntity
  8
OSIE
100
AcDbLine
 10
604.897141
 20
230.704989
 30
0.0
 11
602.897141
 21
230.704989
 31
0.0
  0
CIRCLE
  5
872D
100
AcDbEntity
  8
1
100
AcDbCircle
 10
603.897141
 20
230.704989
 30
0.0
 40
2.604184
  0
INSERT
  5
872E
100
AcDbEntity
  8
WY
100
AcDbBlockReference
  2
A$C25565E68
 10
601.397141
 20
228.204989
 30
0.0
 41
0.5
 42
0.5
 43
0.5
  0
CIRCLE
  5
872F
100
AcDbEntity
  8
1
100
AcDbCircle
 10
603.897141
 20
238.304989
 30
0.0
 40
2.604184
  0
INSERT
  5
8730
100
AcDbEntity
  8
WY
100
AcDbBlockReference
  2
A$C25565E68
 10
601.397141
 20
235.804989
 30
0.0
 41
0.5
 42
0.5
 43
0.5
  0
LINE
  5
8731
100
AcDbEntity
  8
1
100
AcDbLine
 10
601.013778
 20
227.154989
 30
0.0
 11
604.895921
 21
227.154989
 31
0.0
  0
LINE
  5
8732
100
AcDbEntity
  8
1
100
AcDbLine
 10
604.881961
 20
226.754989
 30
0.0
 11
600.999818
 21
226.754989
 31
0.0
  0
LINE
  5
8733
100
AcDbEntity
  8
OSIE
100
AcDbLine
 10
626.635507
 20
234.504989
 30
0.0
 11
568.994425
 21
234.504989
 31
0.0
  0
DIMENSION
  5
8734
100
AcDbEntity
  8
WY
100
AcDbDimension
  2
*D4
 10
625.197141
 20
211.735849
 30
0.0
 11
587.547141
 21
215.035849
 31
0.0
 12
13.067766
 22
135.104039
 32
0.0
 70
    32
  1
75.3
  3
STANDARD
100
AcDbAlignedDimension
 13
549.897141
 23
227.154989
 33
0.0
 14
625.197141
 24
227.154989
 34
0.0
100
AcDbRotatedDimension
  0
LINE
  5
8735
100
AcDbEntity
  8
WY
100
AcDbLine
 10
570.850647
 20
242.654989
 30
0.0
 11
570.850647
 21
227.154989
 31
0.0
  0
LINE
  5
8736
100
AcDbEntity
  8
WY
 62
     3
100
AcDbLine
 10
582.286776
 20
240.754989
 30
0.0
 11
582.286776
 21
228.254989
 31
0.0
  0
LINE
  5
8737
100
AcDbEntity
  8
WY
 62
     3
100
AcDbLine
 10
593.625933
 20
242.254989
 30
0.0
 11
593.625933
 21
226.754989
 31
0.0
  0
LINE
  5
8738
100
AcDbEntity
  8
WY
 62
     3
100
AcDbLine
 10
570.850647
 20
242.254989
 30
0.0
 11
570.850647
 21
226.754989
 31
0.0
  0
LINE
  5
8739
100
AcDbEntity
  8
1
100
AcDbLine
 10
599.348878
 20
228.204974
 30
0.0
 11
599.348878
 21
233.108729
 31
0.0
  0
LINE
  5
873A
100
AcDbEntity
  8
1
100
AcDbLine
 10
599.548871
 20
233.105269
 30
0.0
 11
599.548871
 21
227.804989
 31
0.0
  0
LINE
  5
873B
100
AcDbEntity
  8
1
100
AcDbLine
 10
599.771945
 20
227.154989
 30
0.0
 11
599.771945
 21
241.854989
 31
0.0
  0
LINE
  5
873C
100
AcDbEntity
  8
1
100
AcDbLine
 10
601.013778
 20
241.854989
 30
0.0
 11
601.013778
 21
227.154989
 31
0.0
  0
LINE
  5
873D
100
AcDbEntity
  8
1
100
AcDbLine
 10
568.348878
 20
228.204989
 30
0.0
 11
568.348878
 21
233.131727
 31
0.0
  0
LINE
  5
873E
100
AcDbEntity
  8
1
100
AcDbLine
 10
568.548871
 20
233.128267
 30
0.0
 11
568.548871
 21
228.204989
 31
0.0
  0
LINE
  5
873F
100
AcDbEntity
  8
1
100
AcDbLine
 10
569.823983
 20
233.044458
 30
0.0
 11
569.823983
 21
228.204989
 31
0.0
  0
LINE
  5
8740
100
AcDbEntity
  8
1
100
AcDbLine
 10
559.345403
 20
233.131727
 30
0.0
 11
559.345403
 21
228.204974
 31
0.0
  0
LINE
  5
8741
100
AcDbEntity
  8
1
100
AcDbLine
 10
550.070889
 20
232.83376
 30
0.0
 11
550.070889
 21
228.704082
 31
0.0
  0
LINE
  5
8742
100
AcDbEntity
  8
1
100
AcDbLine
 10
550.679547
 20
232.787234
 30
0.0
 11
550.679547
 21
228.654709
 31
0.0
  0
LINE
  5
8743
100
AcDbEntity
  8
1
100
AcDbLine
 10
550.097141
 20
232.800532
 30
0.0
 11
550.097141
 21
228.730276
 31
0.0
  0
LINE
  5
8744
100
AcDbEntity
  8
1
100
AcDbLine
 10
550.279563
 20
228.472871
 30
0.0
 11
550.279563
 21
233.068074
 31
0.0
  0
LINE
  5
8745
100
AcDbEntity
  8
1
100
AcDbLine
 10
550.988491
 20
232.754989
 30
0.0
 11
550.988491
 21
228.654989
 31
0.0
  0
LINE
  5
8746
100
AcDbEntity
  8
1
100
AcDbLine
 10
549.920896
 20
228.32963
 30
0.0
 11
549.920896
 21
233.28034
 31
0.0
  0
LINE
  5
8747
100
AcDbEntity
  8
1
100
AcDbLine
 10
551.037362
 20
232.813635
 30
0.0
 11
551.037362
 21
228.596344
 31
0.0
  0
LINE
  5
8748
100
AcDbEntity
  8
1
100
AcDbLine
 10
551.145202
 20
233.453491
 30
0.0
 11
551.145202
 21
227.920446
 31
0.0
  0
CIRCLE
  5
8749
100
AcDbEntity
  8
1
100
AcDbCircle
 10
554.897141
 20
230.754989
 30
0.0
 40
2.604184
  0
INSERT
  5
874A
100
AcDbEntity
  8
WY
100
AcDbBlockReference
  2
A$C25565E68
 10
552.397141
 20
228.254989
 30
0.0
 41
0.5
 42
0.5
 43
0.5
  0
LINE
  5
8751
100
AcDbEntity
  8
1
100
AcDbLine
 10
568.624028
 20
227.104989
 30
0.0
 11
568.624028
 21
233.053109
 31
0.0
  0
LINE
  5
8752
100
AcDbEntity
  8
1
100
AcDbLine
 10
559.14541
 20
227.804989
 30
0.0
 11
559.14541
 21
233.128267
 31
0.0
  0
LINE
  5
8753
100
AcDbEntity
  8
1
100
AcDbLine
 10
551.554896
 20
227.654989
 30
0.0
 11
551.554896
 21
241.354989
 31
0.0
  0
LINE
  5
8754
100
AcDbEntity
  8
1
100
AcDbLine
 10
557.744301
 20
227.154989
 30
0.0
 11
557.744301
 21
241.854989
 31
0.0
  0
LINE
  5
8755
100
AcDbEntity
  8
1
100
AcDbLine
 10
558.996599
 20
241.854989
 30
0.0
 11
558.996599
 21
227.154989
 31
0.0
  0
LINE
  5
8756
100
AcDbEntity
  8
1
100
AcDbLine
 10
549.897141
 20
241.854989
 30
0.0
 11
549.897141
 21
227.154989
 31
0.0
  0
LINE
  5
8757
100
AcDbEntity
  8
1
100
AcDbLine
 10
568.994425
 20
228.254989
 30
0.0
 11
582.286776
 21
228.254989
 31
0.0
  0
LINE
  5
8758
100
AcDbEntity
  8
1
100
AcDbLine
 10
568.624028
 20
227.104989
 30
0.0
 11
568.915578
 21
227.104989
 31
0.0
  0
LINE
  5
8759
100
AcDbEntity
  8
1
100
AcDbLine
 10
569.066979
 20
226.904989
 30
0.0
 11
568.824021
 21
226.904989
 31
0.0
  0
LINE
  5
875A
100
AcDbEntity
  8
1
100
AcDbLine
 10
572.311138
 20
226.754989
 30
0.0
 11
558.813354
 21
226.754989
 31
0.0
  0
LINE
  5
875B
100
AcDbEntity
  8
1
100
AcDbLine
 10
553.071106
 20
226.754989
 30
0.0
 11
550.72241
 21
226.754989
 31
0.0
  0
LINE
  5
875C
100
AcDbEntity
  8
1
100
AcDbLine
 10
551.028886
 20
226.854989
 30
0.0
 11
552.128886
 21
226.854989
 31
0.0
  0
LWPOLYLINE
  5
875D
100
AcDbEntity
  8
1
100
AcDbPolyline
 90
        6
 70
   128
 43
0.0
 10
550.328082
 20
227.969847
 10
550.311706
 20
227.981364
 10
550.247515
 20
228.027432
 10
550.030694
 20
228.211699
 10
549.922283
 20
228.328074
 10
549.920896
 20
228.32963
  0
LWPOLYLINE
  5
875E
100
AcDbEntity
  8
1
100
AcDbPolyline
 90
        4
 70
   128
 43
0.0
 10
550.097141
 20
228.730276
 10
550.106739
 20
228.718107
 10
550.145134
 20
228.668751
 10
550.279563
 20
228.472871
  0
LINE
  5
875F
100
AcDbEntity
  8
1
100
AcDbLine
 10
550.697112
 20
228.654989
 30
0.0
 11
550.878021
 21
228.519817
 31
0.0
  0
LWPOLYLINE
  5
8760
100
AcDbEntity
  8
1
100
AcDbPolyline
 90
        9
 70
   128
 43
0.0
 10
550.878021
 20
228.519817
 10
550.770744
 20
228.509235
 10
550.667588
 20
228.477928
 10
550.572518
 20
228.4271
 10
550.489186
 20
228.358704
 10
550.420793
 20
228.275367
 10
550.369968
 20
228.180292
 10
550.338664
 20
228.07713
 10
550.328082
 20
227.969847
  0
LWPOLYLINE
  5
8761
100
AcDbEntity
  8
1
100
AcDbPolyline
 90
        7
 70
   128
 43
0.0
 10
551.050315
 20
227.920446
 10
550.840762
 20
227.928518
 10
550.666498
 20
227.936675
 10
550.527862
 20
227.944903
 10
550.425125
 20
227.953185
 10
550.358489
 20
227.961505
 10
550.328082
 20
227.969847
  0
LWPOLYLINE
  5
8762
100
AcDbEntity
  8
1
100
AcDbPolyline
 90
        4
 70
   128
 43
0.0
 10
550.878021
 20
228.519817
 10
550.914555
 20
228.510294
 10
550.996899
 20
228.500803
 10
551.124841
 20
228.491368
  0
LWPOLYLINE
  5
8763
100
AcDbEntity
  8
1
100
AcDbPolyline
 90
        9
 70
   128
 43
0.0
 10
551.143372
 20
228.230787
 10
551.122167
 20
228.195919
 10
551.103526
 20
228.159504
 10
551.087554
 20
228.121747
 10
551.074341
 20
228.08286
 10
551.06396
 20
228.043061
 10
551.05647
 20
228.002574
 10
551.051913
 20
227.961626
 10
551.050315
 20
227.920446
  0
LINE
  5
8764
100
AcDbEntity
  8
1
100
AcDbLine
 10
551.145202
 20
227.920446
 30
0.0
 11
551.050315
 21
227.920446
 31
0.0
  0
LINE
  5
8765
100
AcDbEntity
  8
1
100
AcDbLine
 10
550.679547
 20
228.654709
 30
0.0
 11
550.697112
 21
228.654989
 31
0.0
  0
LWPOLYLINE
  5
8766
100
AcDbEntity
  8
1
100
AcDbPolyline
 90
        7
 70
   128
 43
0.0
 10
550.679547
 20
228.654709
 10
550.562419
 20
228.638482
 10
550.459792
 20
228.602243
 10
550.370246
 20
228.550219
 10
550.300248
 20
228.492194
 10
550.28089
 20
228.473651
 10
550.279563
 20
228.472871
  0
LINE
  5
8767
100
AcDbEntity
  8
1
100
AcDbLine
 10
550.988491
 20
228.654989
 30
0.0
 11
551.037362
 21
228.596344
 31
0.0
  0
LINE
  5
8768
100
AcDbEntity
  8
1
100
AcDbLine
 10
550.697112
 20
228.654989
 30
0.0
 11
550.988491
 21
228.654989
 31
0.0
  0
LINE
  5
8769
100
AcDbEntity
  8
1
100
AcDbLine
 10
551.124841
 20
228.491368
 30
0.0
 11
551.037362
 21
228.596344
 31
0.0
  0
LWPOLYLINE
  5
876A
100
AcDbEntity
  8
1
100
AcDbPolyline
 90
        5
 70
   128
 43
0.0
 10
551.124841
 20
228.491368
 10
551.134436
 20
228.440236
 10
551.138933
 20
228.369595
 10
551.141172
 20
228.312565
 10
551.143372
 20
228.230787
  0
LWPOLYLINE
  5
876B
100
AcDbEntity
  8
1
100
AcDbPolyline
 90
        9
 70
   128
 43
0.0
 10
551.143372
 20
228.230787
 10
551.143761
 20
228.208906
 10
551.144117
 20
228.180667
 10
551.144433
 20
228.146694
 10
551.144702
 20
228.107735
 10
551.144917
 20
228.064648
 10
551.145074
 20
228.018383
 10
551.14517
 20
227.96996
 10
551.145202
 20
227.920446
  0
LINE
  5
876C
100
AcDbEntity
  8
1
100
AcDbLine
 10
550.070889
 20
228.704082
 30
0.0
 11
550.097141
 21
228.730276
 31
0.0
  0
LWPOLYLINE
  5
876D
100
AcDbEntity
  8
1
100
AcDbPolyline
 90
        5
 70
   128
 43
0.0
 10
550.070889
 20
228.704082
 10
550.005122
 20
228.61874
 10
549.942082
 20
228.477539
 10
549.920932
 20
228.333783
 10
549.920896
 20
228.32963
  0
LINE
  5
876E
100
AcDbEntity
  8
1
100
AcDbLine
 10
549.897141
 20
227.154989
 30
0.0
 11
550.322455
 21
227.154989
 31
0.0
  0
LWPOLYLINE
  5
876F
100
AcDbEntity
  8
1
100
AcDbPolyline
 90
        6
 70
   128
 43
0.0
 10
550.297158
 20
226.754989
 10
550.164746
 20
226.777539
 10
550.047262
 20
226.842648
 10
549.957955
 20
226.942972
 10
549.906894
 20
227.067199
 10
549.897141
 20
227.154989
  0
LINE
  5
8770
100
AcDbEntity
  8
1
100
AcDbLine
 10
550.322455
 20
227.154989
 30
0.0
 11
550.322455
 21
227.654989
 31
0.0
  0
LINE
  5
8771
100
AcDbEntity
  8
1
100
AcDbLine
 10
550.704962
 20
227.154989
 30
0.0
 11
550.322455
 21
227.154989
 31
0.0
  0
LWPOLYLINE
  5
8772
100
AcDbEntity
  8
1
100
AcDbPolyline
 90
        9
 70
   128
 43
0.0
 10
550.322455
 20
227.154989
 10
550.33014
 20
227.076953
 10
550.352899
 20
227.001916
 10
550.389859
 20
226.932761
 10
550.439599
 20
226.872147
 10
550.500207
 20
226.822402
 10
550.569354
 20
226.785438
 10
550.644383
 20
226.762675
 10
550.72241
 20
226.754989
  0
LWPOLYLINE
  5
8773
100
AcDbEntity
  8
1
100
AcDbPolyline
 90
        9
 70
   128
 43
0.0
 10
550.704962
 20
227.154989
 10
550.705298
 20
227.076953
 10
550.706291
 20
227.001916
 10
550.707903
 20
226.932761
 10
550.710073
 20
226.872147
 10
550.712717
 20
226.822402
 10
550.715733
 20
226.785438
 10
550.719006
 20
226.762675
 10
550.72241
 20
226.754989
  0
LINE
  5
8774
100
AcDbEntity
  8
1
100
AcDbLine
 10
550.704962
 20
227.609329
 30
0.0
 11
550.704962
 21
227.154989
 31
0.0
  0
LINE
  5
8775
100
AcDbEntity
  8
1
100
AcDbLine
 10
550.704962
 20
227.154989
 30
0.0
 11
551.028886
 21
227.154989
 31
0.0
  0
LINE
  5
8776
100
AcDbEntity
  8
1
100
AcDbLine
 10
551.028886
 20
227.441722
 30
0.0
 11
550.673224
 21
227.654989
 31
0.0
  0
LINE
  5
8777
100
AcDbEntity
  8
1
100
AcDbLine
 10
550.964856
 20
227.654989
 30
0.0
 11
551.028886
 21
227.616594
 31
0.0
  0
LINE
  5
8778
100
AcDbEntity
  8
1
100
AcDbLine
 10
550.72241
 20
226.754989
 30
0.0
 11
550.297158
 21
226.754989
 31
0.0
  0
LWPOLYLINE
  5
8779
100
AcDbEntity
  8
1
100
AcDbPolyline
 90
        4
 70
   128
 43
0.0
 10
550.704962
 20
227.609329
 10
550.679239
 20
227.624713
 10
550.653696
 20
227.639954
 10
550.628438
 20
227.654989
  0
LINE
  5
877A
100
AcDbEntity
  8
1
100
AcDbLine
 10
551.028886
 20
227.415389
 30
0.0
 11
550.704962
 21
227.609329
 31
0.0
  0
LINE
  5
877B
100
AcDbEntity
  8
1
100
AcDbLine
 10
550.328082
 20
227.654989
 30
0.0
 11
551.050315
 21
227.654989
 31
0.0
  0
LINE
  5
877C
100
AcDbEntity
  8
1
100
AcDbLine
 10
551.028886
 20
227.654989
 30
0.0
 11
551.028886
 21
226.854989
 31
0.0
  0
LINE
  5
877D
100
AcDbEntity
  8
1
100
AcDbLine
 10
550.328082
 20
227.654989
 30
0.0
 11
550.328082
 21
227.969847
 31
0.0
  0
LINE
  5
877E
100
AcDbEntity
  8
1
100
AcDbLine
 10
551.050315
 20
227.654989
 30
0.0
 11
551.050315
 21
227.920446
 31
0.0
  0
LINE
  5
877F
100
AcDbEntity
  8
1
100
AcDbLine
 10
559.348894
 20
228.204989
 30
0.0
 11
559.98196
 21
228.204989
 31
0.0
  0
LINE
  5
8780
100
AcDbEntity
  8
1
100
AcDbLine
 10
559.98196
 20
228.004989
 30
0.0
 11
559.348894
 21
228.004989
 31
0.0
  0
LINE
  5
8781
100
AcDbEntity
  8
1
100
AcDbLine
 10
559.401664
 20
227.154989
 30
0.0
 11
568.604427
 21
227.154989
 31
0.0
  0
LINE
  5
8782
100
AcDbEntity
  8
1
100
AcDbLine
 10
559.98196
 20
227.804989
 30
0.0
 11
559.401664
 21
227.804989
 31
0.0
  0
TEXT
  5
8783
100
AcDbEntity
  8
1
100
AcDbText
 10
556.647302
 20
228.394619
 30
0.0
 40
1.0
  1
A
 50
270.0
  7
ITALIC
100
AcDbText
  0
TEXT
  5
8784
100
AcDbEntity
  8
1
100
AcDbText
 10
556.647302
 20
227.630198
 30
0.0
 40
1.0
  1
1
 50
270.0
  7
ITALIC
100
AcDbText
  0
LINE
  5
8785
100
AcDbEntity
  8
1
100
AcDbLine
 10
559.345403
 20
228.204974
 30
0.0
 11
559.348894
 21
228.204989
 31
0.0
  0
LINE
  5
8786
100
AcDbEntity
  8
1
100
AcDbLine
 10
559.348894
 20
228.004989
 30
0.0
 11
559.348894
 21
228.204989
 31
0.0
  0
LINE
  5
8787
100
AcDbEntity
  8
1
100
AcDbLine
 10
559.348894
 20
228.004989
 30
0.0
 11
559.347148
 21
228.004982
 31
0.0
  0
LINE
  5
8788
100
AcDbEntity
  8
1
100
AcDbLine
 10
559.347148
 20
228.004982
 30
0.0
 11
559.345403
 21
228.204974
 31
0.0
  0
LINE
  5
8789
100
AcDbEntity
  8
1
100
AcDbLine
 10
559.208319
 20
227.804989
 30
0.0
 11
559.401664
 21
227.804989
 31
0.0
  0
LINE
  5
878A
100
AcDbEntity
  8
1
100
AcDbLine
 10
559.208319
 20
227.154989
 30
0.0
 11
559.401664
 21
227.154989
 31
0.0
  0
LINE
  5
878B
100
AcDbEntity
  8
1
100
AcDbLine
 10
559.401664
 20
227.804989
 30
0.0
 11
559.401664
 21
227.154989
 31
0.0
  0
LWPOLYLINE
  5
878C
100
AcDbEntity
  8
1
100
AcDbPolyline
 90
        7
 70
   128
 43
0.0
 10
559.401664
 20
227.154989
 10
559.388602
 20
227.071174
 10
559.353923
 20
226.997154
 10
559.268955
 20
226.90193
 10
559.094385
 20
226.803581
 10
558.81749
 20
226.754999
 10
558.813354
 20
226.754989
  0
LINE
  5
878D
100
AcDbEntity
  8
1
100
AcDbLine
 10
559.208319
 20
227.154989
 30
0.0
 11
559.208319
 21
227.804989
 31
0.0
  0
LINE
  5
878E
100
AcDbEntity
  8
1
100
AcDbLine
 10
559.208319
 20
227.804989
 30
0.0
 11
559.14541
 21
227.804989
 31
0.0
  0
LINE
  5
878F
100
AcDbEntity
  8
1
100
AcDbLine
 10
558.996599
 20
227.154989
 30
0.0
 11
559.208319
 21
227.154989
 31
0.0
  0
LWPOLYLINE
  5
8790
100
AcDbEntity
  8
1
100
AcDbPolyline
 90
        9
 70
   128
 43
0.0
 10
557.744301
 20
227.154989
 10
557.744637
 20
227.076953
 10
557.745629
 20
227.001916
 10
557.747242
 20
226.932761
 10
557.749412
 20
226.872147
 10
557.752056
 20
226.822402
 10
557.755072
 20
226.785438
 10
557.758345
 20
226.762675
 10
557.761749
 20
226.754989
  0
LWPOLYLINE
  5
8791
100
AcDbEntity
  8
1
100
AcDbPolyline
 90
        9
 70
   128
 43
0.0
 10
558.996599
 20
227.154989
 10
558.988913
 20
227.076953
 10
558.966152
 20
227.001916
 10
558.929189
 20
226.932761
 10
558.879446
 20
226.872147
 10
558.818834
 20
226.822402
 10
558.749682
 20
226.785438
 10
558.674647
 20
226.762675
 10
558.596614
 20
226.754989
  0
LINE
  5
8792
100
AcDbEntity
  8
1
100
AcDbLine
 10
557.744301
 20
227.154989
 30
0.0
 11
558.996599
 21
227.154989
 31
0.0
  0
LINE
  5
8793
100
AcDbEntity
  8
1
100
AcDbLine
 10
558.813354
 20
226.754989
 30
0.0
 11
558.596614
 21
226.754989
 31
0.0
  0
LWPOLYLINE
  5
8794
100
AcDbEntity
  8
1
100
AcDbPolyline
 90
        7
 70
   128
 43
0.0
 10
558.813354
 20
226.754989
 10
558.816131
 20
226.754999
 10
559.002031
 20
226.803581
 10
559.119225
 20
226.901924
 10
559.176267
 20
226.997146
 10
559.19955
 20
227.07117
 10
559.208319
 20
227.154989
  0
LINE
  5
8795
100
AcDbEntity
  8
1
100
AcDbLine
 10
558.596614
 20
226.754989
 30
0.0
 11
557.761749
 21
226.754989
 31
0.0
  0
LWPOLYLINE
  5
8796
100
AcDbEntity
  8
1
100
AcDbPolyline
 90
        9
 70
   128
 43
0.0
 10
553.436166
 20
227.154989
 10
553.443851
 20
227.076953
 10
553.46661
 20
227.001916
 10
553.50357
 20
226.932761
 10
553.55331
 20
226.872147
 10
553.613918
 20
226.822402
 10
553.683065
 20
226.785438
 10
553.758094
 20
226.762675
 10
553.836121
 20
226.754989
  0
LWPOLYLINE
  5
8797
100
AcDbEntity
  8
1
100
AcDbPolyline
 90
        9
 70
   128
 43
0.0
 10
553.503187
 20
227.154989
 10
553.510872
 20
227.076953
 10
553.533632
 20
227.001916
 10
553.570592
 20
226.932761
 10
553.620331
 20
226.872147
 10
553.680939
 20
226.822402
 10
553.750086
 20
226.785438
 10
553.825114
 20
226.762675
 10
553.903141
 20
226.754989
  0
LINE
  5
8798
100
AcDbEntity
  8
1
100
AcDbLine
 10
553.885694
 20
227.154989
 30
0.0
 11
553.503187
 21
227.154989
 31
0.0
  0
LINE
  5
8799
100
AcDbEntity
  8
1
100
AcDbLine
 10
553.071106
 20
226.754989
 30
0.0
 11
553.836121
 21
226.754989
 31
0.0
  0
LWPOLYLINE
  5
879A
100
AcDbEntity
  8
1
100
AcDbPolyline
 90
        9
 70
   128
 43
0.0
 10
553.885694
 20
227.154989
 10
553.886029
 20
227.076953
 10
553.887022
 20
227.001916
 10
553.888634
 20
226.932761
 10
553.890804
 20
226.872147
 10
553.893448
 20
226.822402
 10
553.896465
 20
226.785438
 10
553.899738
 20
226.762675
 10
553.903141
 20
226.754989
  0
LINE
  5
879B
100
AcDbEntity
  8
1
100
AcDbLine
 10
553.885694
 20
227.654989
 30
0.0
 11
553.885694
 21
227.154989
 31
0.0
  0
LINE
  5
879C
100
AcDbEntity
  8
1
100
AcDbLine
 10
553.903141
 20
226.754989
 30
0.0
 11
553.836121
 21
226.754989
 31
0.0
  0
LINE
  5
879D
100
AcDbEntity
  8
1
100
AcDbLine
 10
552.128886
 20
227.154989
 30
0.0
 11
553.053658
 21
227.154989
 31
0.0
  0
LWPOLYLINE
  5
879E
100
AcDbEntity
  8
1
100
AcDbPolyline
 90
        9
 70
   128
 43
0.0
 10
553.053658
 20
227.154989
 10
553.053993
 20
227.076953
 10
553.054986
 20
227.001916
 10
553.056598
 20
226.932761
 10
553.058768
 20
226.872147
 10
553.061412
 20
226.822402
 10
553.064429
 20
226.785438
 10
553.067702
 20
226.762675
 10
553.071106
 20
226.754989
  0
LINE
  5
879F
100
AcDbEntity
  8
1
100
AcDbLine
 10
553.053658
 20
227.154989
 30
0.0
 11
553.053658
 21
227.654989
 31
0.0
  0
LINE
  5
87A0
100
AcDbEntity
  8
1
100
AcDbLine
 10
553.436166
 20
227.154989
 30
0.0
 11
553.053658
 21
227.154989
 31
0.0
  0
LINE
  5
87A1
100
AcDbEntity
  8
1
100
AcDbLine
 10
553.436166
 20
227.654989
 30
0.0
 11
553.436166
 21
227.154989
 31
0.0
  0
LINE
  5
87A2
100
AcDbEntity
  8
1
100
AcDbLine
 10
553.436166
 20
227.154989
 30
0.0
 11
553.503187
 21
227.154989
 31
0.0
  0
LINE
  5
87A3
100
AcDbEntity
  8
1
100
AcDbLine
 10
553.503187
 20
227.154989
 30
0.0
 11
553.503187
 21
227.654989
 31
0.0
  0
LINE
  5
87A4
100
AcDbEntity
  8
1
100
AcDbLine
 10
552.128886
 20
226.854989
 30
0.0
 11
552.128886
 21
227.654989
 31
0.0
  0
LINE
  5
87A5
100
AcDbEntity
  8
1
100
AcDbLine
 10
551.554896
 20
227.654989
 30
0.0
 11
553.885694
 21
227.654989
 31
0.0
  0
LINE
  5
87A6
100
AcDbEntity
  8
1
100
AcDbLine
 10
553.885694
 20
227.154989
 30
0.0
 11
557.744301
 21
227.154989
 31
0.0
  0
LINE
  5
87A7
100
AcDbEntity
  8
1
100
AcDbLine
 10
557.761749
 20
226.754989
 30
0.0
 11
553.903141
 21
226.754989
 31
0.0
  0
LWPOLYLINE
  5
87A8
100
AcDbEntity
  8
1
100
AcDbPolyline
 90
        9
 70
   128
 43
0.0
 10
559.408311
 20
228.004989
 10
559.369295
 20
228.001146
 10
559.331777
 20
227.989765
 10
559.297201
 20
227.971283
 10
559.266895
 20
227.946411
 10
559.242024
 20
227.916103
 10
559.223542
 20
227.881526
 10
559.212162
 20
227.844007
 10
559.208319
 20
227.804989
  0
LWPOLYLINE
  5
87A9
100
AcDbEntity
  8
1
100
AcDbPolyline
 90
        9
 70
   128
 43
0.0
 10
559.347148
 20
228.004982
 10
559.308308
 20
228.000843
 10
559.270877
 20
227.98926
 10
559.236279
 20
227.970675
 10
559.205829
 20
227.945792
 10
559.180682
 20
227.915559
 10
559.161796
 20
227.881123
 10
559.149888
 20
227.843793
 10
559.14541
 20
227.804989
  0
LWPOLYLINE
  5
87AA
100
AcDbEntity
  8
1
100
AcDbPolyline
 90
        9
 70
   128
 43
0.0
 10
559.14541
 20
227.804989
 10
559.149549
 20
227.882598
 10
559.161132
 20
227.957256
 10
559.179717
 20
228.026128
 10
559.2046
 20
228.086595
 10
559.234834
 20
228.13636
 10
559.269269
 20
228.173531
 10
559.306599
 20
228.196696
 10
559.345403
 20
228.204974
  0
LWPOLYLINE
  5
87AB
100
AcDbEntity
  8
1
100
AcDbPolyline
 90
        9
 70
   128
 43
0.0
 10
559.408311
 20
228.004989
 10
559.407014
 20
228.001146
 10
559.405767
 20
227.989765
 10
559.404618
 20
227.971283
 10
559.403611
 20
227.946411
 10
559.402784
 20
227.916103
 10
559.40217
 20
227.881526
 10
559.401792
 20
227.844007
 10
559.401664
 20
227.804989
  0
LINE
  5
87AC
100
AcDbEntity
  8
1
100
AcDbLine
 10
568.348878
 20
228.204989
 30
0.0
 11
568.548871
 21
228.204989
 31
0.0
  0
LINE
  5
87AD
100
AcDbEntity
  8
1
100
AcDbLine
 10
568.348878
 20
228.004989
 30
0.0
 11
568.348878
 21
228.204989
 31
0.0
  0
LWPOLYLINE
  5
87AE
100
AcDbEntity
  8
1
100
AcDbPolyline
 90
        5
 70
   128
 43
0.0
 10
568.592901
 20
228.079794
 10
568.582576
 20
228.093875
 10
568.564094
 20
228.128453
 10
568.552714
 20
228.165971
 10
568.548871
 20
228.204989
  0
LINE
  5
87AF
100
AcDbEntity
  8
1
100
AcDbLine
 10
568.548871
 20
228.204989
 30
0.0
 11
568.59134
 21
228.204989
 31
0.0
  0
LINE
  5
87B0
100
AcDbEntity
  8
1
100
AcDbLine
 10
568.593833
 20
228.004989
 30
0.0
 11
568.348878
 21
228.004989
 31
0.0
  0
LINE
  5
87B1
100
AcDbEntity
  8
1
100
AcDbLine
 10
568.60505
 20
227.104989
 30
0.0
 11
568.624028
 21
227.104989
 31
0.0
  0
LWPOLYLINE
  5
87B2
100
AcDbEntity
  8
1
100
AcDbPolyline
 90
        9
 70
   128
 43
0.0
 10
568.824021
 20
226.904989
 10
568.785004
 20
226.908832
 10
568.747487
 20
226.920213
 10
568.712911
 20
226.938695
 10
568.682605
 20
226.963568
 10
568.657733
 20
226.993875
 10
568.639252
 20
227.028453
 10
568.627871
 20
227.065971
 10
568.624028
 20
227.104989
  0
LINE
  5
87B3
100
AcDbEntity
  8
1
100
AcDbLine
 10
568.824021
 20
226.904989
 30
0.0
 11
568.805042
 21
226.904989
 31
0.0
  0
LWPOLYLINE
  5
87B4
100
AcDbEntity
  8
1
100
AcDbPolyline
 90
        9
 70
   128
 43
0.0
 10
568.805042
 20
226.904989
 10
568.766026
 20
226.908832
 10
568.728509
 20
226.920213
 10
568.693933
 20
226.938695
 10
568.663626
 20
226.963568
 10
568.638755
 20
226.993875
 10
568.620274
 20
227.028453
 10
568.608893
 20
227.065971
 10
568.60505
 20
227.104989
  0
LINE
  5
87B5
100
AcDbEntity
  8
1
100
AcDbLine
 10
568.59134
 20
228.204989
 30
0.0
 11
568.60505
 21
227.104989
 31
0.0
  0
LINE
  5
87B6
100
AcDbEntity
  8
WY
100
AcDbLine
 10
593.625933
 20
226.754989
 30
0.0
 11
570.850647
 21
226.754989
 31
0.0
  0
LINE
  5
87B7
100
AcDbEntity
  8
1
100
AcDbLine
 10
599.882698
 20
226.754989
 30
0.0
 11
574.087821
 21
226.754989
 31
0.0
  0
LINE
  5
87B8
100
AcDbEntity
  8
1
100
AcDbLine
 10
569.823983
 20
228.004989
 30
0.0
 11
569.823983
 21
228.204989
 31
0.0
  0
LINE
  5
87B9
100
AcDbEntity
  8
1
100
AcDbLine
 10
569.823983
 20
228.004989
 30
0.0
 11
569.212146
 21
228.004989
 31
0.0
  0
LINE
  5
87BA
100
AcDbEntity
  8
1
100
AcDbLine
 10
568.915578
 20
228.204989
 30
0.0
 11
569.823983
 21
228.204989
 31
0.0
  0
LWPOLYLINE
  5
87BB
100
AcDbEntity
  8
1
100
AcDbPolyline
 90
        7
 70
   128
 43
0.0
 10
569.212146
 20
228.004989
 10
569.170044
 20
228.012027
 10
569.123429
 20
228.03056
 10
569.058499
 20
228.068604
 10
568.982522
 20
228.129573
 10
568.917083
 20
228.2029
 10
568.915578
 20
228.204989
  0
LINE
  5
87BC
100
AcDbEntity
  8
1
100
AcDbLine
 10
569.823983
 20
228.204989
 30
0.0
 11
570.850647
 21
228.204989
 31
0.0
  0
LINE
  5
87BD
100
AcDbEntity
  8
1
100
AcDbLine
 10
570.850647
 20
228.004989
 30
0.0
 11
569.823983
 21
228.004989
 31
0.0
  0
LINE
  5
87BE
100
AcDbEntity
  8
1
100
AcDbLine
 10
574.047845
 20
226.754989
 30
0.0
 11
572.346436
 21
226.754989
 31
0.0
  0
LINE
  5
87BF
100
AcDbEntity
  8
1
100
AcDbLine
 10
574.060352
 20
226.754989
 30
0.0
 11
574.047845
 21
226.754989
 31
0.0
  0
LINE
  5
87C0
100
AcDbEntity
  8
1
100
AcDbLine
 10
572.346436
 20
226.754989
 30
0.0
 11
572.333929
 21
226.754989
 31
0.0
  0
LINE
  5
87C1
100
AcDbEntity
  8
1
100
AcDbLine
 10
569.824028
 20
227.104989
 30
0.0
 11
569.816561
 21
227.104989
 31
0.0
  0
LWPOLYLINE
  5
87C2
100
AcDbEntity
  8
1
100
AcDbPolyline
 90
        9
 70
   128
 43
0.0
 10
569.816561
 20
227.104989
 10
569.812862
 20
227.065971
 10
569.801906
 20
227.028453
 10
569.784114
 20
226.993875
 10
569.76017
 20
226.963568
 10
569.730994
 20
226.938695
 10
569.697708
 20
226.920213
 10
569.66159
 20
226.908832
 10
569.624028
 20
226.904989
  0
LINE
  5
87C3
100
AcDbEntity
  8
1
100
AcDbLine
 10
569.259511
 20
227.104989
 30
0.0
 11
569.816561
 21
227.104989
 31
0.0
  0
LWPOLYLINE
  5
87C4
100
AcDbEntity
  8
1
100
AcDbPolyline
 90
        9
 70
   128
 43
0.0
 10
569.066979
 20
226.904989
 10
569.10454
 20
226.908832
 10
569.140658
 20
226.920213
 10
569.173944
 20
226.938695
 10
569.20312
 20
226.963568
 10
569.227064
 20
226.993875
 10
569.244856
 20
227.028453
 10
569.255812
 20
227.065971
 10
569.259511
 20
227.104989
  0
ARC
  5
87C5
100
AcDbEntity
  8
1
100
AcDbCircle
 10
569.624028
 20
227.104989
 30
0.0
 40
0.2
100
AcDbArc
 50
270.0
 51
0.0
  0
LINE
  5
87C6
100
AcDbEntity
  8
1
100
AcDbLine
 10
569.624028
 20
226.904989
 30
0.0
 11
569.066979
 21
226.904989
 31
0.0
  0
LINE
  5
87C7
100
AcDbEntity
  8
1
100
AcDbLine
 10
569.259511
 20
227.104989
 30
0.0
 11
568.915578
 21
227.104989
 31
0.0
  0
LWPOLYLINE
  5
87C8
100
AcDbEntity
  8
1
100
AcDbPolyline
 90
        9
 70
   128
 43
0.0
 10
569.066979
 20
226.904989
 10
569.037442
 20
226.908832
 10
569.00904
 20
226.920213
 10
568.982865
 20
226.938695
 10
568.959922
 20
226.963568
 10
568.941093
 20
226.993875
 10
568.927103
 20
227.028453
 10
568.918487
 20
227.065971
 10
568.915578
 20
227.104989
  0
LINE
  5
87C9
100
AcDbEntity
  8
1
100
AcDbLine
 10
569.824028
 20
227.154989
 30
0.0
 11
570.850647
 21
227.154989
 31
0.0
  0
LINE
  5
87CA
100
AcDbEntity
  8
1
100
AcDbLine
 10
570.850647
 20
227.804989
 30
0.0
 11
569.824028
 21
227.804989
 31
0.0
  0
LINE
  5
87CB
100
AcDbEntity
  8
1
100
AcDbLine
 10
569.816561
 20
227.104989
 30
0.0
 11
569.816561
 21
228.004989
 31
0.0
  0
LINE
  5
87CC
100
AcDbEntity
  8
1
100
AcDbLine
 10
569.259511
 20
228.004989
 30
0.0
 11
569.259511
 21
227.104989
 31
0.0
  0
LINE
  5
87CD
100
AcDbEntity
  8
1
100
AcDbLine
 10
568.915578
 20
227.104989
 30
0.0
 11
568.915578
 21
228.204989
 31
0.0
  0
LINE
  5
87CE
100
AcDbEntity
  8
1
100
AcDbLine
 10
569.824028
 20
228.004989
 30
0.0
 11
569.824028
 21
227.104989
 31
0.0
  0
LINE
  5
87CF
100
AcDbEntity
  8
1
100
AcDbLine
 10
599.369435
 20
227.804989
 30
0.0
 11
593.625933
 21
227.804989
 31
0.0
  0
LINE
  5
87D0
100
AcDbEntity
  8
1
100
AcDbLine
 10
593.625933
 20
227.154989
 30
0.0
 11
599.369435
 21
227.154989
 31
0.0
  0
LINE
  5
87D1
100
AcDbEntity
  8
1
100
AcDbLine
 10
593.625933
 20
228.204989
 30
0.0
 11
599.345388
 21
228.204989
 31
0.0
  0
LINE
  5
87D2
100
AcDbEntity
  8
1
100
AcDbLine
 10
599.345388
 20
228.004989
 30
0.0
 11
593.625933
 21
228.004989
 31
0.0
  0
TEXT
  5
87D3
100
AcDbEntity
  8
1
100
AcDbText
 10
601.112136
 20
228.656455
 30
0.0
 40
1.0
  1
1
 50
270.0
  7
ITALIC
100
AcDbText
  0
TEXT
  5
87D4
100
AcDbEntity
  8
1
100
AcDbText
 10
601.112136
 20
228.034754
 30
0.0
 40
1.0
  1
4
 50
270.0
  7
ITALIC
100
AcDbText
  0
LINE
  5
87D5
100
AcDbEntity
  8
1
100
AcDbLine
 10
599.345388
 20
228.204989
 30
0.0
 11
599.348878
 21
228.204974
 31
0.0
  0
LINE
  5
87D6
100
AcDbEntity
  8
1
100
AcDbLine
 10
599.345388
 20
228.004989
 30
0.0
 11
599.345388
 21
228.204989
 31
0.0
  0
LINE
  5
87D7
100
AcDbEntity
  8
1
100
AcDbLine
 10
599.347133
 20
228.004982
 30
0.0
 11
599.348878
 21
228.204974
 31
0.0
  0
LINE
  5
87D8
100
AcDbEntity
  8
1
100
AcDbLine
 10
599.347133
 20
228.004982
 30
0.0
 11
599.345388
 21
228.004989
 31
0.0
  0
LWPOLYLINE
  5
87D9
100
AcDbEntity
  8
1
100
AcDbPolyline
 90
        9
 70
   128
 43
0.0
 10
601.013778
 20
227.154989
 10
601.01351
 20
227.076953
 10
601.012716
 20
227.001916
 10
601.011426
 20
226.932761
 10
601.00969
 20
226.872147
 10
601.007574
 20
226.822402
 10
601.005161
 20
226.785438
 10
601.002542
 20
226.762675
 10
600.999818
 20
226.754989
  0
LINE
  5
87DA
100
AcDbEntity
  8
1
100
AcDbLine
 10
600.999818
 20
226.754989
 30
0.0
 11
600.171929
 21
226.754989
 31
0.0
  0
LWPOLYLINE
  5
87DB
100
AcDbEntity
  8
1
100
AcDbPolyline
 90
        7
 70
   128
 43
0.0
 10
599.882698
 20
226.754989
 10
599.878021
 20
226.755006
 10
599.695396
 20
226.782575
 10
599.528993
 20
226.865135
 10
599.431026
 20
226.965001
 10
599.385922
 20
227.054423
 10
599.369435
 20
227.154989
  0
LINE
  5
87DC
100
AcDbEntity
  8
1
100
AcDbLine
 10
599.548871
 20
227.804989
 30
0.0
 11
599.48604
 21
227.804989
 31
0.0
  0
LINE
  5
87DD
100
AcDbEntity
  8
1
100
AcDbLine
 10
599.48604
 20
227.154989
 30
0.0
 11
599.771945
 21
227.154989
 31
0.0
  0
LWPOLYLINE
  5
87DE
100
AcDbEntity
  8
1
100
AcDbPolyline
 90
        7
 70
   128
 43
0.0
 10
599.48604
 20
227.154989
 10
599.498781
 20
227.054422
 10
599.533639
 20
226.965
 10
599.609349
 20
226.865134
 10
599.737948
 20
226.782574
 10
599.879083
 20
226.755006
 10
599.882698
 20
226.754989
  0
LINE
  5
87DF
100
AcDbEntity
  8
1
100
AcDbLine
 10
599.48604
 20
227.804989
 30
0.0
 11
599.369435
 21
227.804989
 31
0.0
  0
LINE
  5
87E0
100
AcDbEntity
  8
1
100
AcDbLine
 10
599.48604
 20
227.154989
 30
0.0
 11
599.369435
 21
227.154989
 31
0.0
  0
LINE
  5
87E1
100
AcDbEntity
  8
1
100
AcDbLine
 10
599.369435
 20
227.154989
 30
0.0
 11
599.369435
 21
227.804989
 31
0.0
  0
LINE
  5
87E2
100
AcDbEntity
  8
1
100
AcDbLine
 10
599.48604
 20
227.804989
 30
0.0
 11
599.48604
 21
227.154989
 31
0.0
  0
LWPOLYLINE
  5
87E3
100
AcDbEntity
  8
1
100
AcDbPolyline
 90
        9
 70
   128
 43
0.0
 10
599.771945
 20
227.154989
 10
599.77963
 20
227.076953
 10
599.802392
 20
227.001916
 10
599.839354
 20
226.932761
 10
599.889097
 20
226.872147
 10
599.94971
 20
226.822402
 10
600.018862
 20
226.785438
 10
600.093896
 20
226.762675
 10
600.171929
 20
226.754989
  0
LINE
  5
87E4
100
AcDbEntity
  8
1
100
AcDbLine
 10
599.771945
 20
227.154989
 30
0.0
 11
601.013778
 21
227.154989
 31
0.0
  0
LINE
  5
87E5
100
AcDbEntity
  8
1
100
AcDbLine
 10
600.171929
 20
226.754989
 30
0.0
 11
599.882698
 21
226.754989
 31
0.0
  0
LWPOLYLINE
  5
87E6
100
AcDbEntity
  8
1
100
AcDbPolyline
 90
        9
 70
   128
 43
0.0
 10
599.348878
 20
228.204974
 10
599.387682
 20
228.196696
 10
599.425012
 20
228.173531
 10
599.459448
 20
228.13636
 10
599.489681
 20
228.086595
 10
599.514564
 20
228.026128
 10
599.533149
 20
227.957256
 10
599.544732
 20
227.882598
 10
599.548871
 20
227.804989
  0
LWPOLYLINE
  5
87E7
100
AcDbEntity
  8
1
100
AcDbPolyline
 90
        9
 70
   128
 43
0.0
 10
599.548871
 20
227.804989
 10
599.544393
 20
227.843793
 10
599.532485
 20
227.881123
 10
599.513599
 20
227.915559
 10
599.488453
 20
227.945792
 10
599.458002
 20
227.970675
 10
599.423404
 20
227.98926
 10
599.385973
 20
228.000843
 10
599.347133
 20
228.004982
  0
LWPOLYLINE
  5
87E8
100
AcDbEntity
  8
1
100
AcDbPolyline
 90
        9
 70
   128
 43
0.0
 10
599.286047
 20
228.004989
 10
599.302315
 20
228.001146
 10
599.317958
 20
227.989765
 10
599.332375
 20
227.971283
 10
599.345011
 20
227.946411
 10
599.355381
 20
227.916103
 10
599.363087
 20
227.881526
 10
599.367832
 20
227.844007
 10
599.369435
 20
227.804989
  0
LWPOLYLINE
  5
87E9
100
AcDbEntity
  8
1
100
AcDbPolyline
 90
        9
 70
   128
 43
0.0
 10
599.48604
 20
227.804989
 10
599.482197
 20
227.844007
 10
599.470816
 20
227.881526
 10
599.452335
 20
227.916103
 10
599.427463
 20
227.946411
 10
599.397157
 20
227.971283
 10
599.362581
 20
227.989765
 10
599.325064
 20
228.001146
 10
599.286047
 20
228.004989
  0
LINE
  5
87EA
100
AcDbEntity
  8
1
100
AcDbLine
 10
568.994425
 20
240.754989
 30
0.0
 11
582.286776
 21
240.754989
 31
0.0
  0
LINE
  5
87EB
100
AcDbEntity
  8
1
100
AcDbLine
 10
568.915578
 20
241.904989
 30
0.0
 11
568.624028
 21
241.904989
 31
0.0
  0
LINE
  5
87EC
100
AcDbEntity
  8
1
100
AcDbLine
 10
568.824021
 20
242.104989
 30
0.0
 11
569.066979
 21
242.104989
 31
0.0
  0
LWPOLYLINE
  5
87ED
100
AcDbEntity
  8
1
100
AcDbPolyline
 90
        9
 70
   128
 43
0.0
 10
569.823983
 20
235.765528
 10
569.629962
 20
235.765362
 10
569.443316
 20
235.764871
 10
569.271136
 20
235.764073
 10
569.119968
 20
235.762999
 10
568.995556
 20
235.761689
 10
568.902628
 20
235.760193
 10
568.844716
 20
235.758569
 10
568.824021
 20
235.756877
  0
LWPOLYLINE
  5
87EE
100
AcDbEntity
  8
1
100
AcDbPolyline
 90
        9
 70
   128
 43
0.0
 10
568.624028
 20
235.95687
 10
568.648862
 20
235.958561
 10
568.718357
 20
235.960186
 10
568.82987
 20
235.961681
 10
568.979165
 20
235.962991
 10
569.160567
 20
235.964065
 10
569.367182
 20
235.964863
 10
569.591158
 20
235.965354
 10
569.823983
 20
235.96552
  0
LWPOLYLINE
  5
87EF
100
AcDbEntity
  8
1
100
AcDbPolyline
 90
        9
 70
   128
 43
0.0
 10
568.824021
 20
233.253102
 10
568.844716
 20
233.25141
 10
568.902628
 20
233.249785
 10
568.995556
 20
233.24829
 10
569.119968
 20
233.24698
 10
569.271136
 20
233.245906
 10
569.443316
 20
233.245108
 10
569.629962
 20
233.244617
 10
569.823983
 20
233.244451
  0
LWPOLYLINE
  5
87F0
100
AcDbEntity
  8
1
100
AcDbPolyline
 90
        9
 70
   128
 43
0.0
 10
569.823983
 20
233.044458
 10
569.591158
 20
233.044624
 10
569.367182
 20
233.045115
 10
569.160567
 20
233.045913
 10
568.979165
 20
233.046988
 10
568.82987
 20
233.048297
 10
568.718357
 20
233.049793
 10
568.648862
 20
233.051418
 10
568.624028
 20
233.053109
  0
LINE
  5
87F1
100
AcDbEntity
  8
1
100
AcDbLine
 10
558.813354
 20
242.254989
 30
0.0
 11
572.30646
 21
242.254989
 31
0.0
  0
LINE
  5
87F2
100
AcDbEntity
  8
1
100
AcDbLine
 10
570.850647
 20
235.662536
 30
0.0
 11
568.994425
 21
235.662536
 31
0.0
  0
LINE
  5
87F3
100
AcDbEntity
  8
1
100
AcDbLine
 10
559.164594
 20
233.347443
 30
0.0
 11
559.98196
 21
233.347443
 31
0.0
  0
LINE
  5
87F4
100
AcDbEntity
  8
1
100
AcDbLine
 10
568.348878
 20
241.004989
 30
0.0
 11
568.348878
 21
240.804989
 31
0.0
  0
LINE
  5
87F5
100
AcDbEntity
  8
1
100
AcDbLine
 10
568.60505
 20
241.904989
 30
0.0
 11
568.59134
 21
240.804989
 31
0.0
  0
LINE
  5
87F6
100
AcDbEntity
  8
1
100
AcDbLine
 10
568.624028
 20
235.95687
 30
0.0
 11
568.624028
 21
241.904989
 31
0.0
  0
LINE
  5
87F7
100
AcDbEntity
  8
1
100
AcDbLine
 10
559.348894
 20
241.004989
 30
0.0
 11
559.348894
 21
240.804989
 31
0.0
  0
LINE
  5
87F8
100
AcDbEntity
  8
1
100
AcDbLine
 10
559.347148
 20
241.004997
 30
0.0
 11
559.345403
 21
240.805005
 31
0.0
  0
LWPOLYLINE
  5
87F9
100
AcDbEntity
  8
1
100
AcDbPolyline
 90
        9
 70
   128
 43
0.0
 10
559.345403
 20
240.805005
 10
559.306599
 20
240.813283
 10
559.269269
 20
240.836447
 10
559.234834
 20
240.873619
 10
559.2046
 20
240.923384
 10
559.179717
 20
240.983851
 10
559.161132
 20
241.052723
 10
559.149549
 20
241.127381
 10
559.14541
 20
241.204989
  0
LWPOLYLINE
  5
87FA
100
AcDbEntity
  8
1
100
AcDbPolyline
 90
        6
 70
   128
 43
0.0
 10
549.920896
 20
240.680348
 10
549.922283
 20
240.681905
 10
549.932579
 20
240.693423
 10
549.97445
 20
240.739495
 10
550.170322
 20
240.923767
 10
550.328082
 20
241.040132
  0
LWPOLYLINE
  5
87FB
100
AcDbEntity
  8
1
100
AcDbPolyline
 90
        9
 70
   128
 43
0.0
 10
550.328082
 20
241.040132
 10
550.338664
 20
240.932848
 10
550.369968
 20
240.829687
 10
550.420793
 20
240.734612
 10
550.489186
 20
240.651275
 10
550.572518
 20
240.582878
 10
550.667588
 20
240.53205
 10
550.770744
 20
240.500744
 10
550.878021
 20
240.490162
  0
LWPOLYLINE
  5
87FC
100
AcDbEntity
  8
1
100
AcDbPolyline
 90
        9
 70
   128
 43
0.0
 10
551.050315
 20
241.089532
 10
551.051913
 20
241.048353
 10
551.05647
 20
241.007405
 10
551.06396
 20
240.966917
 10
551.074341
 20
240.927119
 10
551.087554
 20
240.888232
 10
551.103526
 20
240.850475
 10
551.122167
 20
240.81406
 10
551.143372
 20
240.779192
  0
LWPOLYLINE
  5
87FD
100
AcDbEntity
  8
1
100
AcDbPolyline
 90
        9
 70
   128
 43
0.0
 10
551.145202
 20
241.089532
 10
551.14517
 20
241.040018
 10
551.145074
 20
240.991595
 10
551.144917
 20
240.945331
 10
551.144702
 20
240.902244
 10
551.144433
 20
240.863285
 10
551.144117
 20
240.829312
 10
551.143761
 20
240.801073
 10
551.143372
 20
240.779192
  0
LINE
  5
87FE
100
AcDbEntity
  8
1
100
AcDbLine
 10
559.14541
 20
235.881712
 30
0.0
 11
559.14541
 21
241.204989
 31
0.0
  0
LINE
  5
87FF
100
AcDbEntity
  8
1
100
AcDbLine
 10
551.145202
 20
241.089532
 30
0.0
 11
551.145202
 21
235.556487
 31
0.0
  0
LINE
  5
8800
100
AcDbEntity
  8
1
100
AcDbLine
 10
550.328082
 20
233.640111
 30
0.0
 11
550.328082
 21
235.369867
 31
0.0
  0
LINE
  5
8801
100
AcDbEntity
  8
1
100
AcDbLine
 10
551.050315
 20
233.688964
 30
0.0
 11
551.050315
 21
235.321014
 31
0.0
  0
LWPOLYLINE
  5
8802
100
AcDbEntity
  8
1
100
AcDbPolyline
 90
        7
 70
   128
 43
0.0
 10
550.328082
 20
233.640111
 10
550.358489
 20
233.648361
 10
550.425125
 20
233.656589
 10
550.527862
 20
233.664779
 10
550.666498
 20
233.672915
 10
550.840762
 20
233.680983
 10
551.050315
 20
233.688964
  0
LWPOLYLINE
  5
8803
100
AcDbEntity
  8
1
100
AcDbPolyline
 90
        4
 70
   128
 43
0.0
 10
550.279563
 20
233.068074
 10
550.269935
 20
233.050849
 10
550.217581
 20
232.965575
 10
550.097141
 20
232.800532
  0
LINE
  5
8804
100
AcDbEntity
  8
1
100
AcDbLine
 10
551.077998
 20
232.890152
 30
0.0
 11
550.897101
 21
232.754989
 31
0.0
  0
LWPOLYLINE
  5
8805
100
AcDbEntity
  8
1
100
AcDbPolyline
 90
        3
 70
   128
 43
0.0
 10
551.108141
 20
232.898571
 10
551.088538
 20
232.894363
 10
551.077998
 20
232.890152
  0
LINE
  5
8806
100
AcDbEntity
  8
1
100
AcDbLine
 10
550.897101
 20
232.754989
 30
0.0
 11
550.679547
 21
232.787234
 31
0.0
  0
LWPOLYLINE
  5
8807
100
AcDbEntity
  8
1
100
AcDbPolyline
 90
        6
 70
   128
 43
0.0
 10
550.279563
 20
233.068074
 10
550.289048
 20
233.057236
 10
550.323793
 20
233.015939
 10
550.412247
 20
232.930616
 10
550.541029
 20
232.844472
 10
550.679547
 20
232.787234
  0
LINE
  5
8808
100
AcDbEntity
  8
1
100
AcDbLine
 10
550.897101
 20
232.754989
 30
0.0
 11
550.988491
 21
232.754989
 31
0.0
  0
LINE
  5
8809
100
AcDbEntity
  8
1
100
AcDbLine
 10
550.988491
 20
232.754989
 30
0.0
 11
551.037362
 21
232.813635
 31
0.0
  0
LWPOLYLINE
  5
880A
100
AcDbEntity
  8
1
100
AcDbPolyline
 90
        9
 70
   128
 43
0.0
 10
551.145202
 20
233.453491
 10
551.143831
 20
233.348965
 10
551.142289
 20
233.26755
 10
551.139704
 20
233.170193
 10
551.137048
 20
233.100083
 10
551.131552
 20
233.006282
 10
551.125722
 20
232.951081
 10
551.119875
 20
232.922193
 10
551.108141
 20
232.898571
  0
LINE
  5
880B
100
AcDbEntity
  8
1
100
AcDbLine
 10
551.037362
 20
232.813635
 30
0.0
 11
551.108141
 21
232.898571
 31
0.0
  0
LWPOLYLINE
  5
880C
100
AcDbEntity
  8
1
100
AcDbPolyline
 90
        5
 70
   128
 43
0.0
 10
549.920896
 20
233.28034
 10
549.920934
 20
233.275343
 10
549.931034
 20
233.160997
 10
549.997582
 20
232.953791
 10
550.070889
 20
232.83376
  0
LINE
  5
880D
100
AcDbEntity
  8
1
100
AcDbLine
 10
550.097141
 20
232.800532
 30
0.0
 11
550.070889
 21
232.83376
 31
0.0
  0
LWPOLYLINE
  5
880E
100
AcDbEntity
  8
1
100
AcDbPolyline
 90
        6
 70
   128
 43
0.0
 10
549.920896
 20
233.28034
 10
549.922283
 20
233.281896
 10
549.936335
 20
233.297602
 10
549.994034
 20
233.360426
 10
550.124779
 20
233.486063
 10
550.328082
 20
233.640111
  0
LWPOLYLINE
  5
880F
100
AcDbEntity
  8
1
100
AcDbPolyline
 90
        9
 70
   128
 43
0.0
 10
550.328082
 20
233.640111
 10
550.342512
 20
233.493816
 10
550.3852
 20
233.353142
 10
550.454506
 20
233.223493
 10
550.547769
 20
233.109852
 10
550.661404
 20
233.016584
 10
550.791045
 20
232.947273
 10
550.931711
 20
232.904583
 10
551.077998
 20
232.890152
  0
LWPOLYLINE
  5
8810
100
AcDbEntity
  8
1
100
AcDbPolyline
 90
        3
 70
   128
 43
0.0
 10
551.050315
 20
233.688964
 10
551.051325
 20
233.684846
 10
551.145202
 20
233.453491
  0
LWPOLYLINE
  5
8811
100
AcDbEntity
  8
1
100
AcDbPolyline
 90
        4
 70
   128
 43
0.0
 10
550.279563
 20
240.537108
 10
550.273425
 20
240.526795
 10
550.235032
 20
240.46613
 10
550.097141
 20
240.279703
  0
LINE
  5
8812
100
AcDbEntity
  8
1
100
AcDbLine
 10
550.878021
 20
240.490162
 30
0.0
 11
550.697112
 21
240.354989
 31
0.0
  0
LWPOLYLINE
  5
8813
100
AcDbEntity
  8
1
100
AcDbPolyline
 90
        4
 70
   128
 43
0.0
 10
551.124841
 20
240.518611
 10
550.996899
 20
240.509176
 10
550.914555
 20
240.499684
 10
550.878021
 20
240.490162
  0
LINE
  5
8814
100
AcDbEntity
  8
1
100
AcDbLine
 10
550.697112
 20
240.354989
 30
0.0
 11
550.679547
 21
240.35527
 31
0.0
  0
LWPOLYLINE
  5
8815
100
AcDbEntity
  8
1
100
AcDbPolyline
 90
        7
 70
   128
 43
0.0
 10
550.279563
 20
240.537108
 10
550.295433
 20
240.522412
 10
550.336552
 20
240.48551
 10
550.412747
 20
240.432359
 10
550.541399
 20
240.377141
 10
550.651796
 20
240.356848
 10
550.679547
 20
240.35527
  0
LINE
  5
8816
100
AcDbEntity
  8
1
100
AcDbLine
 10
550.697112
 20
240.354989
 30
0.0
 11
550.988491
 21
240.354989
 31
0.0
  0
LINE
  5
8817
100
AcDbEntity
  8
1
100
AcDbLine
 10
550.988491
 20
240.354989
 30
0.0
 11
551.037362
 21
240.413635
 31
0.0
  0
LWPOLYLINE
  5
8818
100
AcDbEntity
  8
1
100
AcDbPolyline
 90
        5
 70
   128
 43
0.0
 10
551.143372
 20
240.779192
 10
551.141234
 20
240.699297
 10
551.139017
 20
240.642197
 10
551.134436
 20
240.569743
 10
551.124841
 20
240.518611
  0
LINE
  5
8819
100
AcDbEntity
  8
1
100
AcDbLine
 10
551.037362
 20
240.413635
 30
0.0
 11
551.124841
 21
240.518611
 31
0.0
  0
LWPOLYLINE
  5
881A
100
AcDbEntity
  8
1
100
AcDbPolyline
 90
        5
 70
   128
 43
0.0
 10
549.920896
 20
240.680348
 10
549.920932
 20
240.676195
 10
549.942082
 20
240.53244
 10
550.005122
 20
240.391239
 10
550.070889
 20
240.305896
  0
LINE
  5
881B
100
AcDbEntity
  8
1
100
AcDbLine
 10
550.097141
 20
240.279703
 30
0.0
 11
550.070889
 21
240.305896
 31
0.0
  0
LWPOLYLINE
  5
881C
100
AcDbEntity
  8
1
100
AcDbPolyline
 90
        6
 70
   128
 43
0.0
 10
550.328082
 20
235.369867
 10
550.305778
 20
235.385572
 10
550.219287
 20
235.44839
 10
550.069298
 20
235.574019
 10
549.922283
 20
235.728083
 10
549.920896
 20
235.729639
  0
LWPOLYLINE
  5
881D
100
AcDbEntity
  8
1
100
AcDbPolyline
 90
        4
 70
   128
 43
0.0
 10
550.097141
 20
236.209446
 10
550.11023
 20
236.192588
 10
550.162585
 20
236.123279
 10
550.279563
 20
235.941905
  0
LINE
  5
881E
100
AcDbEntity
  8
1
100
AcDbLine
 10
550.897101
 20
236.254989
 30
0.0
 11
551.077998
 21
236.119826
 31
0.0
  0
LWPOLYLINE
  5
881F
100
AcDbEntity
  8
1
100
AcDbPolyline
 90
        3
 70
   128
 43
0.0
 10
551.077998
 20
236.119826
 10
551.088538
 20
236.115615
 10
551.108141
 20
236.111408
  0
LWPOLYLINE
  5
8820
100
AcDbEntity
  8
1
100
AcDbPolyline
 90
        9
 70
   128
 43
0.0
 10
550.328082
 20
235.369867
 10
550.342512
 20
235.516163
 10
550.3852
 20
235.656837
 10
550.454506
 20
235.786486
 10
550.547769
 20
235.900127
 10
550.661404
 20
235.993395
 10
550.791045
 20
236.062705
 10
550.931711
 20
236.105396
 10
551.077998
 20
236.119826
  0
LWPOLYLINE
  5
8821
100
AcDbEntity
  8
1
100
AcDbPolyline
 90
        7
 70
   128
 43
0.0
 10
551.050315
 20
235.321014
 10
550.840762
 20
235.328996
 10
550.666498
 20
235.337063
 10
550.527862
 20
235.3452
 10
550.425125
 20
235.35339
 10
550.358489
 20
235.361618
 10
550.328082
 20
235.369867
  0
LWPOLYLINE
  5
8822
100
AcDbEntity
  8
1
100
AcDbPolyline
 90
        3
 70
   128
 43
0.0
 10
550.679547
 20
236.222745
 10
550.686509
 20
236.224818
 10
550.897101
 20
236.254989
  0
LWPOLYLINE
  5
8823
100
AcDbEntity
  8
1
100
AcDbPolyline
 90
        7
 70
   128
 43
0.0
 10
550.679547
 20
236.222745
 10
550.547694
 20
236.169014
 10
550.437389
 20
236.099239
 10
550.341075
 20
236.012864
 10
550.29735
 20
235.962968
 10
550.281105
 20
235.943187
 10
550.279563
 20
235.941905
  0
LINE
  5
8824
100
AcDbEntity
  8
1
100
AcDbLine
 10
550.897101
 20
236.254989
 30
0.0
 11
550.988491
 21
236.254989
 31
0.0
  0
LINE
  5
8825
100
AcDbEntity
  8
1
100
AcDbLine
 10
550.988491
 20
236.254989
 30
0.0
 11
551.037362
 21
236.196344
 31
0.0
  0
LINE
  5
8826
100
AcDbEntity
  8
1
100
AcDbLine
 10
551.108141
 20
236.111408
 30
0.0
 11
551.037362
 21
236.196344
 31
0.0
  0
LWPOLYLINE
  5
8827
100
AcDbEntity
  8
1
100
AcDbPolyline
 90
        8
 70
   128
 43
0.0
 10
551.108141
 20
236.111408
 10
551.121229
 20
236.082629
 10
551.127698
 20
236.044272
 10
551.134137
 20
235.96633
 10
551.137681
 20
235.895638
 10
551.141153
 20
235.789565
 10
551.143283
 20
235.694481
 10
551.145202
 20
235.556487
  0
LWPOLYLINE
  5
8828
100
AcDbEntity
  8
1
100
AcDbPolyline
 90
        3
 70
   128
 43
0.0
 10
551.145202
 20
235.556487
 10
551.051325
 20
235.325133
 10
551.050315
 20
235.321014
  0
LINE
  5
8829
100
AcDbEntity
  8
1
100
AcDbLine
 10
550.070889
 20
236.176219
 30
0.0
 11
550.097141
 21
236.209446
 31
0.0
  0
LWPOLYLINE
  5
882A
100
AcDbEntity
  8
1
100
AcDbPolyline
 90
        5
 70
   128
 43
0.0
 10
550.070889
 20
236.176219
 10
549.997582
 20
236.056188
 10
549.931034
 20
235.848981
 10
549.920934
 20
235.734635
 10
549.920896
 20
235.729639
  0
LINE
  5
882B
100
AcDbEntity
  8
1
100
AcDbLine
 10
550.070889
 20
240.305896
 30
0.0
 11
550.070889
 21
236.176219
 31
0.0
  0
LINE
  5
882C
100
AcDbEntity
  8
1
100
AcDbLine
 10
550.679547
 20
240.35527
 30
0.0
 11
550.679547
 21
236.222745
 31
0.0
  0
LINE
  5
882D
100
AcDbEntity
  8
1
100
AcDbLine
 10
550.097141
 20
240.279703
 30
0.0
 11
550.097141
 21
236.209446
 31
0.0
  0
LINE
  5
882E
100
AcDbEntity
  8
1
100
AcDbLine
 10
550.988491
 20
240.354989
 30
0.0
 11
550.988491
 21
236.254989
 31
0.0
  0
LINE
  5
882F
100
AcDbEntity
  8
1
100
AcDbLine
 10
550.279563
 20
235.941905
 30
0.0
 11
550.279563
 21
240.537108
 31
0.0
  0
LINE
  5
8830
100
AcDbEntity
  8
1
100
AcDbLine
 10
549.920896
 20
235.729639
 30
0.0
 11
549.920896
 21
240.680348
 31
0.0
  0
LINE
  5
8831
100
AcDbEntity
  8
1
100
AcDbLine
 10
551.037362
 20
240.413635
 30
0.0
 11
551.037362
 21
236.196344
 31
0.0
  0
TEXT
  5
8832
100
AcDbEntity
  8
1
100
AcDbText
 10
556.482294
 20
235.749378
 30
0.0
 40
1.0
  1
C
 50
270.0
  7
ITALIC
100
AcDbText
  0
LINE
  5
8833
100
AcDbEntity
  8
1
100
AcDbLine
 10
559.164594
 20
235.662536
 30
0.0
 11
559.164594
 21
233.347443
 31
0.0
  0
LINE
  5
8834
100
AcDbEntity
  8
1
100
AcDbLine
 10
559.98196
 20
233.131727
 30
0.0
 11
559.345403
 21
233.131727
 31
0.0
  0
LINE
  5
8835
100
AcDbEntity
  8
1
100
AcDbLine
 10
559.345403
 20
233.33172
 30
0.0
 11
559.98196
 21
233.33172
 31
0.0
  0
TEXT
  5
8836
100
AcDbEntity
  8
1
100
AcDbText
 10
556.482294
 20
233.758057
 30
0.0
 40
1.0
  1
L
 50
270.0
  7
ITALIC
100
AcDbText
  0
TEXT
  5
8837
100
AcDbEntity
  8
1
100
AcDbText
 10
556.482294
 20
233.951704
 30
0.0
 40
0.96
  1
I
 50
270.0
  7
ITALIC
100
AcDbText
  0
TEXT
  5
8838
100
AcDbEntity
  8
1
100
AcDbText
 10
556.482294
 20
234.884929
 30
0.0
 40
1.0
  1
O
 50
270.0
  7
ITALIC
100
AcDbText
  0
LINE
  5
8839
100
AcDbEntity
  8
1
100
AcDbLine
 10
559.345403
 20
233.33172
 30
0.0
 11
559.345403
 21
233.131727
 31
0.0
  0
LWPOLYLINE
  5
883A
100
AcDbEntity
  8
1
100
AcDbPolyline
 90
        9
 70
   128
 43
0.0
 10
559.345403
 20
233.131727
 10
559.306599
 20
233.131661
 10
559.269269
 20
233.131464
 10
559.234834
 20
233.131145
 10
559.2046
 20
233.130715
 10
559.179717
 20
233.130192
 10
559.161132
 20
233.129593
 10
559.149549
 20
233.128944
 10
559.14541
 20
233.128267
  0
LWPOLYLINE
  5
883B
100
AcDbEntity
  8
1
100
AcDbPolyline
 90
        4
 70
   128
 43
0.0
 10
559.148418
 20
233.331267
 10
559.210773
 20
233.331516
 10
559.277084
 20
233.331668
 10
559.345403
 20
233.33172
  0
LWPOLYLINE
  5
883C
100
AcDbEntity
  8
1
100
AcDbPolyline
 90
        5
 70
   128
 43
0.0
 10
559.14541
 20
233.128267
 10
559.145428
 20
233.130284
 10
559.146493
 20
233.243656
 10
559.147547
 20
233.312525
 10
559.148418
 20
233.331267
  0
LINE
  5
883D
100
AcDbEntity
  8
1
100
AcDbLine
 10
559.164594
 20
233.347443
 30
0.0
 11
559.148418
 21
233.331267
 31
0.0
  0
LINE
  5
883E
100
AcDbEntity
  8
OSIE
100
AcDbLine
 10
554.897141
 20
231.754989
 30
0.0
 11
554.897141
 21
229.754989
 31
0.0
  0
LINE
  5
883F
100
AcDbEntity
  8
OSIE
100
AcDbLine
 10
555.897141
 20
230.754989
 30
0.0
 11
553.897141
 21
230.754989
 31
0.0
  0
LINE
  5
8840
100
AcDbEntity
  8
1
100
AcDbLine
 10
568.348878
 20
233.33172
 30
0.0
 11
568.348878
 21
233.131727
 31
0.0
  0
LWPOLYLINE
  5
8841
100
AcDbEntity
  8
1
100
AcDbPolyline
 90
        9
 70
   128
 43
0.0
 10
568.548871
 20
233.128267
 10
568.544732
 20
233.128944
 10
568.533149
 20
233.129593
 10
568.514564
 20
233.130192
 10
568.489681
 20
233.130715
 10
568.459448
 20
233.131145
 10
568.425012
 20
233.131464
 10
568.387682
 20
233.131661
 10
568.348878
 20
233.131727
  0
LWPOLYLINE
  5
8842
100
AcDbEntity
  8
1
100
AcDbPolyline
 90
        9
 70
   128
 43
0.0
 10
568.748863
 20
233.328259
 10
568.709848
 20
233.324414
 10
568.672333
 20
233.313031
 10
568.637758
 20
233.294549
 10
568.607453
 20
233.269677
 10
568.582581
 20
233.239372
 10
568.564099
 20
233.204797
 10
568.552716
 20
233.167282
 10
568.548871
 20
233.128267
  0
LINE
  5
8843
100
AcDbEntity
  8
1
100
AcDbLine
 10
568.624028
 20
233.053109
 30
0.0
 11
568.548871
 21
233.128267
 31
0.0
  0
LWPOLYLINE
  5
8844
100
AcDbEntity
  8
1
100
AcDbPolyline
 90
        9
 70
   128
 43
0.0
 10
568.348878
 20
233.33172
 10
568.426486
 20
233.331653
 10
568.501145
 20
233.331457
 10
568.570017
 20
233.331138
 10
568.630484
 20
233.330708
 10
568.680249
 20
233.330184
 10
568.71742
 20
233.329586
 10
568.740585
 20
233.328936
 10
568.748863
 20
233.328259
  0
LINE
  5
8845
100
AcDbEntity
  8
1
100
AcDbLine
 10
568.748863
 20
233.328259
 30
0.0
 11
568.824021
 21
233.253102
 31
0.0
  0
LWPOLYLINE
  5
8846
100
AcDbEntity
  8
1
100
AcDbPolyline
 90
        9
 70
   128
 43
0.0
 10
568.824021
 20
233.253102
 10
568.785006
 20
233.249256
 10
568.747491
 20
233.237874
 10
568.712916
 20
233.219391
 10
568.68261
 20
233.19452
 10
568.657738
 20
233.164214
 10
568.639256
 20
233.129639
 10
568.627874
 20
233.092124
 10
568.624028
 20
233.053109
  0
LINE
  5
884D
100
AcDbEntity
  8
1
100
AcDbLine
 10
559.98196
 20
240.804989
 30
0.0
 11
559.348894
 21
240.804989
 31
0.0
  0
LINE
  5
884E
100
AcDbEntity
  8
1
100
AcDbLine
 10
559.345403
 20
235.878252
 30
0.0
 11
559.98196
 21
235.878252
 31
0.0
  0
LINE
  5
884F
100
AcDbEntity
  8
1
100
AcDbLine
 10
559.98196
 20
235.678259
 30
0.0
 11
559.345403
 21
235.678259
 31
0.0
  0
TEXT
  5
8850
100
AcDbEntity
  8
1
100
AcDbText
 10
556.647302
 20
240.916016
 30
0.0
 40
1.0
  1
2
 50
270.0
  7
ITALIC
100
AcDbText
  0
LINE
  5
8851
100
AcDbEntity
  8
1
100
AcDbLine
 10
559.348894
 20
240.804989
 30
0.0
 11
559.345403
 21
240.805005
 31
0.0
  0
LINE
  5
8852
100
AcDbEntity
  8
OSIE
100
AcDbLine
 10
554.897141
 20
239.254989
 30
0.0
 11
554.897141
 21
237.254989
 31
0.0
  0
LINE
  5
8853
100
AcDbEntity
  8
1
100
AcDbLine
 10
559.345403
 20
235.878252
 30
0.0
 11
559.345403
 21
235.678259
 31
0.0
  0
LWPOLYLINE
  5
8854
100
AcDbEntity
  8
1
100
AcDbPolyline
 90
        9
 70
   128
 43
0.0
 10
559.14541
 20
235.881712
 10
559.149549
 20
235.881035
 10
559.161132
 20
235.880385
 10
559.179717
 20
235.879787
 10
559.2046
 20
235.879263
 10
559.234834
 20
235.878834
 10
559.269269
 20
235.878514
 10
559.306599
 20
235.878318
 10
559.345403
 20
235.878252
  0
LWPOLYLINE
  5
8855
100
AcDbEntity
  8
1
100
AcDbPolyline
 90
        4
 70
   128
 43
0.0
 10
559.345403
 20
235.678259
 10
559.277084
 20
235.678311
 10
559.210773
 20
235.678463
 10
559.148418
 20
235.678712
  0
LINE
  5
8856
100
AcDbEntity
  8
1
100
AcDbLine
 10
559.164594
 20
235.662536
 30
0.0
 11
559.148418
 21
235.678712
 31
0.0
  0
LWPOLYLINE
  5
8857
100
AcDbEntity
  8
1
100
AcDbPolyline
 90
        5
 70
   128
 43
0.0
 10
559.148418
 20
235.678712
 10
559.147547
 20
235.697454
 10
559.146493
 20
235.766322
 10
559.145428
 20
235.879694
 10
559.14541
 20
235.881712
  0
LINE
  5
8858
100
AcDbEntity
  8
OSIE
100
AcDbLine
 10
555.897141
 20
238.254989
 30
0.0
 11
553.897141
 21
238.254989
 31
0.0
  0
LINE
  5
8859
100
AcDbEntity
  8
1
100
AcDbLine
 10
559.345403
 20
240.805005
 30
0.0
 11
559.345403
 21
235.878252
 31
0.0
  0
CIRCLE
  5
885A
100
AcDbEntity
  8
1
100
AcDbCircle
 10
554.897141
 20
238.254989
 30
0.0
 40
2.604184
  0
INSERT
  5
885B
100
AcDbEntity
  8
WY
100
AcDbBlockReference
  2
A$C25565E68
 10
552.397141
 20
235.754989
 30
0.0
 41
0.5
 42
0.5
 43
0.5
  0
LINE
  5
885C
100
AcDbEntity
  8
1
100
AcDbLine
 10
568.548871
 20
240.804989
 30
0.0
 11
568.348878
 21
240.804989
 31
0.0
  0
LWPOLYLINE
  5
885D
100
AcDbEntity
  8
1
100
AcDbPolyline
 90
        5
 70
   128
 43
0.0
 10
568.592901
 20
240.930185
 10
568.582576
 20
240.916103
 10
568.564094
 20
240.881526
 10
568.552714
 20
240.844007
 10
568.548871
 20
240.804989
  0
LINE
  5
885E
100
AcDbEntity
  8
1
100
AcDbLine
 10
568.59134
 20
240.804989
 30
0.0
 11
568.548871
 21
240.804989
 31
0.0
  0
LINE
  5
885F
100
AcDbEntity
  8
1
100
AcDbLine
 10
568.348878
 20
235.878252
 30
0.0
 11
568.348878
 21
235.678259
 31
0.0
  0
LWPOLYLINE
  5
8860
100
AcDbEntity
  8
1
100
AcDbPolyline
 90
        9
 70
   128
 43
0.0
 10
568.348878
 20
235.878252
 10
568.387682
 20
235.878318
 10
568.425012
 20
235.878514
 10
568.459448
 20
235.878834
 10
568.489681
 20
235.879263
 10
568.514564
 20
235.879787
 10
568.533149
 20
235.880385
 10
568.544732
 20
235.881035
 10
568.548871
 20
235.881712
  0
LWPOLYLINE
  5
8861
100
AcDbEntity
  8
1
100
AcDbPolyline
 90
        9
 70
   128
 43
0.0
 10
568.548871
 20
235.881712
 10
568.552716
 20
235.842697
 10
568.564099
 20
235.805182
 10
568.582581
 20
235.770607
 10
568.607453
 20
235.740301
 10
568.637758
 20
235.71543
 10
568.672333
 20
235.696947
 10
568.709848
 20
235.685565
 10
568.748863
 20
235.68172
  0
LINE
  5
8862
100
AcDbEntity
  8
1
100
AcDbLine
 10
568.548871
 20
235.881712
 30
0.0
 11
568.624028
 21
235.95687
 31
0.0
  0
LINE
  5
8863
100
AcDbEntity
  8
1
100
AcDbLine
 10
568.824021
 20
235.756877
 30
0.0
 11
568.748863
 21
235.68172
 31
0.0
  0
LWPOLYLINE
  5
8864
100
AcDbEntity
  8
1
100
AcDbPolyline
 90
        9
 70
   128
 43
0.0
 10
568.748863
 20
235.68172
 10
568.740585
 20
235.681043
 10
568.71742
 20
235.680393
 10
568.680249
 20
235.679795
 10
568.630484
 20
235.679271
 10
568.570017
 20
235.678841
 10
568.501145
 20
235.678522
 10
568.426486
 20
235.678326
 10
568.348878
 20
235.678259
  0
LWPOLYLINE
  5
8865
100
AcDbEntity
  8
1
100
AcDbPolyline
 90
        9
 70
   128
 43
0.0
 10
568.624028
 20
235.95687
 10
568.627874
 20
235.917855
 10
568.639256
 20
235.880339
 10
568.657738
 20
235.845765
 10
568.68261
 20
235.815459
 10
568.712916
 20
235.790587
 10
568.747491
 20
235.772105
 10
568.785006
 20
235.760723
 10
568.824021
 20
235.756877
  0
LINE
  5
8866
100
AcDbEntity
  8
1
100
AcDbLine
 10
568.348878
 20
235.878252
 30
0.0
 11
568.348878
 21
240.804989
 31
0.0
  0
LINE
  5
8867
100
AcDbEntity
  8
1
100
AcDbLine
 10
568.548871
 20
240.804989
 30
0.0
 11
568.548871
 21
235.881712
 31
0.0
  0
LINE
  5
8873
100
AcDbEntity
  8
1
100
AcDbLine
 10
550.72241
 20
242.254989
 30
0.0
 11
553.071106
 21
242.254989
 31
0.0
  0
LINE
  5
8874
100
AcDbEntity
  8
1
100
AcDbLine
 10
551.028886
 20
242.154989
 30
0.0
 11
552.128886
 21
242.154989
 31
0.0
  0
LINE
  5
8875
100
AcDbEntity
  8
1
100
AcDbLine
 10
550.322455
 20
241.854989
 30
0.0
 11
549.897141
 21
241.854989
 31
0.0
  0
LWPOLYLINE
  5
8876
100
AcDbEntity
  8
1
100
AcDbPolyline
 90
        6
 70
   128
 43
0.0
 10
549.897141
 20
241.854989
 10
549.919689
 20
241.987387
 10
549.98479
 20
242.104858
 10
550.085105
 20
242.194161
 10
550.209331
 20
242.245229
 10
550.297158
 20
242.254989
  0
LWPOLYLINE
  5
8877
100
AcDbEntity
  8
1
100
AcDbPolyline
 90
        9
 70
   128
 43
0.0
 10
550.72241
 20
242.254989
 10
550.644383
 20
242.247304
 10
550.569354
 20
242.224541
 10
550.500207
 20
242.187577
 10
550.439599
 20
242.137832
 10
550.389859
 20
242.077217
 10
550.352899
 20
242.008063
 10
550.33014
 20
241.933026
 10
550.322455
 20
241.854989
  0
LINE
  5
8878
100
AcDbEntity
  8
1
100
AcDbLine
 10
550.322455
 20
241.854989
 30
0.0
 11
550.704962
 21
241.854989
 31
0.0
  0
LINE
  5
8879
100
AcDbEntity
  8
1
100
AcDbLine
 10
550.322455
 20
241.354989
 30
0.0
 11
550.322455
 21
241.854989
 31
0.0
  0
LWPOLYLINE
  5
887A
100
AcDbEntity
  8
1
100
AcDbPolyline
 90
        9
 70
   128
 43
0.0
 10
550.72241
 20
242.254989
 10
550.719006
 20
242.247304
 10
550.715733
 20
242.224541
 10
550.712717
 20
242.187577
 10
550.710073
 20
242.137832
 10
550.707903
 20
242.077217
 10
550.706291
 20
242.008063
 10
550.705298
 20
241.933026
 10
550.704962
 20
241.854989
  0
LINE
  5
887B
100
AcDbEntity
  8
1
100
AcDbLine
 10
550.704962
 20
241.854989
 30
0.0
 11
550.704962
 21
241.40065
 31
0.0
  0
LINE
  5
887C
100
AcDbEntity
  8
1
100
AcDbLine
 10
551.028886
 20
241.854989
 30
0.0
 11
550.704962
 21
241.854989
 31
0.0
  0
LINE
  5
887D
100
AcDbEntity
  8
1
100
AcDbLine
 10
550.673224
 20
241.354989
 30
0.0
 11
551.028886
 21
241.568257
 31
0.0
  0
LINE
  5
887E
100
AcDbEntity
  8
1
100
AcDbLine
 10
551.028886
 20
241.393385
 30
0.0
 11
550.964856
 21
241.354989
 31
0.0
  0
LINE
  5
887F
100
AcDbEntity
  8
1
100
AcDbLine
 10
550.328082
 20
241.040132
 30
0.0
 11
550.328082
 21
241.354989
 31
0.0
  0
LWPOLYLINE
  5
8880
100
AcDbEntity
  8
1
100
AcDbPolyline
 90
        7
 70
   128
 43
0.0
 10
550.328082
 20
241.040132
 10
550.358489
 20
241.048474
 10
550.425125
 20
241.056794
 10
550.527862
 20
241.065076
 10
550.666498
 20
241.073303
 10
550.840762
 20
241.081461
 10
551.050315
 20
241.089532
  0
LINE
  5
8881
100
AcDbEntity
  8
1
100
AcDbLine
 10
551.050315
 20
241.089532
 30
0.0
 11
551.050315
 21
241.354989
 31
0.0
  0
LINE
  5
8882
100
AcDbEntity
  8
1
100
AcDbLine
 10
551.050315
 20
241.089532
 30
0.0
 11
551.145202
 21
241.089532
 31
0.0
  0
LINE
  5
8883
100
AcDbEntity
  8
1
100
AcDbLine
 10
550.297158
 20
242.254989
 30
0.0
 11
550.72241
 21
242.254989
 31
0.0
  0
LINE
  5
8884
100
AcDbEntity
  8
1
100
AcDbLine
 10
550.704962
 20
241.40065
 30
0.0
 11
551.028886
 21
241.594589
 31
0.0
  0
LWPOLYLINE
  5
8885
100
AcDbEntity
  8
1
100
AcDbPolyline
 90
        4
 70
   128
 43
0.0
 10
550.628438
 20
241.354989
 10
550.653696
 20
241.370025
 10
550.679239
 20
241.385266
 10
550.704962
 20
241.40065
  0
LINE
  5
8886
100
AcDbEntity
  8
1
100
AcDbLine
 10
551.050315
 20
241.354989
 30
0.0
 11
550.328082
 21
241.354989
 31
0.0
  0
LINE
  5
8887
100
AcDbEntity
  8
1
100
AcDbLine
 10
551.028886
 20
242.154989
 30
0.0
 11
551.028886
 21
241.354989
 31
0.0
  0
LINE
  5
8888
100
AcDbEntity
  8
1
100
AcDbLine
 10
568.604427
 20
241.854989
 30
0.0
 11
559.401664
 21
241.854989
 31
0.0
  0
LINE
  5
8889
100
AcDbEntity
  8
1
100
AcDbLine
 10
559.401664
 20
241.204989
 30
0.0
 11
568.596326
 21
241.204989
 31
0.0
  0
LINE
  5
888A
100
AcDbEntity
  8
1
100
AcDbLine
 10
559.348894
 20
241.004989
 30
0.0
 11
559.98196
 21
241.004989
 31
0.0
  0
TEXT
  5
888B
100
AcDbEntity
  8
1
100
AcDbText
 10
556.647302
 20
240.977963
 30
0.0
 40
1.0
  1
A
 50
270.0
  7
ITALIC
 71
     2
100
AcDbText
  0
LINE
  5
888C
100
AcDbEntity
  8
1
100
AcDbLine
 10
559.208319
 20
241.204989
 30
0.0
 11
559.401664
 21
241.204989
 31
0.0
  0
LINE
  5
888D
100
AcDbEntity
  8
1
100
AcDbLine
 10
559.208319
 20
241.854989
 30
0.0
 11
559.401664
 21
241.854989
 31
0.0
  0
LINE
  5
888E
100
AcDbEntity
  8
1
100
AcDbLine
 10
559.347148
 20
241.004997
 30
0.0
 11
559.348894
 21
241.004989
 31
0.0
  0
LWPOLYLINE
  5
888F
100
AcDbEntity
  8
1
100
AcDbPolyline
 90
        9
 70
   128
 43
0.0
 10
559.208319
 20
241.204989
 10
559.212162
 20
241.165971
 10
559.223542
 20
241.128453
 10
559.242024
 20
241.093875
 10
559.266895
 20
241.063568
 10
559.297201
 20
241.038695
 10
559.331777
 20
241.020213
 10
559.369295
 20
241.008832
 10
559.408311
 20
241.004989
  0
LWPOLYLINE
  5
8890
100
AcDbEntity
  8
1
100
AcDbPolyline
 90
        9
 70
   128
 43
0.0
 10
559.14541
 20
241.204989
 10
559.149888
 20
241.166185
 10
559.161796
 20
241.128856
 10
559.180682
 20
241.09442
 10
559.205829
 20
241.064186
 10
559.236279
 20
241.039304
 10
559.270877
 20
241.020718
 10
559.308308
 20
241.009136
 10
559.347148
 20
241.004997
  0
LINE
  5
8891
100
AcDbEntity
  8
1
100
AcDbLine
 10
559.401664
 20
241.854989
 30
0.0
 11
559.401664
 21
241.204989
 31
0.0
  0
LWPOLYLINE
  5
8892
100
AcDbEntity
  8
1
100
AcDbPolyline
 90
        7
 70
   128
 43
0.0
 10
558.813354
 20
242.254989
 10
558.81749
 20
242.25498
 10
559.094385
 20
242.206398
 10
559.268955
 20
242.108049
 10
559.353923
 20
242.012825
 10
559.388602
 20
241.938805
 10
559.401664
 20
241.854989
  0
LWPOLYLINE
  5
8893
100
AcDbEntity
  8
1
100
AcDbPolyline
 90
        9
 70
   128
 43
0.0
 10
559.408311
 20
241.004989
 10
559.407014
 20
241.008832
 10
559.405767
 20
241.020213
 10
559.404618
 20
241.038695
 10
559.403611
 20
241.063568
 10
559.402784
 20
241.093875
 10
559.40217
 20
241.128453
 10
559.401792
 20
241.165971
 10
559.401664
 20
241.204989
  0
LINE
  5
8894
100
AcDbEntity
  8
1
100
AcDbLine
 10
559.14541
 20
241.204989
 30
0.0
 11
559.208319
 21
241.204989
 31
0.0
  0
LINE
  5
8895
100
AcDbEntity
  8
1
100
AcDbLine
 10
559.208319
 20
241.204989
 30
0.0
 11
559.208319
 21
241.854989
 31
0.0
  0
LINE
  5
8896
100
AcDbEntity
  8
1
100
AcDbLine
 10
559.208319
 20
241.854989
 30
0.0
 11
558.996599
 21
241.854989
 31
0.0
  0
LWPOLYLINE
  5
8897
100
AcDbEntity
  8
1
100
AcDbPolyline
 90
        9
 70
   128
 43
0.0
 10
557.761749
 20
242.254989
 10
557.758345
 20
242.247304
 10
557.755072
 20
242.224541
 10
557.752056
 20
242.187577
 10
557.749412
 20
242.137832
 10
557.747242
 20
242.077217
 10
557.745629
 20
242.008063
 10
557.744637
 20
241.933026
 10
557.744301
 20
241.854989
  0
LWPOLYLINE
  5
8898
100
AcDbEntity
  8
1
100
AcDbPolyline
 90
        9
 70
   128
 43
0.0
 10
558.596614
 20
242.254989
 10
558.674647
 20
242.247304
 10
558.749682
 20
242.224541
 10
558.818834
 20
242.187577
 10
558.879446
 20
242.137832
 10
558.929189
 20
242.077217
 10
558.966152
 20
242.008063
 10
558.988913
 20
241.933026
 10
558.996599
 20
241.854989
  0
LINE
  5
8899
100
AcDbEntity
  8
1
100
AcDbLine
 10
558.996599
 20
241.854989
 30
0.0
 11
557.744301
 21
241.854989
 31
0.0
  0
LINE
  5
889A
100
AcDbEntity
  8
1
100
AcDbLine
 10
558.596614
 20
242.254989
 30
0.0
 11
558.813354
 21
242.254989
 31
0.0
  0
LWPOLYLINE
  5
889B
100
AcDbEntity
  8
1
100
AcDbPolyline
 90
        7
 70
   128
 43
0.0
 10
559.208319
 20
241.854989
 10
559.19955
 20
241.938809
 10
559.176267
 20
242.012833
 10
559.119225
 20
242.108055
 10
559.002031
 20
242.206398
 10
558.816131
 20
242.25498
 10
558.813354
 20
242.254989
  0
LINE
  5
889C
100
AcDbEntity
  8
1
100
AcDbLine
 10
557.761749
 20
242.254989
 30
0.0
 11
558.596614
 21
242.254989
 31
0.0
  0
LWPOLYLINE
  5
889D
100
AcDbEntity
  8
1
100
AcDbPolyline
 90
        9
 70
   128
 43
0.0
 10
553.836121
 20
242.254989
 10
553.758094
 20
242.247304
 10
553.683065
 20
242.224541
 10
553.613918
 20
242.187577
 10
553.55331
 20
242.137832
 10
553.50357
 20
242.077217
 10
553.46661
 20
242.008063
 10
553.443851
 20
241.933026
 10
553.436166
 20
241.854989
  0
LWPOLYLINE
  5
889E
100
AcDbEntity
  8
1
100
AcDbPolyline
 90
        9
 70
   128
 43
0.0
 10
553.903141
 20
242.254989
 10
553.825114
 20
242.247304
 10
553.750086
 20
242.224541
 10
553.680939
 20
242.187577
 10
553.620331
 20
242.137832
 10
553.570592
 20
242.077217
 10
553.533632
 20
242.008063
 10
553.510872
 20
241.933026
 10
553.503187
 20
241.854989
  0
LINE
  5
889F
100
AcDbEntity
  8
1
100
AcDbLine
 10
553.503187
 20
241.854989
 30
0.0
 11
553.885694
 21
241.854989
 31
0.0
  0
LINE
  5
88A0
100
AcDbEntity
  8
1
100
AcDbLine
 10
553.836121
 20
242.254989
 30
0.0
 11
553.071106
 21
242.254989
 31
0.0
  0
LWPOLYLINE
  5
88A1
100
AcDbEntity
  8
1
100
AcDbPolyline
 90
        9
 70
   128
 43
0.0
 10
553.903141
 20
242.254989
 10
553.899738
 20
242.247304
 10
553.896465
 20
242.224541
 10
553.893448
 20
242.187577
 10
553.890804
 20
242.137832
 10
553.888634
 20
242.077217
 10
553.887022
 20
242.008063
 10
553.886029
 20
241.933026
 10
553.885694
 20
241.854989
  0
LINE
  5
88A2
100
AcDbEntity
  8
1
100
AcDbLine
 10
553.885694
 20
241.854989
 30
0.0
 11
553.885694
 21
241.354989
 31
0.0
  0
LINE
  5
88A3
100
AcDbEntity
  8
1
100
AcDbLine
 10
553.836121
 20
242.254989
 30
0.0
 11
553.903141
 21
242.254989
 31
0.0
  0
LINE
  5
88A4
100
AcDbEntity
  8
1
100
AcDbLine
 10
553.053658
 20
241.854989
 30
0.0
 11
552.128886
 21
241.854989
 31
0.0
  0
LWPOLYLINE
  5
88A5
100
AcDbEntity
  8
1
100
AcDbPolyline
 90
        9
 70
   128
 43
0.0
 10
553.071106
 20
242.254989
 10
553.067702
 20
242.247304
 10
553.064429
 20
242.224541
 10
553.061412
 20
242.187577
 10
553.058768
 20
242.137832
 10
553.056598
 20
242.077217
 10
553.054986
 20
242.008063
 10
553.053993
 20
241.933026
 10
553.053658
 20
241.854989
  0
LINE
  5
88A6
100
AcDbEntity
  8
1
100
AcDbLine
 10
553.053658
 20
241.854989
 30
0.0
 11
553.436166
 21
241.854989
 31
0.0
  0
LINE
  5
88A7
100
AcDbEntity
  8
1
100
AcDbLine
 10
553.053658
 20
241.354989
 30
0.0
 11
553.053658
 21
241.854989
 31
0.0
  0
LINE
  5
88A8
100
AcDbEntity
  8
1
100
AcDbLine
 10
553.503187
 20
241.854989
 30
0.0
 11
553.436166
 21
241.854989
 31
0.0
  0
LINE
  5
88A9
100
AcDbEntity
  8
1
100
AcDbLine
 10
553.436166
 20
241.854989
 30
0.0
 11
553.436166
 21
241.354989
 31
0.0
  0
LINE
  5
88AA
100
AcDbEntity
  8
1
100
AcDbLine
 10
553.503187
 20
241.354989
 30
0.0
 11
553.503187
 21
241.854989
 31
0.0
  0
LINE
  5
88AB
100
AcDbEntity
  8
1
100
AcDbLine
 10
552.128886
 20
241.354989
 30
0.0
 11
552.128886
 21
242.154989
 31
0.0
  0
LINE
  5
88AC
100
AcDbEntity
  8
1
100
AcDbLine
 10
551.554896
 20
241.354989
 30
0.0
 11
553.885694
 21
241.354989
 31
0.0
  0
LINE
  5
88AD
100
AcDbEntity
  8
1
100
AcDbLine
 10
557.744301
 20
241.854989
 30
0.0
 11
553.885694
 21
241.854989
 31
0.0
  0
LINE
  5
88AE
100
AcDbEntity
  8
1
100
AcDbLine
 10
553.903141
 20
242.254989
 30
0.0
 11
557.761749
 21
242.254989
 31
0.0
  0
LINE
  5
88AF
100
AcDbEntity
  8
1
100
AcDbLine
 10
568.624028
 20
241.904989
 30
0.0
 11
568.60505
 21
241.904989
 31
0.0
  0
LWPOLYLINE
  5
88B0
100
AcDbEntity
  8
1
100
AcDbPolyline
 90
        9
 70
   128
 43
0.0
 10
568.824021
 20
242.104989
 10
568.785004
 20
242.101146
 10
568.747487
 20
242.089765
 10
568.712911
 20
242.071283
 10
568.682605
 20
242.046411
 10
568.657733
 20
242.016103
 10
568.639252
 20
241.981526
 10
568.627871
 20
241.944007
 10
568.624028
 20
241.904989
  0
LINE
  5
88B1
100
AcDbEntity
  8
1
100
AcDbLine
 10
568.348878
 20
241.004989
 30
0.0
 11
568.593833
 21
241.004989
 31
0.0
  0
LINE
  5
88B2
100
AcDbEntity
  8
1
100
AcDbLine
 10
568.805042
 20
242.104989
 30
0.0
 11
568.824021
 21
242.104989
 31
0.0
  0
LWPOLYLINE
  5
88B3
100
AcDbEntity
  8
1
100
AcDbPolyline
 90
        9
 70
   128
 43
0.0
 10
568.805042
 20
242.104989
 10
568.766026
 20
242.101146
 10
568.728509
 20
242.089765
 10
568.693933
 20
242.071283
 10
568.663626
 20
242.046411
 10
568.638755
 20
242.016103
 10
568.620274
 20
241.981526
 10
568.608893
 20
241.944007
 10
568.60505
 20
241.904989
  0
TEXT
  5
88B4
100
AcDbEntity
  8
1
100
AcDbText
 10
601.096374
 20
241.023481
 30
0.0
 40
1.0
  1
4
 50
270.0
  7
ITALIC
100
AcDbText
  0
LWPOLYLINE
  5
88B5
100
AcDbEntity
  8
1
100
AcDbPolyline
 90
        9
 70
   128
 43
0.0
 10
599.548871
 20
241.204989
 10
599.544732
 20
241.127381
 10
599.533149
 20
241.052723
 10
599.514564
 20
240.983851
 10
599.489681
 20
240.923384
 10
599.459448
 20
240.873619
 10
599.425012
 20
240.836447
 10
599.387682
 20
240.813283
 10
599.348878
 20
240.805005
  0
LINE
  5
88B6
100
AcDbEntity
  8
1
100
AcDbLine
 10
599.345388
 20
240.804989
 30
0.0
 11
599.345388
 21
241.004989
 31
0.0
  0
LINE
  5
88B7
100
AcDbEntity
  8
1
100
AcDbLine
 10
599.348878
 20
240.805005
 30
0.0
 11
599.347133
 21
241.004997
 31
0.0
  0
LINE
  5
88B8
100
AcDbEntity
  8
1
100
AcDbLine
 10
599.548871
 20
241.204989
 30
0.0
 11
599.548871
 21
235.90471
 31
0.0
  0
LINE
  5
88B9
100
AcDbEntity
  8
1
100
AcDbLine
 10
569.823983
 20
241.004989
 30
0.0
 11
569.823983
 21
240.804989
 31
0.0
  0
LINE
  5
88BA
100
AcDbEntity
  8
1
100
AcDbLine
 10
568.915578
 20
240.804989
 30
0.0
 11
568.915578
 21
241.904989
 31
0.0
  0
LWPOLYLINE
  5
88BB
100
AcDbEntity
  8
1
100
AcDbPolyline
 90
        7
 70
   128
 43
0.0
 10
569.212146
 20
241.004989
 10
569.170044
 20
240.997951
 10
569.123429
 20
240.979419
 10
569.058499
 20
240.941375
 10
568.982522
 20
240.880405
 10
568.917083
 20
240.807078
 10
568.915578
 20
240.804989
  0
LINE
  5
88BC
100
AcDbEntity
  8
1
100
AcDbLine
 10
577.747141
 20
234.504989
 30
0.0
 11
576.922141
 21
234.504989
 31
0.0
  0
LINE
  5
88BD
100
AcDbEntity
  8
1
100
AcDbLine
 10
569.823983
 20
233.244451
 30
0.0
 11
569.823983
 21
233.044458
 31
0.0
  0
LINE
  5
88BE
100
AcDbEntity
  8
1
100
AcDbLine
 10
569.823983
 20
233.244451
 30
0.0
 11
570.850647
 21
233.244451
 31
0.0
  0
LINE
  5
88BF
100
AcDbEntity
  8
1
100
AcDbLine
 10
570.850647
 20
233.044458
 30
0.0
 11
569.823983
 21
233.044458
 31
0.0
  0
LINE
  5
88C0
100
AcDbEntity
  8
1
100
AcDbLine
 10
581.747141
 20
234.504989
 30
0.0
 11
582.572141
 21
234.504989
 31
0.0
  0
LINE
  5
88C1
100
AcDbEntity
  8
1
100
AcDbLine
 10
569.823983
 20
240.804989
 30
0.0
 11
568.915578
 21
240.804989
 31
0.0
  0
LINE
  5
88C2
100
AcDbEntity
  8
1
100
AcDbLine
 10
570.850647
 20
240.804989
 30
0.0
 11
569.823983
 21
240.804989
 31
0.0
  0
LINE
  5
88C3
100
AcDbEntity
  8
1
100
AcDbLine
 10
569.823983
 20
235.96552
 30
0.0
 11
569.823983
 21
235.765528
 31
0.0
  0
LINE
  5
88C4
100
AcDbEntity
  8
1
100
AcDbLine
 10
570.850647
 20
235.765528
 30
0.0
 11
569.823983
 21
235.765528
 31
0.0
  0
LINE
  5
88C5
100
AcDbEntity
  8
1
100
AcDbLine
 10
569.823983
 20
235.96552
 30
0.0
 11
570.850647
 21
235.96552
 31
0.0
  0
LINE
  5
88C6
100
AcDbEntity
  8
1
100
AcDbLine
 10
569.823983
 20
240.804989
 30
0.0
 11
569.823983
 21
235.96552
 31
0.0
  0
LINE
  5
88C7
100
AcDbEntity
  8
1
100
AcDbLine
 10
599.499143
 20
233.354989
 30
0.0
 11
599.499143
 21
235.654989
 31
0.0
  0
LWPOLYLINE
  5
88C8
100
AcDbEntity
  8
1
100
AcDbPolyline
 90
        4
 70
   128
 43
0.0
 10
599.348878
 20
233.308722
 10
599.417197
 20
233.30867
 10
599.483508
 20
233.308518
 10
599.545863
 20
233.308269
  0
LWPOLYLINE
  5
88C9
100
AcDbEntity
  8
1
100
AcDbPolyline
 90
        9
 70
   128
 43
0.0
 10
599.548871
 20
233.105269
 10
599.544732
 20
233.105946
 10
599.533149
 20
233.106596
 10
599.514564
 20
233.107194
 10
599.489681
 20
233.107718
 10
599.459448
 20
233.108147
 10
599.425012
 20
233.108467
 10
599.387682
 20
233.108663
 10
599.348878
 20
233.108729
  0
LINE
  5
88CA
100
AcDbEntity
  8
1
100
AcDbLine
 10
599.499143
 20
233.354989
 30
0.0
 11
599.545863
 21
233.308269
 31
0.0
  0
LWPOLYLINE
  5
88CB
100
AcDbEntity
  8
1
100
AcDbPolyline
 90
        5
 70
   128
 43
0.0
 10
599.545863
 20
233.308269
 10
599.546734
 20
233.289527
 10
599.547788
 20
233.220659
 10
599.548853
 20
233.107287
 10
599.548871
 20
233.105269
  0
LINE
  5
88CC
100
AcDbEntity
  8
1
100
AcDbLine
 10
599.348878
 20
233.308722
 30
0.0
 11
599.348878
 21
233.108729
 31
0.0
  0
LINE
  5
88CD
100
AcDbEntity
  8
1
100
AcDbLine
 10
599.345388
 20
240.804989
 30
0.0
 11
593.625933
 21
240.804989
 31
0.0
  0
LINE
  5
88CE
100
AcDbEntity
  8
1
100
AcDbLine
 10
599.348878
 20
240.805005
 30
0.0
 11
599.345388
 21
240.804989
 31
0.0
  0
POINT
  5
88CF
100
AcDbEntity
  8
1
100
AcDbPoint
 10
596.997141
 20
240.281901
 30
0.0
  0
LWPOLYLINE
  5
88D0
100
AcDbEntity
  8
1
100
AcDbPolyline
 90
        4
 70
   128
 43
0.0
 10
599.545863
 20
235.70171
 10
599.483508
 20
235.701461
 10
599.417197
 20
235.701308
 10
599.348878
 20
235.701257
  0
LWPOLYLINE
  5
88D1
100
AcDbEntity
  8
1
100
AcDbPolyline
 90
        9
 70
   128
 43
0.0
 10
599.348878
 20
235.901249
 10
599.387682
 20
235.901316
 10
599.425012
 20
235.901512
 10
599.459448
 20
235.901831
 10
599.489681
 20
235.902261
 10
599.514564
 20
235.902785
 10
599.533149
 20
235.903383
 10
599.544732
 20
235.904033
 10
599.548871
 20
235.90471
  0
LINE
  5
88D2
100
AcDbEntity
  8
1
100
AcDbLine
 10
599.499143
 20
235.654989
 30
0.0
 11
599.545863
 21
235.70171
 31
0.0
  0
LWPOLYLINE
  5
88D3
100
AcDbEntity
  8
1
100
AcDbPolyline
 90
        5
 70
   128
 43
0.0
 10
599.548871
 20
235.90471
 10
599.548853
 20
235.902692
 10
599.547788
 20
235.78932
 10
599.546734
 20
235.720452
 10
599.545863
 20
235.70171
  0
LINE
  5
88D4
100
AcDbEntity
  8
1
100
AcDbLine
 10
599.348878
 20
235.901249
 30
0.0
 11
599.348878
 21
235.701257
 31
0.0
  0
LINE
  5
88D5
100
AcDbEntity
  8
1
100
AcDbLine
 10
599.348878
 20
235.901249
 30
0.0
 11
599.348878
 21
240.805005
 31
0.0
  0
LINE
  5
88D6
100
AcDbEntity
  8
WY
100
AcDbLine
 10
593.625933
 20
242.254989
 30
0.0
 11
570.850647
 21
242.254989
 31
0.0
  0
LINE
  5
88D7
100
AcDbEntity
  8
WY
100
AcDbLine
 10
593.625933
 20
242.254989
 30
0.0
 11
570.850647
 21
242.254989
 31
0.0
  0
LINE
  5
88D8
100
AcDbEntity
  8
1
100
AcDbLine
 10
574.083144
 20
242.254989
 30
0.0
 11
599.882698
 21
242.254989
 31
0.0
  0
LINE
  5
88D9
100
AcDbEntity
  8
1
100
AcDbLine
 10
572.346436
 20
242.254989
 30
0.0
 11
574.047845
 21
242.254989
 31
0.0
  0
LINE
  5
88DA
100
AcDbEntity
  8
1
100
AcDbLine
 10
574.047845
 20
242.254989
 30
0.0
 11
574.060352
 21
242.254989
 31
0.0
  0
LINE
  5
88DB
100
AcDbEntity
  8
1
100
AcDbLine
 10
572.333929
 20
242.254989
 30
0.0
 11
572.346436
 21
242.254989
 31
0.0
  0
LINE
  5
88DC
100
AcDbEntity
  8
1
100
AcDbLine
 10
569.816561
 20
241.904989
 30
0.0
 11
569.824028
 21
241.904989
 31
0.0
  0
LWPOLYLINE
  5
88DD
100
AcDbEntity
  8
1
100
AcDbPolyline
 90
        9
 70
   128
 43
0.0
 10
569.816561
 20
241.904989
 10
569.812862
 20
241.944007
 10
569.801906
 20
241.981526
 10
569.784114
 20
242.016103
 10
569.76017
 20
242.046411
 10
569.730994
 20
242.071283
 10
569.697708
 20
242.089765
 10
569.66159
 20
242.101146
 10
569.624028
 20
242.104989
  0
LINE
  5
88DE
100
AcDbEntity
  8
1
100
AcDbLine
 10
569.816561
 20
241.004989
 30
0.0
 11
569.816561
 21
241.904989
 31
0.0
  0
LINE
  5
88DF
100
AcDbEntity
  8
1
100
AcDbLine
 10
569.816561
 20
241.904989
 30
0.0
 11
569.259511
 21
241.904989
 31
0.0
  0
LWPOLYLINE
  5
88E0
100
AcDbEntity
  8
1
100
AcDbPolyline
 90
        9
 70
   128
 43
0.0
 10
569.259511
 20
241.904989
 10
569.255812
 20
241.944007
 10
569.244856
 20
241.981526
 10
569.227064
 20
242.016103
 10
569.20312
 20
242.046411
 10
569.173944
 20
242.071283
 10
569.140658
 20
242.089765
 10
569.10454
 20
242.101146
 10
569.066979
 20
242.104989
  0
LINE
  5
88E1
100
AcDbEntity
  8
1
100
AcDbLine
 10
569.259511
 20
241.904989
 30
0.0
 11
569.259511
 21
241.004989
 31
0.0
  0
ARC
  5
88E2
100
AcDbEntity
  8
1
100
AcDbCircle
 10
569.624028
 20
241.904989
 30
0.0
 40
0.2
100
AcDbArc
 50
0.0
 51
90.0
  0
LINE
  5
88E3
100
AcDbEntity
  8
1
100
AcDbLine
 10
569.824028
 20
241.904989
 30
0.0
 11
569.824028
 21
241.004989
 31
0.0
  0
LINE
  5
88E4
100
AcDbEntity
  8
1
100
AcDbLine
 10
569.066979
 20
242.104989
 30
0.0
 11
569.624028
 21
242.104989
 31
0.0
  0
LINE
  5
88E5
100
AcDbEntity
  8
1
100
AcDbLine
 10
569.212146
 20
241.004989
 30
0.0
 11
569.823983
 21
241.004989
 31
0.0
  0
LWPOLYLINE
  5
88E6
100
AcDbEntity
  8
1
100
AcDbPolyline
 90
        9
 70
   128
 43
0.0
 10
569.066979
 20
242.104989
 10
569.037442
 20
242.101146
 10
569.00904
 20
242.089765
 10
568.982865
 20
242.071283
 10
568.959922
 20
242.046411
 10
568.941093
 20
242.016103
 10
568.927103
 20
241.981526
 10
568.918487
 20
241.944007
 10
568.915578
 20
241.904989
  0
LINE
  5
88E7
100
AcDbEntity
  8
1
100
AcDbLine
 10
569.259511
 20
241.904989
 30
0.0
 11
568.915578
 21
241.904989
 31
0.0
  0
LINE
  5
88E8
100
AcDbEntity
  8
1
100
AcDbLine
 10
570.850647
 20
241.854989
 30
0.0
 11
569.824028
 21
241.854989
 31
0.0
  0
LINE
  5
88E9
100
AcDbEntity
  8
1
100
AcDbLine
 10
569.824028
 20
241.204989
 30
0.0
 11
570.850647
 21
241.204989
 31
0.0
  0
LINE
  5
88EA
100
AcDbEntity
  8
1
100
AcDbLine
 10
569.823983
 20
241.004989
 30
0.0
 11
570.850647
 21
241.004989
 31
0.0
  0
LINE
  5
88EB
100
AcDbEntity
  8
1
100
AcDbLine
 10
593.625933
 20
241.204989
 30
0.0
 11
599.369435
 21
241.204989
 31
0.0
  0
LINE
  5
88EC
100
AcDbEntity
  8
1
100
AcDbLine
 10
599.369435
 20
241.854989
 30
0.0
 11
593.625933
 21
241.854989
 31
0.0
  0
LINE
  5
88ED
100
AcDbEntity
  8
1
100
AcDbLine
 10
593.625933
 20
241.004989
 30
0.0
 11
599.345388
 21
241.004989
 31
0.0
  0
TEXT
  5
88EE
100
AcDbEntity
  8
1
100
AcDbText
 10
601.096374
 20
241.67475
 30
0.0
 40
1.0
  1
2
 50
270.0
  7
ITALIC
100
AcDbText
  0
LWPOLYLINE
  5
88EF
100
AcDbEntity
  8
1
100
AcDbPolyline
 90
        9
 70
   128
 43
0.0
 10
600.999818
 20
242.254989
 10
601.002542
 20
242.247304
 10
601.005161
 20
242.224541
 10
601.007574
 20
242.187577
 10
601.00969
 20
242.137832
 10
601.011426
 20
242.077217
 10
601.012716
 20
242.008063
 10
601.01351
 20
241.933026
 10
601.013778
 20
241.854989
  0
LINE
  5
88F0
100
AcDbEntity
  8
1
100
AcDbLine
 10
600.171929
 20
242.254989
 30
0.0
 11
600.999818
 21
242.254989
 31
0.0
  0
LWPOLYLINE
  5
88F1
100
AcDbEntity
  8
1
100
AcDbPolyline
 90
        7
 70
   128
 43
0.0
 10
599.369435
 20
241.854989
 10
599.385922
 20
241.955556
 10
599.431026
 20
242.044978
 10
599.528993
 20
242.144844
 10
599.695396
 20
242.227404
 10
599.878021
 20
242.254973
 10
599.882698
 20
242.254989
  0
LWPOLYLINE
  5
88F2
100
AcDbEntity
  8
1
100
AcDbPolyline
 90
        9
 70
   128
 43
0.0
 10
599.347133
 20
241.004997
 10
599.385973
 20
241.009136
 10
599.423404
 20
241.020718
 10
599.458002
 20
241.039304
 10
599.488453
 20
241.064186
 10
599.513599
 20
241.09442
 10
599.532485
 20
241.128856
 10
599.544393
 20
241.166185
 10
599.548871
 20
241.204989
  0
LINE
  5
88F3
100
AcDbEntity
  8
1
100
AcDbLine
 10
599.771945
 20
241.854989
 30
0.0
 11
599.48604
 21
241.854989
 31
0.0
  0
LINE
  5
88F4
100
AcDbEntity
  8
1
100
AcDbLine
 10
599.48604
 20
241.204989
 30
0.0
 11
599.548871
 21
241.204989
 31
0.0
  0
LWPOLYLINE
  5
88F5
100
AcDbEntity
  8
1
100
AcDbPolyline
 90
        7
 70
   128
 43
0.0
 10
599.882698
 20
242.254989
 10
599.879083
 20
242.254973
 10
599.737948
 20
242.227404
 10
599.609349
 20
242.144845
 10
599.533639
 20
242.044979
 10
599.498781
 20
241.955557
 10
599.48604
 20
241.854989
  0
LINE
  5
88F6
100
AcDbEntity
  8
1
100
AcDbLine
 10
599.48604
 20
241.204989
 30
0.0
 11
599.369435
 21
241.204989
 31
0.0
  0
LINE
  5
88F7
100
AcDbEntity
  8
1
100
AcDbLine
 10
599.48604
 20
241.854989
 30
0.0
 11
599.369435
 21
241.854989
 31
0.0
  0
LINE
  5
88F8
100
AcDbEntity
  8
1
100
AcDbLine
 10
599.369435
 20
241.204989
 30
0.0
 11
599.369435
 21
241.854989
 31
0.0
  0
LWPOLYLINE
  5
88F9
100
AcDbEntity
  8
1
100
AcDbPolyline
 90
        9
 70
   128
 43
0.0
 10
599.286047
 20
241.004989
 10
599.302315
 20
241.008832
 10
599.317958
 20
241.020213
 10
599.332375
 20
241.038695
 10
599.345011
 20
241.063568
 10
599.355381
 20
241.093875
 10
599.363087
 20
241.128453
 10
599.367832
 20
241.165971
 10
599.369435
 20
241.204989
  0
LINE
  5
88FA
100
AcDbEntity
  8
1
100
AcDbLine
 10
599.345388
 20
241.004989
 30
0.0
 11
599.347133
 21
241.004997
 31
0.0
  0
LWPOLYLINE
  5
88FB
100
AcDbEntity
  8
1
100
AcDbPolyline
 90
        9
 70
   128
 43
0.0
 10
599.286047
 20
241.004989
 10
599.325064
 20
241.008832
 10
599.362581
 20
241.020213
 10
599.397157
 20
241.038695
 10
599.427463
 20
241.063568
 10
599.452335
 20
241.093875
 10
599.470816
 20
241.128453
 10
599.482197
 20
241.165971
 10
599.48604
 20
241.204989
  0
LINE
  5
88FC
100
AcDbEntity
  8
1
100
AcDbLine
 10
599.48604
 20
241.854989
 30
0.0
 11
599.48604
 21
241.204989
 31
0.0
  0
LWPOLYLINE
  5
88FD
100
AcDbEntity
  8
1
100
AcDbPolyline
 90
        9
 70
   128
 43
0.0
 10
600.171929
 20
242.254989
 10
600.093896
 20
242.247304
 10
600.018862
 20
242.224541
 10
599.94971
 20
242.187577
 10
599.889097
 20
242.137832
 10
599.839354
 20
242.077217
 10
599.802392
 20
242.008063
 10
599.77963
 20
241.933026
 10
599.771945
 20
241.854989
  0
LINE
  5
88FE
100
AcDbEntity
  8
1
100
AcDbLine
 10
601.013778
 20
241.854989
 30
0.0
 11
599.771945
 21
241.854989
 31
0.0
  0
LINE
  5
88FF
100
AcDbEntity
  8
1
100
AcDbLine
 10
599.882698
 20
242.254989
 30
0.0
 11
600.171929
 21
242.254989
 31
0.0
  0
LINE
  5
8900
100
AcDbEntity
  8
1
100
AcDbLine
 10
623.52404
 20
227.654989
 30
0.0
 11
623.52404
 21
241.354989
 31
0.0
  0
LINE
  5
8901
100
AcDbEntity
  8
1
100
AcDbLine
 10
625.002075
 20
228.507973
 30
0.0
 11
625.002075
 21
233.0302
 31
0.0
  0
LINE
  5
8902
100
AcDbEntity
  8
1
100
AcDbLine
 10
624.577054
 20
228.654353
 30
0.0
 11
624.577054
 21
232.789987
 31
0.0
  0
LINE
  5
8903
100
AcDbEntity
  8
1
100
AcDbLine
 10
624.997141
 20
228.513206
 30
0.0
 11
624.997141
 21
233.023616
 31
0.0
  0
LINE
  5
8904
100
AcDbEntity
  8
1
100
AcDbLine
 10
624.26811
 20
228.654989
 30
0.0
 11
624.26811
 21
232.754989
 31
0.0
  0
LINE
  5
8905
100
AcDbEntity
  8
1
100
AcDbLine
 10
624.977038
 20
233.077534
 30
0.0
 11
624.977038
 21
228.46527
 31
0.0
  0
LINE
  5
8906
100
AcDbEntity
  8
1
100
AcDbLine
 10
625.152051
 20
233.475073
 30
0.0
 11
625.152051
 21
228.13488
 31
0.0
  0
LINE
  5
8907
100
AcDbEntity
  8
1
100
AcDbLine
 10
624.057792
 20
232.820703
 30
0.0
 11
624.057792
 21
228.589275
 31
0.0
  0
LINE
  5
8908
100
AcDbEntity
  8
1
100
AcDbLine
 10
623.948567
 20
233.481772
 30
0.0
 11
623.948567
 21
227.918646
 31
0.0
  0
LINE
  5
8909
100
AcDbEntity
  8
1
100
AcDbLine
 10
616.205823
 20
228.655029
 30
0.0
 11
616.205823
 21
232.75495
 31
0.0
  0
LINE
  5
890A
100
AcDbEntity
  8
1
100
AcDbLine
 10
616.15692
 20
232.813635
 30
0.0
 11
616.15692
 21
228.596344
 31
0.0
  0
LINE
  5
890B
100
AcDbEntity
  8
1
100
AcDbLine
 10
616.048811
 20
233.501635
 30
0.0
 11
616.048811
 21
227.919873
 31
0.0
  0
CIRCLE
  5
890C
100
AcDbEntity
  8
1
100
AcDbCircle
 10
620.197141
 20
230.704989
 30
0.0
 40
2.604184
  0
INSERT
  5
890D
100
AcDbEntity
  8
WY
100
AcDbBlockReference
  2
A$C25565E68
 10
617.697141
 20
228.204989
 30
0.0
 41
0.5
 42
0.5
 43
0.5
  0
LINE
  5
890E
100
AcDbEntity
  8
1
100
AcDbLine
 10
607.805823
 20
228.654989
 30
0.0
 11
607.805823
 21
232.754989
 31
0.0
  0
LINE
  5
890F
100
AcDbEntity
  8
1
100
AcDbLine
 10
607.75692
 20
232.813621
 30
0.0
 11
607.75692
 21
228.596358
 31
0.0
  0
LINE
  5
8910
100
AcDbEntity
  8
1
100
AcDbLine
 10
607.648706
 20
233.49402
 30
0.0
 11
607.648706
 21
227.920077
 31
0.0
  0
CIRCLE
  5
8911
100
AcDbEntity
  8
1
100
AcDbCircle
 10
612.297141
 20
230.704989
 30
0.0
 40
2.604184
  0
INSERT
  5
8912
100
AcDbEntity
  8
WY
100
AcDbBlockReference
  2
A$C25565E68
 10
609.797141
 20
228.204989
 30
0.0
 41
0.5
 42
0.5
 43
0.5
  0
LINE
  5
8913
100
AcDbEntity
  8
1
100
AcDbLine
 10
615.616639
 20
227.654989
 30
0.0
 11
615.616639
 21
241.354989
 31
0.0
  0
LINE
  5
8914
100
AcDbEntity
  8
1
100
AcDbLine
 10
625.197141
 20
227.154989
 30
0.0
 11
625.197141
 21
241.854989
 31
0.0
  0
LINE
  5
8915
100
AcDbEntity
  8
1
100
AcDbLine
 10
607.218875
 20
227.654989
 30
0.0
 11
607.218875
 21
241.354989
 31
0.0
  0
DIMENSION
  5
8916
100
AcDbEntity
  8
WY
100
AcDbDimension
  2
*D5
 10
635.147925
 20
242.232436
 30
0.0
 11
631.847925
 21
234.493712
 31
0.0
 12
13.067766
 22
135.104039
 32
0.0
 70
    32
  1
15.5
  3
STANDARD
100
AcDbAlignedDimension
 13
624.424036
 23
226.754989
 33
0.0
 14
624.424036
 24
242.232436
 34
0.0
 50
90.0
100
AcDbRotatedDimension
  0
LINE
  5
8917
100
AcDbEntity
  8
1
100
AcDbLine
 10
617.298089
 20
227.154989
 30
0.0
 11
621.198816
 21
227.154989
 31
0.0
  0
LINE
  5
8918
100
AcDbEntity
  8
1
100
AcDbLine
 10
621.184856
 20
226.754989
 30
0.0
 11
616.906731
 21
226.754989
 31
0.0
  0
LINE
  5
8919
100
AcDbEntity
  8
1
100
AcDbLine
 10
608.897141
 20
227.154989
 30
0.0
 11
613.294735
 21
227.154989
 31
0.0
  0
LINE
  5
891A
100
AcDbEntity
  8
1
100
AcDbLine
 10
613.280776
 20
226.754989
 30
0.0
 11
608.497141
 21
226.754989
 31
0.0
  0
LWPOLYLINE
  5
891B
100
AcDbEntity
  8
1
100
AcDbPolyline
 90
        4
 70
   128
 43
0.0
 10
608.897141
 20
228.10516
 10
608.892884
 20
228.093695
 10
608.802971
 20
228.047814
 10
608.544716
 20
227.969167
  0
LWPOLYLINE
  5
891C
100
AcDbEntity
  8
1
100
AcDbPolyline
 90
        4
 70
   128
 43
0.0
 10
607.995224
 20
228.519137
 10
608.220869
 20
228.587028
 10
608.311028
 20
228.620989
 10
608.347342
 20
228.654989
  0
LWPOLYLINE
  5
891D
100
AcDbEntity
  8
1
100
AcDbPolyline
 90
        4
 70
   128
 43
0.0
 10
607.667588
 20
228.489257
 10
607.827982
 20
228.499132
 10
607.937299
 20
228.509101
 10
607.995224
 20
228.519137
  0
LWPOLYLINE
  5
891E
100
AcDbEntity
  8
1
100
AcDbPolyline
 90
        9
 70
   128
 43
0.0
 10
607.72502
 20
227.920077
 10
607.723728
 20
227.956971
 10
607.720076
 20
227.993699
 10
607.714079
 20
228.030095
 10
607.705765
 20
228.065996
 10
607.69517
 20
228.101239
 10
607.682343
 20
228.135666
 10
607.667342
 20
228.169122
 10
607.650234
 20
228.201455
  0
LINE
  5
891F
100
AcDbEntity
  8
1
100
AcDbLine
 10
607.72502
 20
227.920077
 30
0.0
 11
607.648706
 21
227.920077
 31
0.0
  0
LINE
  5
8920
100
AcDbEntity
  8
1
100
AcDbLine
 10
608.347342
 20
228.654989
 30
0.0
 11
607.805823
 21
228.654989
 31
0.0
  0
LINE
  5
8921
100
AcDbEntity
  8
1
100
AcDbLine
 10
607.805823
 20
228.654989
 30
0.0
 11
607.75692
 21
228.596358
 31
0.0
  0
LWPOLYLINE
  5
8922
100
AcDbEntity
  8
1
100
AcDbPolyline
 90
        9
 70
   128
 43
0.0
 10
607.648706
 20
227.920077
 10
607.648733
 20
227.963577
 10
607.648811
 20
228.006236
 10
607.648941
 20
228.04723
 10
607.649119
 20
228.085767
 10
607.649342
 20
228.121102
 10
607.649606
 20
228.152553
 10
607.649905
 20
228.179511
 10
607.650234
 20
228.201455
  0
LWPOLYLINE
  5
8923
100
AcDbEntity
  8
1
100
AcDbPolyline
 90
        6
 70
   128
 43
0.0
 10
607.650234
 20
228.201455
 10
607.650761
 20
228.229229
 10
607.6527
 20
228.307267
 10
607.657994
 20
228.425013
 10
607.662782
 20
228.4728
 10
607.667588
 20
228.489257
  0
LINE
  5
8924
100
AcDbEntity
  8
1
100
AcDbLine
 10
607.75692
 20
228.596358
 30
0.0
 11
607.667588
 21
228.489257
 31
0.0
  0
LWPOLYLINE
  5
8925
100
AcDbEntity
  8
1
100
AcDbPolyline
 90
        7
 70
   128
 43
0.0
 10
608.544716
 20
227.969167
 10
608.498847
 20
227.960826
 10
608.41639
 20
227.952527
 10
608.297506
 20
227.944286
 10
608.142434
 20
227.93612
 10
607.951478
 20
227.928045
 10
607.72502
 20
227.920077
  0
LWPOLYLINE
  5
8926
100
AcDbEntity
  8
1
100
AcDbPolyline
 90
        9
 70
   128
 43
0.0
 10
608.544716
 20
227.969167
 10
608.534126
 20
228.076412
 10
608.502838
 20
228.17954
 10
608.452052
 20
228.274591
 10
608.383718
 20
228.357915
 10
608.300461
 20
228.426314
 10
608.205477
 20
228.47716
 10
608.102412
 20
228.508502
 10
607.995224
 20
228.519137
  0
LWPOLYLINE
  5
8927
100
AcDbEntity
  8
1
100
AcDbPolyline
 90
        6
 70
   128
 43
0.0
 10
608.347342
 20
228.654989
 10
608.529424
 20
228.623969
 10
608.690979
 20
228.534381
 10
608.813709
 20
228.396375
 10
608.883794
 20
228.225591
 10
608.897141
 20
228.10516
  0
LINE
  5
8928
100
AcDbEntity
  8
1
100
AcDbLine
 10
608.557229
 20
227.154989
 30
0.0
 11
608.897141
 21
227.154989
 31
0.0
  0
LINE
  5
8929
100
AcDbEntity
  8
1
100
AcDbLine
 10
608.557229
 20
227.654989
 30
0.0
 11
608.557229
 21
227.154989
 31
0.0
  0
LWPOLYLINE
  5
892A
100
AcDbEntity
  8
1
100
AcDbPolyline
 90
        7
 70
   128
 43
0.0
 10
608.897141
 20
227.154989
 10
608.882905
 20
227.049226
 10
608.844389
 20
226.956448
 10
608.764166
 20
226.857168
 10
608.629108
 20
226.777386
 10
608.500019
 20
226.755
 10
608.497141
 20
226.754989
  0
LINE
  5
892B
100
AcDbEntity
  8
1
100
AcDbLine
 10
605.81278
 20
227.154989
 30
0.0
 11
606.64968
 21
227.154989
 31
0.0
  0
LINE
  5
892C
100
AcDbEntity
  8
1
100
AcDbLine
 10
608.157455
 20
226.754989
 30
0.0
 11
605.79882
 21
226.754989
 31
0.0
  0
LINE
  5
892D
100
AcDbEntity
  8
1
100
AcDbLine
 10
608.171415
 20
227.154989
 30
0.0
 11
608.171415
 21
227.654989
 31
0.0
  0
LWPOLYLINE
  5
892E
100
AcDbEntity
  8
1
100
AcDbPolyline
 90
        9
 70
   128
 43
0.0
 10
608.171415
 20
227.154989
 10
608.171147
 20
227.076953
 10
608.170352
 20
227.001916
 10
608.169062
 20
226.932761
 10
608.167326
 20
226.872147
 10
608.165211
 20
226.822402
 10
608.162797
 20
226.785438
 10
608.160179
 20
226.762675
 10
608.157455
 20
226.754989
  0
LINE
  5
892F
100
AcDbEntity
  8
1
100
AcDbLine
 10
607.74968
 20
227.154989
 30
0.0
 11
608.171415
 21
227.154989
 31
0.0
  0
LINE
  5
8930
100
AcDbEntity
  8
1
100
AcDbLine
 10
608.105342
 20
227.654989
 30
0.0
 11
607.74968
 21
227.441722
 31
0.0
  0
LINE
  5
8931
100
AcDbEntity
  8
1
100
AcDbLine
 10
607.74968
 20
227.616594
 30
0.0
 11
607.813711
 21
227.654989
 31
0.0
  0
LINE
  5
8932
100
AcDbEntity
  8
1
100
AcDbLine
 10
608.148899
 20
227.654989
 30
0.0
 11
607.74968
 21
227.415896
 31
0.0
  0
LINE
  5
8933
100
AcDbEntity
  8
1
100
AcDbLine
 10
606.64968
 20
226.854989
 30
0.0
 11
607.74968
 21
226.854989
 31
0.0
  0
LINE
  5
8934
100
AcDbEntity
  8
1
100
AcDbLine
 10
606.64968
 20
227.654989
 30
0.0
 11
606.64968
 21
226.854989
 31
0.0
  0
LINE
  5
8935
100
AcDbEntity
  8
1
100
AcDbLine
 10
607.74968
 20
226.854989
 30
0.0
 11
607.74968
 21
227.654989
 31
0.0
  0
LWPOLYLINE
  5
8936
100
AcDbEntity
  8
1
100
AcDbPolyline
 90
        9
 70
   128
 43
0.0
 10
605.81278
 20
227.154989
 10
605.812512
 20
227.076953
 10
605.811717
 20
227.001916
 10
605.810427
 20
226.932761
 10
605.808691
 20
226.872147
 10
605.806576
 20
226.822402
 10
605.804162
 20
226.785438
 10
605.801544
 20
226.762675
 10
605.79882
 20
226.754989
  0
LINE
  5
8937
100
AcDbEntity
  8
1
100
AcDbLine
 10
605.81278
 20
227.654989
 30
0.0
 11
605.81278
 21
227.154989
 31
0.0
  0
LWPOLYLINE
  5
8938
100
AcDbEntity
  8
1
100
AcDbPolyline
 90
        9
 70
   128
 43
0.0
 10
608.557229
 20
227.154989
 10
608.549548
 20
227.076953
 10
608.526798
 20
227.001916
 10
608.489855
 20
226.932761
 10
608.440138
 20
226.872147
 10
608.379558
 20
226.822402
 10
608.310442
 20
226.785438
 10
608.235447
 20
226.762675
 10
608.157455
 20
226.754989
  0
LINE
  5
8939
100
AcDbEntity
  8
1
100
AcDbLine
 10
608.557229
 20
227.154989
 30
0.0
 11
608.171415
 21
227.154989
 31
0.0
  0
LINE
  5
893A
100
AcDbEntity
  8
1
100
AcDbLine
 10
608.497141
 20
226.754989
 30
0.0
 11
608.157455
 21
226.754989
 31
0.0
  0
LINE
  5
893B
100
AcDbEntity
  8
1
100
AcDbLine
 10
607.72502
 20
227.654989
 30
0.0
 11
608.544716
 21
227.654989
 31
0.0
  0
LWPOLYLINE
  5
893C
100
AcDbEntity
  8
1
100
AcDbPolyline
 90
        9
 70
   128
 43
0.0
 10
605.426959
 20
227.154989
 10
605.419278
 20
227.076953
 10
605.396528
 20
227.001916
 10
605.359584
 20
226.932761
 10
605.309866
 20
226.872147
 10
605.249285
 20
226.822402
 10
605.180168
 20
226.785438
 10
605.105172
 20
226.762675
 10
605.027179
 20
226.754989
  0
LINE
  5
893D
100
AcDbEntity
  8
1
100
AcDbLine
 10
605.308747
 20
227.154989
 30
0.0
 11
605.426959
 21
227.154989
 31
0.0
  0
LINE
  5
893E
100
AcDbEntity
  8
1
100
AcDbLine
 10
605.426959
 20
227.154989
 30
0.0
 11
605.426959
 21
227.654989
 31
0.0
  0
LINE
  5
893F
100
AcDbEntity
  8
1
100
AcDbLine
 10
605.281752
 20
227.154989
 30
0.0
 11
605.308747
 21
227.154989
 31
0.0
  0
LINE
  5
8940
100
AcDbEntity
  8
1
100
AcDbLine
 10
605.308747
 20
227.654989
 30
0.0
 11
605.308747
 21
227.154989
 31
0.0
  0
LINE
  5
8941
100
AcDbEntity
  8
1
100
AcDbLine
 10
605.281752
 20
227.654989
 30
0.0
 11
605.281752
 21
227.154989
 31
0.0
  0
LINE
  5
8942
100
AcDbEntity
  8
1
100
AcDbLine
 10
605.281752
 20
227.154989
 30
0.0
 11
604.895921
 21
227.154989
 31
0.0
  0
LWPOLYLINE
  5
8943
100
AcDbEntity
  8
1
100
AcDbPolyline
 90
        9
 70
   128
 43
0.0
 10
605.281752
 20
227.154989
 10
605.27407
 20
227.076953
 10
605.25132
 20
227.001916
 10
605.214375
 20
226.932761
 10
605.164656
 20
226.872147
 10
605.104073
 20
226.822402
 10
605.034954
 20
226.785438
 10
604.959956
 20
226.762675
 10
604.881961
 20
226.754989
  0
LINE
  5
8944
100
AcDbEntity
  8
1
100
AcDbLine
 10
604.895921
 20
227.154989
 30
0.0
 11
604.895921
 21
227.654989
 31
0.0
  0
LWPOLYLINE
  5
8945
100
AcDbEntity
  8
1
100
AcDbPolyline
 90
        9
 70
   128
 43
0.0
 10
604.895921
 20
227.154989
 10
604.895652
 20
227.076953
 10
604.894858
 20
227.001916
 10
604.893568
 20
226.932761
 10
604.891832
 20
226.872147
 10
604.889716
 20
226.822402
 10
604.887303
 20
226.785438
 10
604.884684
 20
226.762675
 10
604.881961
 20
226.754989
  0
LINE
  5
8946
100
AcDbEntity
  8
1
100
AcDbLine
 10
605.027179
 20
226.754989
 30
0.0
 11
604.908956
 21
226.754989
 31
0.0
  0
LINE
  5
8947
100
AcDbEntity
  8
1
100
AcDbLine
 10
604.908956
 20
226.754989
 30
0.0
 11
604.881961
 21
226.754989
 31
0.0
  0
LWPOLYLINE
  5
8948
100
AcDbEntity
  8
1
100
AcDbPolyline
 90
        9
 70
   128
 43
0.0
 10
605.308747
 20
227.154989
 10
605.301065
 20
227.076953
 10
605.278315
 20
227.001916
 10
605.24137
 20
226.932761
 10
605.191651
 20
226.872147
 10
605.131068
 20
226.822402
 10
605.061949
 20
226.785438
 10
604.986951
 20
226.762675
 10
604.908956
 20
226.754989
  0
LINE
  5
8949
100
AcDbEntity
  8
1
100
AcDbLine
 10
604.895921
 20
227.654989
 30
0.0
 11
607.218875
 21
227.654989
 31
0.0
  0
LINE
  5
894A
100
AcDbEntity
  8
1
100
AcDbLine
 10
605.81278
 20
227.154989
 30
0.0
 11
605.426959
 21
227.154989
 31
0.0
  0
LINE
  5
894B
100
AcDbEntity
  8
1
100
AcDbLine
 10
605.027179
 20
226.754989
 30
0.0
 11
605.79882
 21
226.754989
 31
0.0
  0
LINE
  5
894C
100
AcDbEntity
  8
1
100
AcDbLine
 10
608.544716
 20
227.654989
 30
0.0
 11
608.544716
 21
227.969167
 31
0.0
  0
LINE
  5
894D
100
AcDbEntity
  8
1
100
AcDbLine
 10
607.72502
 20
227.654989
 30
0.0
 11
607.72502
 21
227.920077
 31
0.0
  0
LINE
  5
894E
100
AcDbEntity
  8
1
100
AcDbLine
 10
608.897141
 20
227.154989
 30
0.0
 11
608.897141
 21
228.10516
 31
0.0
  0
LWPOLYLINE
  5
894F
100
AcDbEntity
  8
1
100
AcDbPolyline
 90
        4
 70
   128
 43
0.0
 10
617.298089
 20
228.105529
 10
617.273187
 20
228.094013
 10
617.169854
 20
228.047962
 10
616.953161
 20
227.969286
  0
LWPOLYLINE
  5
8950
100
AcDbEntity
  8
1
100
AcDbPolyline
 90
        3
 70
   128
 43
0.0
 10
616.403463
 20
228.519256
 10
616.594315
 20
228.587235
 10
616.747644
 20
228.655227
  0
LWPOLYLINE
  5
8951
100
AcDbEntity
  8
1
100
AcDbPolyline
 90
        4
 70
   128
 43
0.0
 10
616.067451
 20
228.48898
 10
616.23246
 20
228.499002
 10
616.344578
 20
228.509104
 10
616.403463
 20
228.519256
  0
LWPOLYLINE
  5
8952
100
AcDbEntity
  8
1
100
AcDbPolyline
 90
        9
 70
   128
 43
0.0
 10
616.122022
 20
227.919873
 10
616.120781
 20
227.956008
 10
616.117277
 20
227.991986
 10
616.111527
 20
228.027653
 10
616.103556
 20
228.062854
 10
616.093397
 20
228.097437
 10
616.081095
 20
228.131252
 10
616.066703
 20
228.164155
 10
616.050283
 20
228.196001
  0
LINE
  5
8953
100
AcDbEntity
  8
1
100
AcDbLine
 10
616.122022
 20
227.919873
 30
0.0
 11
616.048811
 21
227.919873
 31
0.0
  0
LINE
  5
8954
100
AcDbEntity
  8
1
100
AcDbLine
 10
616.747644
 20
228.655227
 30
0.0
 11
616.205823
 21
228.655029
 31
0.0
  0
LINE
  5
8955
100
AcDbEntity
  8
1
100
AcDbLine
 10
616.205823
 20
228.655029
 30
0.0
 11
616.15692
 21
228.596344
 31
0.0
  0
LWPOLYLINE
  5
8956
100
AcDbEntity
  8
1
100
AcDbPolyline
 90
        9
 70
   128
 43
0.0
 10
616.048811
 20
227.919873
 10
616.048836
 20
227.96229
 10
616.048912
 20
228.003911
 10
616.049037
 20
228.043954
 10
616.049208
 20
228.081668
 10
616.049423
 20
228.116345
 10
616.049677
 20
228.147334
 10
616.049965
 20
228.174053
 10
616.050283
 20
228.196001
  0
LWPOLYLINE
  5
8957
100
AcDbEntity
  8
1
100
AcDbPolyline
 90
        5
 70
   128
 43
0.0
 10
616.050283
 20
228.196001
 10
616.053249
 20
228.32142
 10
616.057857
 20
228.422395
 10
616.062636
 20
228.471625
 10
616.067451
 20
228.48898
  0
LINE
  5
8958
100
AcDbEntity
  8
1
100
AcDbLine
 10
616.15692
 20
228.596344
 30
0.0
 11
616.067451
 21
228.48898
 31
0.0
  0
LWPOLYLINE
  5
8959
100
AcDbEntity
  8
1
100
AcDbPolyline
 90
        7
 70
   128
 43
0.0
 10
616.953161
 20
227.969286
 10
616.90712
 20
227.960919
 10
616.823781
 20
227.952582
 10
616.703317
 20
227.944292
 10
616.545974
 20
227.936066
 10
616.352076
 20
227.927921
 10
616.122022
 20
227.919873
  0
LWPOLYLINE
  5
895A
100
AcDbEntity
  8
1
100
AcDbPolyline
 90
        9
 70
   128
 43
0.0
 10
616.953161
 20
227.969286
 10
616.942566
 20
228.076556
 10
616.911263
 20
228.179706
 10
616.860454
 20
228.274773
 10
616.792091
 20
228.358106
 10
616.7088
 20
228.426503
 10
616.61378
 20
228.477337
 10
616.510681
 20
228.508656
 10
616.403463
 20
228.519256
  0
LWPOLYLINE
  5
895B
100
AcDbEntity
  8
1
100
AcDbPolyline
 90
        6
 70
   128
 43
0.0
 10
616.747644
 20
228.655227
 10
616.930041
 20
228.624232
 10
617.0919
 20
228.53455
 10
617.21477
 20
228.396403
 10
617.28481
 20
228.225596
 10
617.298089
 20
228.105529
  0
LINE
  5
895C
100
AcDbEntity
  8
1
100
AcDbLine
 10
616.96549
 20
227.154989
 30
0.0
 11
617.298089
 21
227.154989
 31
0.0
  0
LINE
  5
895D
100
AcDbEntity
  8
1
100
AcDbLine
 10
616.96549
 20
227.654989
 30
0.0
 11
616.96549
 21
227.154989
 31
0.0
  0
LINE
  5
895E
100
AcDbEntity
  8
1
100
AcDbLine
 10
616.565706
 20
226.754989
 30
0.0
 11
614.207192
 21
226.754989
 31
0.0
  0
LINE
  5
895F
100
AcDbEntity
  8
1
100
AcDbLine
 10
615.047444
 20
226.854989
 30
0.0
 11
616.147444
 21
226.854989
 31
0.0
  0
LWPOLYLINE
  5
8960
100
AcDbEntity
  8
1
100
AcDbPolyline
 90
        9
 70
   128
 43
0.0
 10
616.565706
 20
226.754989
 10
616.568429
 20
226.762675
 10
616.571048
 20
226.785438
 10
616.573461
 20
226.822402
 10
616.575577
 20
226.872147
 10
616.577313
 20
226.932761
 10
616.578603
 20
227.001916
 10
616.579397
 20
227.076953
 10
616.579666
 20
227.154989
  0
LINE
  5
8961
100
AcDbEntity
  8
1
100
AcDbLine
 10
616.147444
 20
227.154989
 30
0.0
 11
616.579666
 21
227.154989
 31
0.0
  0
LINE
  5
8962
100
AcDbEntity
  8
1
100
AcDbLine
 10
616.579666
 20
227.154989
 30
0.0
 11
616.579666
 21
227.654989
 31
0.0
  0
LINE
  5
8963
100
AcDbEntity
  8
1
100
AcDbLine
 10
616.147444
 20
227.616594
 30
0.0
 11
616.211475
 21
227.654989
 31
0.0
  0
LINE
  5
8964
100
AcDbEntity
  8
1
100
AcDbLine
 10
616.503106
 20
227.654989
 30
0.0
 11
616.147444
 21
227.441722
 31
0.0
  0
LINE
  5
8965
100
AcDbEntity
  8
1
100
AcDbLine
 10
616.906731
 20
226.754989
 30
0.0
 11
616.565706
 21
226.754989
 31
0.0
  0
LINE
  5
8966
100
AcDbEntity
  8
1
100
AcDbLine
 10
616.54665
 20
227.654989
 30
0.0
 11
616.147444
 21
227.415903
 31
0.0
  0
LINE
  5
8967
100
AcDbEntity
  8
1
100
AcDbLine
 10
616.147444
 20
226.854989
 30
0.0
 11
616.147444
 21
227.654989
 31
0.0
  0
LINE
  5
8968
100
AcDbEntity
  8
1
100
AcDbLine
 10
614.221152
 20
227.154989
 30
0.0
 11
615.047444
 21
227.154989
 31
0.0
  0
LWPOLYLINE
  5
8969
100
AcDbEntity
  8
1
100
AcDbPolyline
 90
        9
 70
   128
 43
0.0
 10
614.207192
 20
226.754989
 10
614.209916
 20
226.762675
 10
614.212534
 20
226.785438
 10
614.214948
 20
226.822402
 10
614.217063
 20
226.872147
 10
614.218799
 20
226.932761
 10
614.220089
 20
227.001916
 10
614.220884
 20
227.076953
 10
614.221152
 20
227.154989
  0
LINE
  5
896A
100
AcDbEntity
  8
1
100
AcDbLine
 10
614.221152
 20
227.654989
 30
0.0
 11
614.221152
 21
227.154989
 31
0.0
  0
LINE
  5
896B
100
AcDbEntity
  8
1
100
AcDbLine
 10
615.047444
 20
227.654989
 30
0.0
 11
615.047444
 21
226.854989
 31
0.0
  0
LWPOLYLINE
  5
896C
100
AcDbEntity
  8
1
100
AcDbPolyline
 90
        9
 70
   128
 43
0.0
 10
613.435564
 20
226.754989
 10
613.513556
 20
226.762675
 10
613.588551
 20
226.785438
 10
613.657667
 20
226.822402
 10
613.718247
 20
226.872147
 10
613.767964
 20
226.932761
 10
613.804907
 20
227.001916
 10
613.827656
 20
227.076953
 10
613.835338
 20
227.154989
  0
LINE
  5
896D
100
AcDbEntity
  8
1
100
AcDbLine
 10
613.710222
 20
227.154989
 30
0.0
 11
613.835338
 21
227.154989
 31
0.0
  0
LINE
  5
896E
100
AcDbEntity
  8
1
100
AcDbLine
 10
613.835338
 20
227.154989
 30
0.0
 11
613.835338
 21
227.654989
 31
0.0
  0
LINE
  5
896F
100
AcDbEntity
  8
1
100
AcDbLine
 10
613.680529
 20
227.154989
 30
0.0
 11
613.710222
 21
227.154989
 31
0.0
  0
LINE
  5
8970
100
AcDbEntity
  8
1
100
AcDbLine
 10
613.710222
 20
227.654989
 30
0.0
 11
613.710222
 21
227.154989
 31
0.0
  0
LWPOLYLINE
  5
8971
100
AcDbEntity
  8
1
100
AcDbPolyline
 90
        9
 70
   128
 43
0.0
 10
613.680529
 20
227.154989
 10
613.672848
 20
227.076953
 10
613.6501
 20
227.001916
 10
613.613159
 20
226.932761
 10
613.563444
 20
226.872147
 10
613.502867
 20
226.822402
 10
613.433755
 20
226.785438
 10
613.358764
 20
226.762675
 10
613.280776
 20
226.754989
  0
LINE
  5
8972
100
AcDbEntity
  8
1
100
AcDbLine
 10
613.680529
 20
227.154989
 30
0.0
 11
613.294735
 21
227.154989
 31
0.0
  0
LINE
  5
8973
100
AcDbEntity
  8
1
100
AcDbLine
 10
613.680529
 20
227.654989
 30
0.0
 11
613.680529
 21
227.154989
 31
0.0
  0
LWPOLYLINE
  5
8974
100
AcDbEntity
  8
1
100
AcDbPolyline
 90
        9
 70
   128
 43
0.0
 10
613.294735
 20
227.154989
 10
613.294467
 20
227.076953
 10
613.293673
 20
227.001916
 10
613.292383
 20
226.932761
 10
613.290647
 20
226.872147
 10
613.288531
 20
226.822402
 10
613.286118
 20
226.785438
 10
613.283499
 20
226.762675
 10
613.280776
 20
226.754989
  0
LINE
  5
8975
100
AcDbEntity
  8
1
100
AcDbLine
 10
613.294735
 20
227.154989
 30
0.0
 11
613.294735
 21
227.654989
 31
0.0
  0
LINE
  5
8976
100
AcDbEntity
  8
1
100
AcDbLine
 10
613.435564
 20
226.754989
 30
0.0
 11
613.310469
 21
226.754989
 31
0.0
  0
LINE
  5
8977
100
AcDbEntity
  8
1
100
AcDbLine
 10
613.310469
 20
226.754989
 30
0.0
 11
613.280776
 21
226.754989
 31
0.0
  0
LWPOLYLINE
  5
8978
100
AcDbEntity
  8
1
100
AcDbPolyline
 90
        9
 70
   128
 43
0.0
 10
613.710222
 20
227.154989
 10
613.702541
 20
227.076953
 10
613.679793
 20
227.001916
 10
613.642852
 20
226.932761
 10
613.593137
 20
226.872147
 10
613.53256
 20
226.822402
 10
613.463448
 20
226.785438
 10
613.388457
 20
226.762675
 10
613.310469
 20
226.754989
  0
LINE
  5
8979
100
AcDbEntity
  8
1
100
AcDbLine
 10
614.221152
 20
227.154989
 30
0.0
 11
613.835338
 21
227.154989
 31
0.0
  0
LINE
  5
897A
100
AcDbEntity
  8
1
100
AcDbLine
 10
613.435564
 20
226.754989
 30
0.0
 11
614.207192
 21
226.754989
 31
0.0
  0
LINE
  5
897B
100
AcDbEntity
  8
1
100
AcDbLine
 10
613.294735
 20
227.654989
 30
0.0
 11
615.616639
 21
227.654989
 31
0.0
  0
LWPOLYLINE
  5
897C
100
AcDbEntity
  8
1
100
AcDbPolyline
 90
        9
 70
   128
 43
0.0
 10
616.565706
 20
226.754989
 10
616.6437
 20
226.762675
 10
616.718697
 20
226.785438
 10
616.787814
 20
226.822402
 10
616.848396
 20
226.872147
 10
616.898115
 20
226.932761
 10
616.935059
 20
227.001916
 10
616.957809
 20
227.076953
 10
616.96549
 20
227.154989
  0
LINE
  5
897D
100
AcDbEntity
  8
1
100
AcDbLine
 10
616.96549
 20
227.154989
 30
0.0
 11
616.579666
 21
227.154989
 31
0.0
  0
LWPOLYLINE
  5
897E
100
AcDbEntity
  8
1
100
AcDbPolyline
 90
        7
 70
   128
 43
0.0
 10
616.906731
 20
226.754989
 10
616.909579
 20
226.755
 10
617.034403
 20
226.776873
 10
617.166495
 20
226.855807
 10
617.245704
 20
226.955072
 10
617.283973
 20
227.048526
 10
617.298089
 20
227.154989
  0
LINE
  5
897F
100
AcDbEntity
  8
1
100
AcDbLine
 10
616.953161
 20
227.654989
 30
0.0
 11
616.122022
 21
227.654989
 31
0.0
  0
LINE
  5
8980
100
AcDbEntity
  8
1
100
AcDbLine
 10
616.953161
 20
227.654989
 30
0.0
 11
616.953161
 21
227.969286
 31
0.0
  0
LINE
  5
8981
100
AcDbEntity
  8
1
100
AcDbLine
 10
616.122022
 20
227.654989
 30
0.0
 11
616.122022
 21
227.919873
 31
0.0
  0
LINE
  5
8982
100
AcDbEntity
  8
1
100
AcDbLine
 10
617.298089
 20
227.154989
 30
0.0
 11
617.298089
 21
228.105529
 31
0.0
  0
LWPOLYLINE
  5
8983
100
AcDbEntity
  8
1
100
AcDbPolyline
 90
        5
 70
   128
 43
0.0
 10
625.152051
 20
228.13488
 10
625.149429
 20
228.133337
 10
625.129733
 20
228.121821
 10
625.047521
 20
228.075762
 10
624.814336
 20
227.967997
  0
LINE
  5
8984
100
AcDbEntity
  8
1
100
AcDbLine
 10
624.264514
 20
228.517967
 30
0.0
 11
624.550591
 21
228.654989
 31
0.0
  0
LWPOLYLINE
  5
8985
100
AcDbEntity
  8
1
100
AcDbPolyline
 90
        4
 70
   128
 43
0.0
 10
623.967915
 20
228.48849
 10
624.116486
 20
228.498256
 10
624.215446
 20
228.508091
 10
624.264514
 20
228.517967
  0
LWPOLYLINE
  5
8986
100
AcDbEntity
  8
1
100
AcDbPolyline
 90
        7
 70
   128
 43
0.0
 10
624.814336
 20
227.967997
 10
624.774973
 20
227.959651
 10
624.698871
 20
227.951331
 10
624.586182
 20
227.943054
 10
624.437132
 20
227.934836
 10
624.252021
 20
227.926695
 10
624.031219
 20
227.918646
  0
LWPOLYLINE
  5
8987
100
AcDbEntity
  8
1
100
AcDbPolyline
 90
        9
 70
   128
 43
0.0
 10
624.814336
 20
227.967997
 10
624.803746
 20
228.075273
 10
624.772441
 20
228.178428
 10
624.721623
 20
228.273499
 10
624.653245
 20
228.356833
 10
624.569933
 20
228.42523
 10
624.474888
 20
228.476061
 10
624.371761
 20
228.507375
 10
624.264514
 20
228.517967
  0
LWPOLYLINE
  5
8988
100
AcDbEntity
  8
1
100
AcDbPolyline
 90
        9
 70
   128
 43
0.0
 10
624.031219
 20
227.918646
 10
624.029822
 20
227.957056
 10
624.025862
 20
227.995279
 10
624.019356
 20
228.033128
 10
624.010338
 20
228.070418
 10
623.998852
 20
228.106966
 10
623.984952
 20
228.142595
 10
623.968708
 20
228.17713
 10
623.950199
 20
228.210402
  0
LINE
  5
8989
100
AcDbEntity
  8
1
100
AcDbLine
 10
624.031219
 20
227.918646
 30
0.0
 11
623.948567
 21
227.918646
 31
0.0
  0
LINE
  5
898A
100
AcDbEntity
  8
1
100
AcDbLine
 10
624.550591
 20
228.654989
 30
0.0
 11
624.577054
 21
228.654353
 31
0.0
  0
LWPOLYLINE
  5
898B
100
AcDbEntity
  8
1
100
AcDbPolyline
 90
        5
 70
   128
 43
0.0
 10
625.152051
 20
228.13488
 10
625.151997
 20
228.139033
 10
625.131225
 20
228.279315
 10
625.068066
 20
228.421807
 10
625.002075
 20
228.507973
  0
LINE
  5
898C
100
AcDbEntity
  8
1
100
AcDbLine
 10
624.997141
 20
228.513206
 30
0.0
 11
625.002075
 21
228.507973
 31
0.0
  0
LWPOLYLINE
  5
898D
100
AcDbEntity
  8
1
100
AcDbPolyline
 90
        3
 70
   128
 43
0.0
 10
624.977038
 20
228.46527
 10
624.983175
 20
228.480351
 10
624.997141
 20
228.513206
  0
LWPOLYLINE
  5
898E
100
AcDbEntity
  8
1
100
AcDbPolyline
 90
        6
 70
   128
 43
0.0
 10
624.977038
 20
228.46527
 10
624.961596
 20
228.479443
 10
624.921706
 20
228.516286
 10
624.825598
 20
228.583138
 10
624.69085
 20
228.637062
 10
624.577054
 20
228.654353
  0
LINE
  5
898F
100
AcDbEntity
  8
1
100
AcDbLine
 10
624.550591
 20
228.654989
 30
0.0
 11
624.26811
 21
228.654989
 31
0.0
  0
LINE
  5
8990
100
AcDbEntity
  8
1
100
AcDbLine
 10
624.26811
 20
228.654989
 30
0.0
 11
624.213349
 21
228.589275
 31
0.0
  0
LINE
  5
8991
100
AcDbEntity
  8
1
100
AcDbLine
 10
624.051902
 20
228.589275
 30
0.0
 11
624.213349
 21
228.589275
 31
0.0
  0
LWPOLYLINE
  5
8992
100
AcDbEntity
  8
1
100
AcDbPolyline
 90
        9
 70
   128
 43
0.0
 10
623.948567
 20
227.918646
 10
623.948596
 20
227.964247
 10
623.94868
 20
228.008924
 10
623.948819
 20
228.05177
 10
623.94901
 20
228.091918
 10
623.949249
 20
228.128554
 10
623.94953
 20
228.160934
 10
623.949849
 20
228.188402
 10
623.950199
 20
228.210402
  0
LWPOLYLINE
  5
8993
100
AcDbEntity
  8
1
100
AcDbPolyline
 90
        6
 70
   128
 43
0.0
 10
623.950199
 20
228.210402
 10
623.951707
 20
228.277379
 10
623.954962
 20
228.371134
 10
623.958321
 20
228.428906
 10
623.963104
 20
228.472669
 10
623.967915
 20
228.48849
  0
LINE
  5
8994
100
AcDbEntity
  8
1
100
AcDbLine
 10
624.051902
 20
228.589275
 30
0.0
 11
623.967915
 21
228.48849
 31
0.0
  0
LINE
  5
8995
100
AcDbEntity
  8
1
100
AcDbLine
 10
624.823907
 20
227.154989
 30
0.0
 11
625.197141
 21
227.154989
 31
0.0
  0
LINE
  5
8996
100
AcDbEntity
  8
1
100
AcDbLine
 10
624.823907
 20
227.654989
 30
0.0
 11
624.823907
 21
227.154989
 31
0.0
  0
LWPOLYLINE
  5
8997
100
AcDbEntity
  8
1
100
AcDbPolyline
 90
        9
 70
   128
 43
0.0
 10
624.424036
 20
226.754989
 10
624.502047
 20
226.762675
 10
624.57706
 20
226.785438
 10
624.646192
 20
226.822402
 10
624.706788
 20
226.872147
 10
624.756517
 20
226.932761
 10
624.793469
 20
227.001916
 10
624.816224
 20
227.076953
 10
624.823907
 20
227.154989
  0
LINE
  5
8998
100
AcDbEntity
  8
1
100
AcDbLine
 10
624.823907
 20
227.154989
 30
0.0
 11
624.437996
 21
227.154989
 31
0.0
  0
LINE
  5
8999
100
AcDbEntity
  8
1
100
AcDbLine
 10
624.437996
 20
227.154989
 30
0.0
 11
624.437996
 21
227.645341
 31
0.0
  0
LWPOLYLINE
  5
899A
100
AcDbEntity
  8
1
100
AcDbPolyline
 90
        9
 70
   128
 43
0.0
 10
624.424036
 20
226.754989
 10
624.426759
 20
226.762675
 10
624.429378
 20
226.785438
 10
624.431791
 20
226.822402
 10
624.433907
 20
226.872147
 10
624.435643
 20
226.932761
 10
624.436933
 20
227.001916
 10
624.437727
 20
227.076953
 10
624.437996
 20
227.154989
  0
LINE
  5
899B
100
AcDbEntity
  8
1
100
AcDbLine
 10
624.054845
 20
227.154989
 30
0.0
 11
624.437996
 21
227.154989
 31
0.0
  0
LINE
  5
899C
100
AcDbEntity
  8
1
100
AcDbLine
 10
624.410507
 20
227.654989
 30
0.0
 11
624.054845
 21
227.441722
 31
0.0
  0
LINE
  5
899D
100
AcDbEntity
  8
1
100
AcDbLine
 10
624.054845
 20
227.616594
 30
0.0
 11
624.118876
 21
227.654989
 31
0.0
  0
LINE
  5
899E
100
AcDbEntity
  8
1
100
AcDbLine
 10
624.797079
 20
226.754989
 30
0.0
 11
624.424036
 21
226.754989
 31
0.0
  0
LWPOLYLINE
  5
899F
100
AcDbEntity
  8
1
100
AcDbPolyline
 90
        6
 70
   128
 43
0.0
 10
625.197141
 20
227.154989
 10
625.174594
 20
227.022603
 10
625.109499
 20
226.905141
 10
625.009189
 20
226.815839
 10
624.884958
 20
226.764759
 10
624.797079
 20
226.754989
  0
LINE
  5
89A0
100
AcDbEntity
  8
1
100
AcDbLine
 10
624.437996
 20
227.645341
 30
0.0
 11
624.054845
 21
227.415871
 31
0.0
  0
LWPOLYLINE
  5
89A1
100
AcDbEntity
  8
1
100
AcDbPolyline
 90
        3
 70
   128
 43
0.0
 10
624.454118
 20
227.654989
 10
624.446061
 20
227.650169
 10
624.437996
 20
227.645341
  0
LINE
  5
89A2
100
AcDbEntity
  8
1
100
AcDbLine
 10
624.814336
 20
227.654989
 30
0.0
 11
624.031219
 21
227.654989
 31
0.0
  0
LINE
  5
89A3
100
AcDbEntity
  8
1
100
AcDbLine
 10
622.954845
 20
226.854989
 30
0.0
 11
624.054845
 21
226.854989
 31
0.0
  0
LINE
  5
89A4
100
AcDbEntity
  8
1
100
AcDbLine
 10
622.954845
 20
227.654989
 30
0.0
 11
622.954845
 21
226.854989
 31
0.0
  0
LINE
  5
89A5
100
AcDbEntity
  8
1
100
AcDbLine
 10
624.054845
 20
226.854989
 30
0.0
 11
624.054845
 21
227.654989
 31
0.0
  0
LWPOLYLINE
  5
89A6
100
AcDbEntity
  8
1
100
AcDbPolyline
 90
        9
 70
   128
 43
0.0
 10
622.072751
 20
226.754989
 10
622.075474
 20
226.762675
 10
622.078093
 20
226.785438
 10
622.080506
 20
226.822402
 10
622.082622
 20
226.872147
 10
622.084358
 20
226.932761
 10
622.085648
 20
227.001916
 10
622.086442
 20
227.076953
 10
622.08671
 20
227.154989
  0
LINE
  5
89A7
100
AcDbEntity
  8
1
100
AcDbLine
 10
622.08671
 20
227.154989
 30
0.0
 11
621.700801
 21
227.154989
 31
0.0
  0
LINE
  5
89A8
100
AcDbEntity
  8
1
100
AcDbLine
 10
622.08671
 20
227.654989
 30
0.0
 11
622.08671
 21
227.154989
 31
0.0
  0
LWPOLYLINE
  5
89A9
100
AcDbEntity
  8
1
100
AcDbPolyline
 90
        9
 70
   128
 43
0.0
 10
621.300933
 20
226.754989
 10
621.378943
 20
226.762675
 10
621.453956
 20
226.785438
 10
621.523088
 20
226.822402
 10
621.583683
 20
226.872147
 10
621.633411
 20
226.932761
 10
621.670363
 20
227.001916
 10
621.693118
 20
227.076953
 10
621.700801
 20
227.154989
  0
LINE
  5
89AA
100
AcDbEntity
  8
1
100
AcDbLine
 10
621.6061
 20
227.154989
 30
0.0
 11
621.700801
 21
227.154989
 31
0.0
  0
LINE
  5
89AB
100
AcDbEntity
  8
1
100
AcDbLine
 10
621.700801
 20
227.154989
 30
0.0
 11
621.700801
 21
227.654989
 31
0.0
  0
LINE
  5
89AC
100
AcDbEntity
  8
1
100
AcDbLine
 10
621.584718
 20
227.154989
 30
0.0
 11
621.6061
 21
227.154989
 31
0.0
  0
LINE
  5
89AD
100
AcDbEntity
  8
1
100
AcDbLine
 10
621.6061
 20
227.654989
 30
0.0
 11
621.6061
 21
227.154989
 31
0.0
  0
LINE
  5
89AE
100
AcDbEntity
  8
1
100
AcDbLine
 10
621.584718
 20
227.654989
 30
0.0
 11
621.584718
 21
227.154989
 31
0.0
  0
LWPOLYLINE
  5
89AF
100
AcDbEntity
  8
1
100
AcDbPolyline
 90
        9
 70
   128
 43
0.0
 10
621.184856
 20
226.754989
 10
621.262865
 20
226.762675
 10
621.337877
 20
226.785438
 10
621.407008
 20
226.822402
 10
621.467602
 20
226.872147
 10
621.51733
 20
226.932761
 10
621.554281
 20
227.001916
 10
621.577035
 20
227.076953
 10
621.584718
 20
227.154989
  0
LINE
  5
89B0
100
AcDbEntity
  8
1
100
AcDbLine
 10
621.584718
 20
227.154989
 30
0.0
 11
621.198816
 21
227.154989
 31
0.0
  0
LWPOLYLINE
  5
89B1
100
AcDbEntity
  8
1
100
AcDbPolyline
 90
        9
 70
   128
 43
0.0
 10
621.184856
 20
226.754989
 10
621.18758
 20
226.762675
 10
621.190198
 20
226.785438
 10
621.192612
 20
226.822402
 10
621.194727
 20
226.872147
 10
621.196463
 20
226.932761
 10
621.197753
 20
227.001916
 10
621.198548
 20
227.076953
 10
621.198816
 20
227.154989
  0
LINE
  5
89B2
100
AcDbEntity
  8
1
100
AcDbLine
 10
621.198816
 20
227.154989
 30
0.0
 11
621.198816
 21
227.654989
 31
0.0
  0
LINE
  5
89B3
100
AcDbEntity
  8
1
100
AcDbLine
 10
621.300933
 20
226.754989
 30
0.0
 11
622.072751
 21
226.754989
 31
0.0
  0
LINE
  5
89B4
100
AcDbEntity
  8
1
100
AcDbLine
 10
621.300933
 20
226.754989
 30
0.0
 11
621.206237
 21
226.754989
 31
0.0
  0
LINE
  5
89B5
100
AcDbEntity
  8
1
100
AcDbLine
 10
621.206237
 20
226.754989
 30
0.0
 11
621.184856
 21
226.754989
 31
0.0
  0
LWPOLYLINE
  5
89B6
100
AcDbEntity
  8
1
100
AcDbPolyline
 90
        9
 70
   128
 43
0.0
 10
621.206237
 20
226.754989
 10
621.284247
 20
226.762675
 10
621.359258
 20
226.785438
 10
621.428389
 20
226.822402
 10
621.488983
 20
226.872147
 10
621.538711
 20
226.932761
 10
621.575662
 20
227.001916
 10
621.598416
 20
227.076953
 10
621.6061
 20
227.154989
  0
LINE
  5
89B7
100
AcDbEntity
  8
1
100
AcDbLine
 10
622.08671
 20
227.154989
 30
0.0
 11
622.954845
 21
227.154989
 31
0.0
  0
LINE
  5
89B8
100
AcDbEntity
  8
1
100
AcDbLine
 10
624.424036
 20
226.754989
 30
0.0
 11
622.072751
 21
226.754989
 31
0.0
  0
LINE
  5
89B9
100
AcDbEntity
  8
1
100
AcDbLine
 10
621.198816
 20
227.654989
 30
0.0
 11
623.52404
 21
227.654989
 31
0.0
  0
LINE
  5
89BA
100
AcDbEntity
  8
1
100
AcDbLine
 10
624.814336
 20
227.654989
 30
0.0
 11
624.814336
 21
227.967997
 31
0.0
  0
LINE
  5
89BB
100
AcDbEntity
  8
1
100
AcDbLine
 10
624.031219
 20
227.654989
 30
0.0
 11
624.031219
 21
227.918646
 31
0.0
  0
LWPOLYLINE
  5
89BC
100
AcDbEntity
  8
1
100
AcDbPolyline
 90
        5
 70
   128
 43
0.0
 10
624.814336
 20
241.041981
 10
624.842142
 20
241.030468
 10
624.947268
 20
240.984421
 10
625.149429
 20
240.876642
 10
625.152051
 20
240.875099
  0
LWPOLYLINE
  5
89BD
100
AcDbEntity
  8
1
100
AcDbPolyline
 90
        9
 70
   128
 43
0.0
 10
624.264514
 20
240.492011
 10
624.371761
 20
240.502604
 10
624.474888
 20
240.533918
 10
624.569933
 20
240.584749
 10
624.653245
 20
240.653146
 10
624.721623
 20
240.73648
 10
624.772441
 20
240.831551
 10
624.803746
 20
240.934705
 10
624.814336
 20
241.041981
  0
LWPOLYLINE
  5
89BE
100
AcDbEntity
  8
1
100
AcDbPolyline
 90
        9
 70
   128
 43
0.0
 10
623.950199
 20
240.799576
 10
623.968708
 20
240.832849
 10
623.984952
 20
240.867384
 10
623.998852
 20
240.903013
 10
624.010338
 20
240.939561
 10
624.019356
 20
240.976851
 10
624.025862
 20
241.0147
 10
624.029822
 20
241.052923
 10
624.031219
 20
241.091333
  0
LWPOLYLINE
  5
89BF
100
AcDbEntity
  8
1
100
AcDbPolyline
 90
        9
 70
   128
 43
0.0
 10
623.950199
 20
240.799576
 10
623.949849
 20
240.821576
 10
623.94953
 20
240.849045
 10
623.949249
 20
240.881425
 10
623.94901
 20
240.91806
 10
623.948819
 20
240.958208
 10
623.94868
 20
241.001055
 10
623.948596
 20
241.045732
 10
623.948567
 20
241.091333
  0
LWPOLYLINE
  5
89C0
100
AcDbEntity
  8
1
100
AcDbPolyline
 90
        4
 70
   128
 43
0.0
 10
616.953161
 20
241.040693
 10
616.989061
 20
241.029186
 10
617.11808
 20
240.983162
 10
617.298089
 20
240.90445
  0
LINE
  5
89C1
100
AcDbEntity
  8
1
100
AcDbLine
 10
617.298089
 20
240.90445
 30
0.0
 11
617.298089
 21
241.854989
 31
0.0
  0
LWPOLYLINE
  5
89C2
100
AcDbEntity
  8
1
100
AcDbPolyline
 90
        9
 70
   128
 43
0.0
 10
616.050283
 20
240.813978
 10
616.066703
 20
240.845824
 10
616.081095
 20
240.878727
 10
616.093397
 20
240.912542
 10
616.103556
 20
240.947125
 10
616.111527
 20
240.982326
 10
616.117277
 20
241.017993
 10
616.120781
 20
241.053971
 10
616.122022
 20
241.090106
  0
LWPOLYLINE
  5
89C3
100
AcDbEntity
  8
1
100
AcDbPolyline
 90
        9
 70
   128
 43
0.0
 10
616.050283
 20
240.813978
 10
616.049965
 20
240.835926
 10
616.049677
 20
240.862645
 10
616.049423
 20
240.893634
 10
616.049208
 20
240.928311
 10
616.049037
 20
240.966025
 10
616.048912
 20
241.006068
 10
616.048836
 20
241.047689
 10
616.048811
 20
241.090106
  0
LWPOLYLINE
  5
89C4
100
AcDbEntity
  8
1
100
AcDbPolyline
 90
        9
 70
   128
 43
0.0
 10
616.403463
 20
240.490723
 10
616.510681
 20
240.501323
 10
616.61378
 20
240.532642
 10
616.7088
 20
240.583476
 10
616.792091
 20
240.651873
 10
616.860454
 20
240.735205
 10
616.911263
 20
240.830273
 10
616.942566
 20
240.933422
 10
616.953161
 20
241.040693
  0
LINE
  5
89C5
100
AcDbEntity
  8
1
100
AcDbLine
 10
623.948567
 20
241.091333
 30
0.0
 11
623.948567
 21
235.528207
 31
0.0
  0
LINE
  5
89C6
100
AcDbEntity
  8
1
100
AcDbLine
 10
616.048811
 20
241.090106
 30
0.0
 11
616.048811
 21
235.508344
 31
0.0
  0
LWPOLYLINE
  5
89C7
100
AcDbEntity
  8
1
100
AcDbPolyline
 90
        5
 70
   128
 43
0.0
 10
608.544716
 20
241.040812
 10
608.58179
 20
241.029317
 10
608.736494
 20
240.98335
 10
608.849804
 20
240.944073
 10
608.897141
 20
240.904819
  0
LINE
  5
89C8
100
AcDbEntity
  8
1
100
AcDbLine
 10
608.897141
 20
240.904819
 30
0.0
 11
608.897141
 21
241.854989
 31
0.0
  0
LWPOLYLINE
  5
89C9
100
AcDbEntity
  8
1
100
AcDbPolyline
 90
        9
 70
   128
 43
0.0
 10
607.650234
 20
240.808523
 10
607.667342
 20
240.840857
 10
607.682343
 20
240.874313
 10
607.69517
 20
240.90874
 10
607.705765
 20
240.943983
 10
607.714079
 20
240.979883
 10
607.720076
 20
241.01628
 10
607.723728
 20
241.053008
 10
607.72502
 20
241.089902
  0
LWPOLYLINE
  5
89CA
100
AcDbEntity
  8
1
100
AcDbPolyline
 90
        9
 70
   128
 43
0.0
 10
607.650234
 20
240.808523
 10
607.649905
 20
240.830468
 10
607.649606
 20
240.857426
 10
607.649342
 20
240.888876
 10
607.649119
 20
240.924211
 10
607.648941
 20
240.962749
 10
607.648811
 20
241.003743
 10
607.648733
 20
241.046402
 10
607.648706
 20
241.089902
  0
LWPOLYLINE
  5
89CB
100
AcDbEntity
  8
1
100
AcDbPolyline
 90
        9
 70
   128
 43
0.0
 10
607.995224
 20
240.490842
 10
608.102412
 20
240.501477
 10
608.205477
 20
240.532819
 10
608.300461
 20
240.583665
 10
608.383718
 20
240.652064
 10
608.452052
 20
240.735388
 10
608.502838
 20
240.830438
 10
608.534126
 20
240.933566
 10
608.544716
 20
241.040812
  0
LINE
  5
89CC
100
AcDbEntity
  8
1
100
AcDbLine
 10
607.648706
 20
241.089902
 30
0.0
 11
607.648706
 21
235.515959
 31
0.0
  0
LINE
  5
89CD
100
AcDbEntity
  8
OSIE
100
AcDbLine
 10
621.197141
 20
238.304989
 30
0.0
 11
619.197141
 21
238.304989
 31
0.0
  0
LINE
  5
89CE
100
AcDbEntity
  8
OSIE
100
AcDbLine
 10
621.197141
 20
230.704989
 30
0.0
 11
619.197141
 21
230.704989
 31
0.0
  0
CIRCLE
  5
89CF
100
AcDbEntity
  8
1
100
AcDbCircle
 10
620.197141
 20
238.304989
 30
0.0
 40
2.604184
  0
INSERT
  5
89D0
100
AcDbEntity
  8
WY
100
AcDbBlockReference
  2
A$C25565E68
 10
617.697141
 20
235.804989
 30
0.0
 41
0.5
 42
0.5
 43
0.5
  0
TEXT
  5
89D1
100
AcDbEntity
  8
1
100
AcDbText
 10
618.233837
 20
235.337513
 30
0.0
 40
1.0
  1
N
 50
270.0
  7
ITALIC
100
AcDbText
  0
TEXT
  5
89D2
100
AcDbEntity
  8
1
100
AcDbText
 10
605.660863
 20
235.356732
 30
0.0
 40
1.0
  1
N
 50
270.0
  7
ITALIC
100
AcDbText
  0
TEXT
  5
89D3
100
AcDbEntity
  8
1
100
AcDbText
 10
609.89007
 20
235.749378
 30
0.0
 40
1.0
  1
C
 50
270.0
  7
ITALIC
100
AcDbText
  0
LINE
  5
89D4
100
AcDbEntity
  8
1
100
AcDbLine
 10
616.953161
 20
233.640634
 30
0.0
 11
616.953161
 21
235.369344
 31
0.0
  0
LINE
  5
89D5
100
AcDbEntity
  8
1
100
AcDbLine
 10
616.122022
 20
233.689487
 30
0.0
 11
616.122022
 21
235.320492
 31
0.0
  0
LINE
  5
89D6
100
AcDbEntity
  8
1
100
AcDbLine
 10
617.298089
 20
233.504414
 30
0.0
 11
617.298089
 21
235.505565
 31
0.0
  0
LINE
  5
89D7
100
AcDbEntity
  8
1
100
AcDbLine
 10
608.544716
 20
233.64068
 30
0.0
 11
608.544716
 21
235.369299
 31
0.0
  0
LINE
  5
89D8
100
AcDbEntity
  8
1
100
AcDbLine
 10
607.72502
 20
233.689223
 30
0.0
 11
607.72502
 21
235.320756
 31
0.0
  0
LINE
  5
89D9
100
AcDbEntity
  8
1
100
AcDbLine
 10
608.897141
 20
233.504756
 30
0.0
 11
608.897141
 21
235.505222
 31
0.0
  0
LINE
  5
89DA
100
AcDbEntity
  8
OSIE
100
AcDbLine
 10
613.297141
 20
230.704989
 30
0.0
 11
611.297141
 21
230.704989
 31
0.0
  0
TEXT
  5
89DB
100
AcDbEntity
  8
1
100
AcDbText
 10
605.660863
 20
234.276743
 30
0.0
 40
1.0
  1
0
 50
270.0
  7
ITALIC
100
AcDbText
  0
TEXT
  5
89DC
100
AcDbEntity
  8
1
100
AcDbText
 10
609.89007
 20
233.987752
 30
0.0
 40
0.96
  1
M
 50
270.0
  7
ITALIC
100
AcDbText
  0
TEXT
  5
89DD
100
AcDbEntity
  8
1
100
AcDbText
 10
609.89007
 20
234.884929
 30
0.0
 40
1.0
  1
O
 50
270.0
  7
ITALIC
100
AcDbText
  0
LINE
  5
89DE
100
AcDbEntity
  8
OSIE
100
AcDbLine
 10
612.297141
 20
231.704989
 30
0.0
 11
612.297141
 21
229.704989
 31
0.0
  0
LWPOLYLINE
  5
89DF
100
AcDbEntity
  8
1
100
AcDbPolyline
 90
        7
 70
   128
 43
0.0
 10
607.72502
 20
233.689223
 10
607.951478
 20
233.681344
 10
608.142434
 20
233.673359
 10
608.297506
 20
233.665284
 10
608.41639
 20
233.657135
 10
608.498847
 20
233.648928
 10
608.544716
 20
233.64068
  0
LWPOLYLINE
  5
89E0
100
AcDbEntity
  8
1
100
AcDbPolyline
 90
        5
 70
   128
 43
0.0
 10
608.147415
 20
232.754989
 10
608.139216
 20
232.770685
 10
608.080942
 20
232.802055
 10
607.986717
 20
232.833408
 10
607.795409
 20
232.890721
  0
LWPOLYLINE
  5
89E1
100
AcDbEntity
  8
1
100
AcDbPolyline
 90
        4
 70
   128
 43
0.0
 10
607.795409
 20
232.890721
 10
607.771205
 20
232.896019
 10
607.732523
 20
232.901302
 10
607.679396
 20
232.906565
  0
LINE
  5
89E2
100
AcDbEntity
  8
1
100
AcDbLine
 10
607.805823
 20
232.754989
 30
0.0
 11
607.75692
 21
232.813621
 31
0.0
  0
LINE
  5
89E3
100
AcDbEntity
  8
1
100
AcDbLine
 10
607.805823
 20
232.754989
 30
0.0
 11
608.147415
 21
232.754989
 31
0.0
  0
LINE
  5
89E4
100
AcDbEntity
  8
1
100
AcDbLine
 10
607.679396
 20
232.906565
 30
0.0
 11
607.75692
 21
232.813621
 31
0.0
  0
LWPOLYLINE
  5
89E5
100
AcDbEntity
  8
1
100
AcDbPolyline
 90
        9
 70
   128
 43
0.0
 10
607.679396
 20
232.906565
 10
607.672849
 20
232.920596
 10
607.66631
 20
232.957491
 10
607.662027
 20
233.002637
 10
607.657777
 20
233.075664
 10
607.654494
 20
233.161075
 10
607.651337
 20
233.291491
 10
607.649065
 20
233.453476
 10
607.648706
 20
233.49402
  0
LWPOLYLINE
  5
89E6
100
AcDbEntity
  8
1
100
AcDbPolyline
 90
        6
 70
   128
 43
0.0
 10
608.897141
 20
233.504756
 10
608.854915
 20
233.256655
 10
608.732997
 20
233.036526
 10
608.545136
 20
232.869162
 10
608.312415
 20
232.773367
 10
608.147415
 20
232.754989
  0
LINE
  5
89E7
100
AcDbEntity
  8
OSIE
100
AcDbLine
 10
603.897141
 20
231.704989
 30
0.0
 11
603.897141
 21
229.704989
 31
0.0
  0
LWPOLYLINE
  5
89E8
100
AcDbEntity
  8
1
100
AcDbPolyline
 90
        5
 70
   128
 43
0.0
 10
608.544716
 20
233.64068
 10
608.595451
 20
233.625003
 10
608.802058
 20
233.562354
 10
608.870736
 20
233.533545
 10
608.897141
 20
233.504756
  0
LWPOLYLINE
  5
89E9
100
AcDbEntity
  8
1
100
AcDbPolyline
 90
        9
 70
   128
 43
0.0
 10
607.795409
 20
232.890721
 10
607.941574
 20
232.905223
 10
608.082117
 20
232.947962
 10
608.211641
 20
233.017298
 10
608.325173
 20
233.110568
 10
608.418355
 20
233.224192
 10
608.487609
 20
233.353807
 10
608.530275
 20
233.494436
 10
608.544716
 20
233.64068
  0
LWPOLYLINE
  5
89EA
100
AcDbEntity
  8
1
100
AcDbPolyline
 90
        3
 70
   128
 43
0.0
 10
607.648706
 20
233.49402
 10
607.723939
 20
233.685104
 10
607.72502
 20
233.689223
  0
TEXT
  5
89EB
100
AcDbEntity
  8
1
100
AcDbText
 10
618.233837
 20
234.380049
 30
0.0
 40
1.0
  1
C
 50
270.0
  7
ITALIC
100
AcDbText
  0
LWPOLYLINE
  5
89EC
100
AcDbEntity
  8
1
100
AcDbPolyline
 90
        7
 70
   128
 43
0.0
 10
616.122022
 20
233.689487
 10
616.352076
 20
233.681531
 10
616.545974
 20
233.673478
 10
616.703317
 20
233.665345
 10
616.823781
 20
233.657149
 10
616.90712
 20
233.648906
 10
616.953161
 20
233.640634
  0
LINE
  5
89ED
100
AcDbEntity
  8
OSIE
100
AcDbLine
 10
620.197141
 20
231.704989
 30
0.0
 11
620.197141
 21
229.704989
 31
0.0
  0
LWPOLYLINE
  5
89EE
100
AcDbEntity
  8
1
100
AcDbPolyline
 90
        4
 70
   128
 43
0.0
 10
616.547482
 20
232.754825
 10
616.513483
 20
232.770528
 10
616.367881
 20
232.833341
 10
616.203573
 20
232.890675
  0
LWPOLYLINE
  5
89EF
100
AcDbEntity
  8
1
100
AcDbPolyline
 90
        4
 70
   128
 43
0.0
 10
616.203573
 20
232.890675
 10
616.178019
 20
232.89621
 10
616.136454
 20
232.901733
 10
616.078915
 20
232.907241
  0
LINE
  5
89F0
100
AcDbEntity
  8
1
100
AcDbLine
 10
616.205823
 20
232.75495
 30
0.0
 11
616.15692
 21
232.813635
 31
0.0
  0
LINE
  5
89F1
100
AcDbEntity
  8
1
100
AcDbLine
 10
616.547482
 20
232.754825
 30
0.0
 11
616.205823
 21
232.75495
 31
0.0
  0
LINE
  5
89F2
100
AcDbEntity
  8
1
100
AcDbLine
 10
616.15692
 20
232.813635
 30
0.0
 11
616.078915
 21
232.907241
 31
0.0
  0
LWPOLYLINE
  5
89F3
100
AcDbEntity
  8
1
100
AcDbPolyline
 90
        9
 70
   128
 43
0.0
 10
616.078915
 20
232.907241
 10
616.072367
 20
232.921793
 10
616.065829
 20
232.96091
 10
616.061779
 20
233.005833
 10
616.05776
 20
233.076962
 10
616.05506
 20
233.144213
 10
616.052428
 20
233.240412
 10
616.050004
 20
233.384448
 10
616.048811
 20
233.501635
  0
TEXT
  5
89F4
100
AcDbEntity
  8
1
100
AcDbText
 10
614.27194
 20
233.180251
 30
0.0
 40
1.0
  1
1
 50
270.0
  7
ITALIC
100
AcDbText
  0
LWPOLYLINE
  5
89F5
100
AcDbEntity
  8
1
100
AcDbPolyline
 90
        6
 70
   128
 43
0.0
 10
617.298089
 20
233.504414
 10
617.255899
 20
233.256548
 10
617.134099
 20
233.036628
 10
616.946391
 20
232.869325
 10
616.713651
 20
232.773366
 10
616.547482
 20
232.754825
  0
LWPOLYLINE
  5
89F6
100
AcDbEntity
  8
1
100
AcDbPolyline
 90
        4
 70
   128
 43
0.0
 10
616.953161
 20
233.640634
 10
617.001808
 20
233.624947
 10
617.169339
 20
233.562194
 10
617.298089
 20
233.504414
  0
LWPOLYLINE
  5
89F7
100
AcDbEntity
  8
1
100
AcDbPolyline
 90
        9
 70
   128
 43
0.0
 10
616.203573
 20
232.890675
 10
616.349779
 20
232.90513
 10
616.490368
 20
232.947837
 10
616.619941
 20
233.017157
 10
616.73352
 20
233.110425
 10
616.826743
 20
233.224061
 10
616.896028
 20
233.353698
 10
616.938714
 20
233.494357
 10
616.953161
 20
233.640634
  0
LWPOLYLINE
  5
89F8
100
AcDbEntity
  8
1
100
AcDbPolyline
 90
        3
 70
   128
 43
0.0
 10
616.048811
 20
233.501635
 10
616.120926
 20
233.685369
 10
616.122022
 20
233.689487
  0
TEXT
  5
89F9
100
AcDbEntity
  8
1
100
AcDbText
 10
614.27194
 20
233.801952
 30
0.0
 40
1.0
  1
1
 50
270.0
  7
ITALIC
100
AcDbText
  0
LINE
  5
89FA
100
AcDbEntity
  8
OSIE
100
AcDbLine
 10
613.297141
 20
238.304989
 30
0.0
 11
611.297141
 21
238.304989
 31
0.0
  0
CIRCLE
  5
89FB
100
AcDbEntity
  8
1
100
AcDbCircle
 10
612.297141
 20
238.304989
 30
0.0
 40
2.604184
  0
INSERT
  5
89FC
100
AcDbEntity
  8
WY
100
AcDbBlockReference
  2
A$C25565E68
 10
609.797141
 20
235.804989
 30
0.0
 41
0.5
 42
0.5
 43
0.5
  0
LINE
  5
89FD
100
AcDbEntity
  8
OSIE
100
AcDbLine
 10
612.297141
 20
239.304989
 30
0.0
 11
612.297141
 21
237.304989
 31
0.0
  0
LWPOLYLINE
  5
89FE
100
AcDbEntity
  8
1
100
AcDbPolyline
 90
        4
 70
   128
 43
0.0
 10
608.347342
 20
240.354989
 10
608.342961
 20
240.3665
 10
608.252515
 20
240.412508
 10
607.995224
 20
240.490842
  0
LWPOLYLINE
  5
89FF
100
AcDbEntity
  8
1
100
AcDbPolyline
 90
        4
 70
   128
 43
0.0
 10
607.995224
 20
240.490842
 10
607.937299
 20
240.500877
 10
607.827982
 20
240.510847
 10
607.667588
 20
240.520722
  0
LINE
  5
8A00
100
AcDbEntity
  8
1
100
AcDbLine
 10
607.805823
 20
240.354989
 30
0.0
 11
607.75692
 21
240.413621
 31
0.0
  0
LINE
  5
8A01
100
AcDbEntity
  8
1
100
AcDbLine
 10
607.805823
 20
240.354989
 30
0.0
 11
608.347342
 21
240.354989
 31
0.0
  0
LINE
  5
8A02
100
AcDbEntity
  8
1
100
AcDbLine
 10
607.667588
 20
240.520722
 30
0.0
 11
607.75692
 21
240.413621
 31
0.0
  0
LWPOLYLINE
  5
8A03
100
AcDbEntity
  8
1
100
AcDbPolyline
 90
        6
 70
   128
 43
0.0
 10
607.667588
 20
240.520722
 10
607.662782
 20
240.537179
 10
607.657994
 20
240.584966
 10
607.6527
 20
240.702712
 10
607.650761
 20
240.780749
 10
607.650234
 20
240.808523
  0
LWPOLYLINE
  5
8A04
100
AcDbEntity
  8
1
100
AcDbPolyline
 90
        6
 70
   128
 43
0.0
 10
608.897141
 20
240.904819
 10
608.866175
 20
240.722878
 10
608.776769
 20
240.561449
 10
608.639004
 20
240.438716
 10
608.468342
 20
240.368466
 10
608.347342
 20
240.354989
  0
LWPOLYLINE
  5
8A05
100
AcDbEntity
  8
1
100
AcDbPolyline
 90
        5
 70
   128
 43
0.0
 10
608.897141
 20
235.505222
 10
608.889181
 20
235.48961
 10
608.831423
 20
235.458365
 10
608.737531
 20
235.427076
 10
608.544716
 20
235.369299
  0
LWPOLYLINE
  5
8A06
100
AcDbEntity
  8
1
100
AcDbPolyline
 90
        4
 70
   128
 43
0.0
 10
607.795409
 20
236.119258
 10
608.020863
 20
236.187088
 10
608.111015
 20
236.22102
 10
608.147415
 20
236.254989
  0
LWPOLYLINE
  5
8A07
100
AcDbEntity
  8
1
100
AcDbPolyline
 90
        4
 70
   128
 43
0.0
 10
607.679396
 20
236.103413
 10
607.732523
 20
236.108677
 10
607.771205
 20
236.11396
 10
607.795409
 20
236.119258
  0
LINE
  5
8A08
100
AcDbEntity
  8
1
100
AcDbLine
 10
608.147415
 20
236.254989
 30
0.0
 11
607.805823
 21
236.254989
 31
0.0
  0
LINE
  5
8A09
100
AcDbEntity
  8
1
100
AcDbLine
 10
607.805823
 20
236.254989
 30
0.0
 11
607.75692
 21
236.196358
 31
0.0
  0
LWPOLYLINE
  5
8A0A
100
AcDbEntity
  8
1
100
AcDbPolyline
 90
        8
 70
   128
 43
0.0
 10
607.648706
 20
235.515959
 10
607.649738
 20
235.616548
 10
607.650958
 20
235.697662
 10
607.654522
 20
235.848703
 10
607.658321
 20
235.945677
 10
607.663536
 20
236.026117
 10
607.668788
 20
236.070057
 10
607.679396
 20
236.103413
  0
LINE
  5
8A0B
100
AcDbEntity
  8
1
100
AcDbLine
 10
607.75692
 20
236.196358
 30
0.0
 11
607.679396
 21
236.103413
 31
0.0
  0
LWPOLYLINE
  5
8A0C
100
AcDbEntity
  8
1
100
AcDbPolyline
 90
        3
 70
   128
 43
0.0
 10
607.72502
 20
235.320756
 10
607.723939
 20
235.324875
 10
607.648706
 20
235.515959
  0
LWPOLYLINE
  5
8A0D
100
AcDbEntity
  8
1
100
AcDbPolyline
 90
        7
 70
   128
 43
0.0
 10
608.544716
 20
235.369299
 10
608.498847
 20
235.361051
 10
608.41639
 20
235.352844
 10
608.297506
 20
235.344695
 10
608.142434
 20
235.33662
 10
607.951478
 20
235.328635
 10
607.72502
 20
235.320756
  0
LWPOLYLINE
  5
8A0E
100
AcDbEntity
  8
1
100
AcDbPolyline
 90
        9
 70
   128
 43
0.0
 10
608.544716
 20
235.369299
 10
608.530275
 20
235.515543
 10
608.487609
 20
235.656172
 10
608.418355
 20
235.785787
 10
608.325173
 20
235.89941
 10
608.211641
 20
235.992681
 10
608.082117
 20
236.062017
 10
607.941574
 20
236.104756
 10
607.795409
 20
236.119258
  0
LWPOLYLINE
  5
8A0F
100
AcDbEntity
  8
1
100
AcDbPolyline
 90
        6
 70
   128
 43
0.0
 10
608.147415
 20
236.254989
 10
608.395709
 20
236.212689
 10
608.616011
 20
236.090524
 10
608.78337
 20
235.902333
 10
608.878941
 20
235.669446
 10
608.897141
 20
235.505222
  0
LINE
  5
8A10
100
AcDbEntity
  8
OSIE
100
AcDbLine
 10
603.897141
 20
239.304989
 30
0.0
 11
603.897141
 21
237.304989
 31
0.0
  0
LINE
  5
8A11
100
AcDbEntity
  8
1
100
AcDbLine
 10
607.805823
 20
236.254989
 30
0.0
 11
607.805823
 21
240.354989
 31
0.0
  0
LINE
  5
8A12
100
AcDbEntity
  8
1
100
AcDbLine
 10
607.75692
 20
240.413621
 30
0.0
 11
607.75692
 21
236.196358
 31
0.0
  0
LWPOLYLINE
  5
8A13
100
AcDbEntity
  8
1
100
AcDbPolyline
 90
        4
 70
   128
 43
0.0
 10
616.747644
 20
240.354752
 10
616.722739
 20
240.366268
 10
616.619352
 20
240.412331
 10
616.403463
 20
240.490723
  0
LWPOLYLINE
  5
8A14
100
AcDbEntity
  8
1
100
AcDbPolyline
 90
        4
 70
   128
 43
0.0
 10
616.403463
 20
240.490723
 10
616.344578
 20
240.500874
 10
616.23246
 20
240.510976
 10
616.067451
 20
240.520999
  0
LINE
  5
8A15
100
AcDbEntity
  8
1
100
AcDbLine
 10
616.205823
 20
240.35495
 30
0.0
 11
616.15692
 21
240.413635
 31
0.0
  0
LINE
  5
8A16
100
AcDbEntity
  8
1
100
AcDbLine
 10
616.747644
 20
240.354752
 30
0.0
 11
616.205823
 21
240.35495
 31
0.0
  0
LINE
  5
8A17
100
AcDbEntity
  8
1
100
AcDbLine
 10
616.067451
 20
240.520999
 30
0.0
 11
616.15692
 21
240.413635
 31
0.0
  0
LWPOLYLINE
  5
8A18
100
AcDbEntity
  8
1
100
AcDbPolyline
 90
        5
 70
   128
 43
0.0
 10
616.067451
 20
240.520999
 10
616.062652
 20
240.538247
 10
616.057857
 20
240.587583
 10
616.053249
 20
240.688559
 10
616.050283
 20
240.813978
  0
LWPOLYLINE
  5
8A19
100
AcDbEntity
  8
1
100
AcDbPolyline
 90
        6
 70
   128
 43
0.0
 10
617.298089
 20
240.90445
 10
617.26715
 20
240.722682
 10
617.17783
 20
240.561407
 10
617.040177
 20
240.438718
 10
616.869501
 20
240.368349
 10
616.747644
 20
240.354752
  0
LINE
  5
8A1A
100
AcDbEntity
  8
OSIE
100
AcDbLine
 10
620.197141
 20
239.304989
 30
0.0
 11
620.197141
 21
237.304989
 31
0.0
  0
LWPOLYLINE
  5
8A1B
100
AcDbEntity
  8
1
100
AcDbPolyline
 90
        4
 70
   128
 43
0.0
 10
617.298089
 20
235.505565
 10
617.264096
 20
235.489863
 10
617.118635
 20
235.42708
 10
616.953161
 20
235.369344
  0
LWPOLYLINE
  5
8A1C
100
AcDbEntity
  8
1
100
AcDbPolyline
 90
        3
 70
   128
 43
0.0
 10
616.203573
 20
236.119303
 10
616.394272
 20
236.187222
 10
616.547482
 20
236.255154
  0
LWPOLYLINE
  5
8A1D
100
AcDbEntity
  8
1
100
AcDbPolyline
 90
        4
 70
   128
 43
0.0
 10
616.078915
 20
236.102737
 10
616.136454
 20
236.108245
 10
616.178019
 20
236.113769
 10
616.203573
 20
236.119303
  0
LINE
  5
8A1E
100
AcDbEntity
  8
1
100
AcDbLine
 10
616.547482
 20
236.255154
 30
0.0
 11
616.205823
 21
236.255029
 31
0.0
  0
LINE
  5
8A1F
100
AcDbEntity
  8
1
100
AcDbLine
 10
616.205823
 20
236.255029
 30
0.0
 11
616.15692
 21
236.196344
 31
0.0
  0
LINE
  5
8A20
100
AcDbEntity
  8
1
100
AcDbLine
 10
616.15692
 20
236.196344
 30
0.0
 11
616.078915
 21
236.102737
 31
0.0
  0
LWPOLYLINE
  5
8A21
100
AcDbEntity
  8
1
100
AcDbPolyline
 90
        8
 70
   128
 43
0.0
 10
616.048811
 20
235.508344
 10
616.049778
 20
235.607594
 10
616.050934
 20
235.688302
 10
616.054224
 20
235.835857
 10
616.057746
 20
235.932702
 10
616.062975
 20
236.02005
 10
616.068247
 20
236.067348
 10
616.078915
 20
236.102737
  0
LWPOLYLINE
  5
8A22
100
AcDbEntity
  8
1
100
AcDbPolyline
 90
        3
 70
   128
 43
0.0
 10
616.122022
 20
235.320492
 10
616.120926
 20
235.32461
 10
616.048811
 20
235.508344
  0
TEXT
  5
8A23
100
AcDbEntity
  8
1
100
AcDbText
 10
614.334444
 20
235.424032
 30
0.0
 40
1.0
  1
1
 50
270.0
  7
ITALIC
100
AcDbText
  0
TEXT
  5
8A24
100
AcDbEntity
  8
1
100
AcDbText
 10
614.334444
 20
236.262581
 30
0.0
 40
1.0
  1
2
 50
270.0
  7
ITALIC
100
AcDbText
  0
LWPOLYLINE
  5
8A25
100
AcDbEntity
  8
1
100
AcDbPolyline
 90
        7
 70
   128
 43
0.0
 10
616.953161
 20
235.369344
 10
616.90712
 20
235.361072
 10
616.823781
 20
235.35283
 10
616.703317
 20
235.344634
 10
616.545974
 20
235.336501
 10
616.352076
 20
235.328448
 10
616.122022
 20
235.320492
  0
LWPOLYLINE
  5
8A26
100
AcDbEntity
  8
1
100
AcDbPolyline
 90
        9
 70
   128
 43
0.0
 10
616.953161
 20
235.369344
 10
616.938714
 20
235.515622
 10
616.896028
 20
235.656281
 10
616.826743
 20
235.785918
 10
616.73352
 20
235.899553
 10
616.619941
 20
235.992822
 10
616.490368
 20
236.062141
 10
616.349779
 20
236.104849
 10
616.203573
 20
236.119303
  0
LWPOLYLINE
  5
8A27
100
AcDbEntity
  8
1
100
AcDbPolyline
 90
        6
 70
   128
 43
0.0
 10
616.547482
 20
236.255154
 10
616.796206
 20
236.212887
 10
617.016922
 20
236.090595
 10
617.184472
 20
235.902212
 10
617.279981
 20
235.669293
 10
617.298089
 20
235.505565
  0
LINE
  5
8A28
100
AcDbEntity
  8
1
100
AcDbLine
 10
616.205823
 20
236.255029
 30
0.0
 11
616.205823
 21
240.35495
 31
0.0
  0
LINE
  5
8A29
100
AcDbEntity
  8
1
100
AcDbLine
 10
616.15692
 20
240.413635
 30
0.0
 11
616.15692
 21
236.196344
 31
0.0
  0
TEXT
  5
8A2A
100
AcDbEntity
  8
1
100
AcDbText
 10
622.279029
 20
235.57595
 30
0.0
 40
1.0
  1
2
 50
270.0
  7
ITALIC
100
AcDbText
  0
LINE
  5
8A2B
100
AcDbEntity
  8
1
100
AcDbLine
 10
624.814336
 20
233.641939
 30
0.0
 11
624.814336
 21
235.36804
 31
0.0
  0
LINE
  5
8A2C
100
AcDbEntity
  8
1
100
AcDbLine
 10
624.031219
 20
233.690737
 30
0.0
 11
624.031219
 21
235.319242
 31
0.0
  0
TEXT
  5
8A2D
100
AcDbEntity
  8
1
100
AcDbText
 10
622.254989
 20
233.344182
 30
0.0
 40
1.0
  1
2
 50
270.0
  7
ITALIC
100
AcDbText
  0
TEXT
  5
8A2E
100
AcDbEntity
  8
1
100
AcDbText
 10
622.254989
 20
233.922514
 30
0.0
 40
1.0
  1
1
 50
270.0
  7
ITALIC
100
AcDbText
  0
LWPOLYLINE
  5
8A2F
100
AcDbEntity
  8
1
100
AcDbPolyline
 90
        7
 70
   128
 43
0.0
 10
624.031219
 20
233.690737
 10
624.252021
 20
233.682778
 10
624.437132
 20
233.674728
 10
624.586182
 20
233.666602
 10
624.698871
 20
233.658418
 10
624.774973
 20
233.650192
 10
624.814336
 20
233.641939
  0
LINE
  5
8A30
100
AcDbEntity
  8
1
100
AcDbLine
 10
624.350595
 20
232.754989
 30
0.0
 11
624.064579
 21
232.89198
 31
0.0
  0
LWPOLYLINE
  5
8A31
100
AcDbEntity
  8
1
100
AcDbPolyline
 90
        4
 70
   128
 43
0.0
 10
624.064579
 20
232.89198
 10
624.047774
 20
232.896606
 10
624.019895
 20
232.901225
 10
623.980958
 20
232.905836
  0
LINE
  5
8A32
100
AcDbEntity
  8
1
100
AcDbLine
 10
625.002075
 20
233.0302
 30
0.0
 11
624.997141
 21
233.023616
 31
0.0
  0
LWPOLYLINE
  5
8A33
100
AcDbEntity
  8
1
100
AcDbPolyline
 90
        5
 70
   128
 43
0.0
 10
625.002075
 20
233.0302
 10
625.075647
 20
233.151329
 10
625.142209
 20
233.360168
 10
625.151995
 20
233.470076
 10
625.152051
 20
233.475073
  0
LWPOLYLINE
  5
8A34
100
AcDbEntity
  8
1
100
AcDbPolyline
 90
        3
 70
   128
 43
0.0
 10
624.577054
 20
232.789987
 10
624.57624
 20
232.78973
 10
624.350595
 20
232.754989
  0
LWPOLYLINE
  5
8A35
100
AcDbEntity
  8
1
100
AcDbPolyline
 90
        7
 70
   128
 43
0.0
 10
624.577054
 20
232.789987
 10
624.709468
 20
232.845941
 10
624.819947
 20
232.9179
 10
624.916638
 20
233.006975
 10
624.959019
 20
233.056365
 10
624.975255
 20
233.076212
 10
624.977038
 20
233.077534
  0
LWPOLYLINE
  5
8A36
100
AcDbEntity
  8
1
100
AcDbPolyline
 90
        3
 70
   128
 43
0.0
 10
624.997141
 20
233.023616
 10
624.984054
 20
233.058168
 10
624.977038
 20
233.077534
  0
LINE
  5
8A37
100
AcDbEntity
  8
1
100
AcDbLine
 10
624.213349
 20
232.820703
 30
0.0
 11
624.051902
 21
232.820703
 31
0.0
  0
LINE
  5
8A38
100
AcDbEntity
  8
1
100
AcDbLine
 10
624.213349
 20
232.820703
 30
0.0
 11
624.26811
 21
232.754989
 31
0.0
  0
LINE
  5
8A39
100
AcDbEntity
  8
1
100
AcDbLine
 10
624.26811
 20
232.754989
 30
0.0
 11
624.350595
 21
232.754989
 31
0.0
  0
LINE
  5
8A3A
100
AcDbEntity
  8
1
100
AcDbLine
 10
623.980958
 20
232.905836
 30
0.0
 11
624.051902
 21
232.820703
 31
0.0
  0
LWPOLYLINE
  5
8A3B
100
AcDbEntity
  8
1
100
AcDbPolyline
 90
        9
 70
   128
 43
0.0
 10
623.980958
 20
232.905836
 10
623.967872
 20
232.948848
 10
623.963018
 20
232.992419
 10
623.958195
 20
233.067229
 10
623.955345
 20
233.133918
 10
623.952557
 20
233.227669
 10
623.950944
 20
233.30237
 10
623.949435
 20
233.400234
 10
623.948567
 20
233.481772
  0
LWPOLYLINE
  5
8A3C
100
AcDbEntity
  8
1
100
AcDbPolyline
 90
        5
 70
   128
 43
0.0
 10
624.814336
 20
233.641939
 10
624.852132
 20
233.626241
 10
624.990803
 20
233.563457
 10
625.149429
 20
233.476615
 10
625.152051
 20
233.475073
  0
LWPOLYLINE
  5
8A3D
100
AcDbEntity
  8
1
100
AcDbPolyline
 90
        9
 70
   128
 43
0.0
 10
624.064579
 20
232.89198
 10
624.210825
 20
232.906424
 10
624.351452
 20
232.949125
 10
624.481059
 20
233.01844
 10
624.594666
 20
233.111709
 10
624.68791
 20
233.225346
 10
624.757206
 20
233.354988
 10
624.799895
 20
233.495654
 10
624.814336
 20
233.641939
  0
LWPOLYLINE
  5
8A3E
100
AcDbEntity
  8
1
100
AcDbPolyline
 90
        3
 70
   128
 43
0.0
 10
623.948567
 20
233.481772
 10
624.030161
 20
233.686618
 10
624.031219
 20
233.690737
  0
TEXT
  5
8A3F
100
AcDbEntity
  8
1
100
AcDbText
 10
622.279029
 20
236.366074
 30
0.0
 40
1.0
  1
2
 50
270.0
  7
ITALIC
100
AcDbText
  0
LINE
  5
8A40
100
AcDbEntity
  8
1
100
AcDbLine
 10
624.550591
 20
240.354989
 30
0.0
 11
624.264514
 21
240.492011
 31
0.0
  0
LWPOLYLINE
  5
8A41
100
AcDbEntity
  8
1
100
AcDbPolyline
 90
        4
 70
   128
 43
0.0
 10
624.264514
 20
240.492011
 10
624.215446
 20
240.501888
 10
624.116486
 20
240.511722
 10
623.967915
 20
240.521489
  0
LINE
  5
8A42
100
AcDbEntity
  8
1
100
AcDbLine
 10
625.002075
 20
240.502006
 30
0.0
 11
624.997141
 21
240.496773
 31
0.0
  0
LWPOLYLINE
  5
8A43
100
AcDbEntity
  8
1
100
AcDbPolyline
 90
        5
 70
   128
 43
0.0
 10
625.002075
 20
240.502006
 10
625.068066
 20
240.588172
 10
625.131225
 20
240.730664
 10
625.151997
 20
240.870946
 10
625.152051
 20
240.875099
  0
LINE
  5
8A44
100
AcDbEntity
  8
1
100
AcDbLine
 10
624.577054
 20
240.355626
 30
0.0
 11
624.550591
 21
240.354989
 31
0.0
  0
LWPOLYLINE
  5
8A45
100
AcDbEntity
  8
1
100
AcDbPolyline
 90
        7
 70
   128
 43
0.0
 10
624.577054
 20
240.355626
 10
624.694681
 20
240.373921
 10
624.797386
 20
240.412154
 10
624.887251
 20
240.46641
 10
624.957283
 20
240.526303
 10
624.975765
 20
240.544129
 10
624.977038
 20
240.544709
  0
LWPOLYLINE
  5
8A46
100
AcDbEntity
  8
1
100
AcDbPolyline
 90
        3
 70
   128
 43
0.0
 10
624.997141
 20
240.496773
 10
624.987543
 20
240.519148
 10
624.977038
 20
240.544709
  0
LINE
  5
8A47
100
AcDbEntity
  8
1
100
AcDbLine
 10
624.213349
 20
240.420703
 30
0.0
 11
624.051902
 21
240.420703
 31
0.0
  0
LINE
  5
8A48
100
AcDbEntity
  8
1
100
AcDbLine
 10
624.213349
 20
240.420703
 30
0.0
 11
624.26811
 21
240.354989
 31
0.0
  0
LINE
  5
8A49
100
AcDbEntity
  8
1
100
AcDbLine
 10
624.26811
 20
240.354989
 30
0.0
 11
624.550591
 21
240.354989
 31
0.0
  0
LINE
  5
8A4A
100
AcDbEntity
  8
1
100
AcDbLine
 10
623.967915
 20
240.521489
 30
0.0
 11
624.051902
 21
240.420703
 31
0.0
  0
LWPOLYLINE
  5
8A4B
100
AcDbEntity
  8
1
100
AcDbPolyline
 90
        6
 70
   128
 43
0.0
 10
623.967915
 20
240.521489
 10
623.963116
 20
240.537237
 10
623.958321
 20
240.581072
 10
623.954995
 20
240.638126
 10
623.951707
 20
240.7326
 10
623.950199
 20
240.799576
  0
LWPOLYLINE
  5
8A4C
100
AcDbEntity
  8
1
100
AcDbPolyline
 90
        5
 70
   128
 43
0.0
 10
625.152051
 20
235.534906
 10
625.149429
 20
235.533364
 10
625.122509
 20
235.517661
 10
625.007414
 20
235.454861
 10
624.814336
 20
235.36804
  0
LINE
  5
8A4D
100
AcDbEntity
  8
1
100
AcDbLine
 10
624.064579
 20
236.117999
 30
0.0
 11
624.350595
 21
236.254989
 31
0.0
  0
LWPOLYLINE
  5
8A4E
100
AcDbEntity
  8
1
100
AcDbPolyline
 90
        7
 70
   128
 43
0.0
 10
624.814336
 20
235.36804
 10
624.774973
 20
235.359787
 10
624.698871
 20
235.351561
 10
624.586182
 20
235.343376
 10
624.437132
 20
235.335251
 10
624.252021
 20
235.327201
 10
624.031219
 20
235.319242
  0
LWPOLYLINE
  5
8A4F
100
AcDbEntity
  8
1
100
AcDbPolyline
 90
        9
 70
   128
 43
0.0
 10
624.814336
 20
235.36804
 10
624.799895
 20
235.514325
 10
624.757206
 20
235.654991
 10
624.68791
 20
235.784632
 10
624.594666
 20
235.89827
 10
624.481059
 20
235.991538
 10
624.351452
 20
236.060854
 10
624.210825
 20
236.103554
 10
624.064579
 20
236.117999
  0
LWPOLYLINE
  5
8A50
100
AcDbEntity
  8
1
100
AcDbPolyline
 90
        4
 70
   128
 43
0.0
 10
623.980958
 20
236.104142
 10
624.019895
 20
236.108753
 10
624.047774
 20
236.113373
 10
624.064579
 20
236.117999
  0
LINE
  5
8A51
100
AcDbEntity
  8
1
100
AcDbLine
 10
624.350595
 20
236.254989
 30
0.0
 11
624.577054
 21
236.219992
 31
0.0
  0
LWPOLYLINE
  5
8A52
100
AcDbEntity
  8
1
100
AcDbPolyline
 90
        5
 70
   128
 43
0.0
 10
625.152051
 20
235.534906
 10
625.151995
 20
235.539903
 10
625.142209
 20
235.649811
 10
625.075647
 20
235.85865
 10
625.002075
 20
235.979779
  0
LINE
  5
8A53
100
AcDbEntity
  8
1
100
AcDbLine
 10
624.997141
 20
235.986363
 30
0.0
 11
625.002075
 21
235.979779
 31
0.0
  0
LWPOLYLINE
  5
8A54
100
AcDbEntity
  8
1
100
AcDbPolyline
 90
        3
 70
   128
 43
0.0
 10
624.977038
 20
235.932445
 10
624.986664
 20
235.958853
 10
624.997141
 20
235.986363
  0
LWPOLYLINE
  5
8A55
100
AcDbEntity
  8
1
100
AcDbPolyline
 90
        6
 70
   128
 43
0.0
 10
624.977038
 20
235.932445
 10
624.96799
 20
235.942447
 10
624.934966
 20
235.982489
 10
624.849145
 20
236.068196
 10
624.723061
 20
236.156565
 10
624.577054
 20
236.219992
  0
LINE
  5
8A56
100
AcDbEntity
  8
1
100
AcDbLine
 10
624.350595
 20
236.254989
 30
0.0
 11
624.26811
 21
236.254989
 31
0.0
  0
LINE
  5
8A57
100
AcDbEntity
  8
1
100
AcDbLine
 10
624.26811
 20
236.254989
 30
0.0
 11
624.213349
 21
236.189275
 31
0.0
  0
LINE
  5
8A58
100
AcDbEntity
  8
1
100
AcDbLine
 10
624.051902
 20
236.189275
 30
0.0
 11
624.213349
 21
236.189275
 31
0.0
  0
LWPOLYLINE
  5
8A59
100
AcDbEntity
  8
1
100
AcDbPolyline
 90
        8
 70
   128
 43
0.0
 10
623.948567
 20
235.528207
 10
623.949882
 20
235.642723
 10
623.951421
 20
235.731685
 10
623.95586
 20
235.889517
 10
623.960536
 20
235.983767
 10
623.965612
 20
236.043908
 10
623.970708
 20
236.077392
 10
623.980958
 20
236.104142
  0
LINE
  5
8A5A
100
AcDbEntity
  8
1
100
AcDbLine
 10
624.051902
 20
236.189275
 30
0.0
 11
623.980958
 21
236.104142
 31
0.0
  0
LWPOLYLINE
  5
8A5B
100
AcDbEntity
  8
1
100
AcDbPolyline
 90
        3
 70
   128
 43
0.0
 10
624.031219
 20
235.319242
 10
624.030161
 20
235.323361
 10
623.948567
 20
235.528207
  0
LINE
  5
8A5C
100
AcDbEntity
  8
1
100
AcDbLine
 10
625.002075
 20
235.979779
 30
0.0
 11
625.002075
 21
240.502006
 31
0.0
  0
LINE
  5
8A5D
100
AcDbEntity
  8
1
100
AcDbLine
 10
624.577054
 20
236.219992
 30
0.0
 11
624.577054
 21
240.355626
 31
0.0
  0
LINE
  5
8A5E
100
AcDbEntity
  8
1
100
AcDbLine
 10
624.997141
 20
235.986363
 30
0.0
 11
624.997141
 21
240.496773
 31
0.0
  0
LINE
  5
8A5F
100
AcDbEntity
  8
1
100
AcDbLine
 10
624.26811
 20
236.254989
 30
0.0
 11
624.26811
 21
240.354989
 31
0.0
  0
LINE
  5
8A60
100
AcDbEntity
  8
1
100
AcDbLine
 10
624.977038
 20
240.544709
 30
0.0
 11
624.977038
 21
235.932445
 31
0.0
  0
LINE
  5
8A61
100
AcDbEntity
  8
1
100
AcDbLine
 10
625.152051
 20
240.875099
 30
0.0
 11
625.152051
 21
235.534906
 31
0.0
  0
LINE
  5
8A62
100
AcDbEntity
  8
1
100
AcDbLine
 10
624.057792
 20
240.420703
 30
0.0
 11
624.057792
 21
236.189275
 31
0.0
  0
LINE
  5
8A63
100
AcDbEntity
  8
1
100
AcDbLine
 10
621.198816
 20
241.854989
 30
0.0
 11
617.298089
 21
241.854989
 31
0.0
  0
LINE
  5
8A64
100
AcDbEntity
  8
1
100
AcDbLine
 10
616.906731
 20
242.254989
 30
0.0
 11
621.184856
 21
242.254989
 31
0.0
  0
LINE
  5
8A65
100
AcDbEntity
  8
1
100
AcDbLine
 10
613.294735
 20
241.854989
 30
0.0
 11
608.897141
 21
241.854989
 31
0.0
  0
LINE
  5
8A66
100
AcDbEntity
  8
1
100
AcDbLine
 10
608.497141
 20
242.254989
 30
0.0
 11
613.280776
 21
242.254989
 31
0.0
  0
LINE
  5
8A67
100
AcDbEntity
  8
1
100
AcDbLine
 10
608.897141
 20
241.854989
 30
0.0
 11
608.557229
 21
241.854989
 31
0.0
  0
LINE
  5
8A68
100
AcDbEntity
  8
1
100
AcDbLine
 10
608.557229
 20
241.854989
 30
0.0
 11
608.557229
 21
241.354989
 31
0.0
  0
LINE
  5
8A69
100
AcDbEntity
  8
1
100
AcDbLine
 10
608.544716
 20
241.040812
 30
0.0
 11
608.544716
 21
241.354989
 31
0.0
  0
LWPOLYLINE
  5
8A6A
100
AcDbEntity
  8
1
100
AcDbPolyline
 90
        7
 70
   128
 43
0.0
 10
608.497141
 20
242.254989
 10
608.500019
 20
242.254979
 10
608.629108
 20
242.232593
 10
608.764166
 20
242.15281
 10
608.844389
 20
242.05353
 10
608.882905
 20
241.960753
 10
608.897141
 20
241.854989
  0
LINE
  5
8A6B
100
AcDbEntity
  8
1
100
AcDbLine
 10
606.64968
 20
241.854989
 30
0.0
 11
605.81278
 21
241.854989
 31
0.0
  0
LINE
  5
8A6C
100
AcDbEntity
  8
1
100
AcDbLine
 10
605.79882
 20
242.254989
 30
0.0
 11
608.157455
 21
242.254989
 31
0.0
  0
LWPOLYLINE
  5
8A6D
100
AcDbEntity
  8
1
100
AcDbPolyline
 90
        9
 70
   128
 43
0.0
 10
608.157455
 20
242.254989
 10
608.160179
 20
242.247304
 10
608.162797
 20
242.224541
 10
608.165211
 20
242.187577
 10
608.167326
 20
242.137832
 10
608.169062
 20
242.077217
 10
608.170352
 20
242.008063
 10
608.171147
 20
241.933026
 10
608.171415
 20
241.854989
  0
LINE
  5
8A6E
100
AcDbEntity
  8
1
100
AcDbLine
 10
608.171415
 20
241.354989
 30
0.0
 11
608.171415
 21
241.854989
 31
0.0
  0
LINE
  5
8A6F
100
AcDbEntity
  8
1
100
AcDbLine
 10
608.171415
 20
241.854989
 30
0.0
 11
607.74968
 21
241.854989
 31
0.0
  0
LINE
  5
8A70
100
AcDbEntity
  8
1
100
AcDbLine
 10
607.74968
 20
241.568257
 30
0.0
 11
608.105342
 21
241.354989
 31
0.0
  0
LINE
  5
8A71
100
AcDbEntity
  8
1
100
AcDbLine
 10
607.813711
 20
241.354989
 30
0.0
 11
607.74968
 21
241.393385
 31
0.0
  0
LINE
  5
8A72
100
AcDbEntity
  8
1
100
AcDbLine
 10
607.648706
 20
241.089902
 30
0.0
 11
607.72502
 21
241.089902
 31
0.0
  0
LINE
  5
8A73
100
AcDbEntity
  8
1
100
AcDbLine
 10
607.72502
 20
241.089902
 30
0.0
 11
607.72502
 21
241.354989
 31
0.0
  0
LINE
  5
8A74
100
AcDbEntity
  8
1
100
AcDbLine
 10
607.74968
 20
241.594083
 30
0.0
 11
608.148899
 21
241.354989
 31
0.0
  0
LINE
  5
8A75
100
AcDbEntity
  8
1
100
AcDbLine
 10
606.64968
 20
242.154989
 30
0.0
 11
607.74968
 21
242.154989
 31
0.0
  0
LINE
  5
8A76
100
AcDbEntity
  8
1
100
AcDbLine
 10
606.64968
 20
242.154989
 30
0.0
 11
606.64968
 21
241.354989
 31
0.0
  0
LINE
  5
8A77
100
AcDbEntity
  8
1
100
AcDbLine
 10
607.74968
 20
241.354989
 30
0.0
 11
607.74968
 21
242.154989
 31
0.0
  0
LWPOLYLINE
  5
8A78
100
AcDbEntity
  8
1
100
AcDbPolyline
 90
        9
 70
   128
 43
0.0
 10
605.79882
 20
242.254989
 10
605.801544
 20
242.247304
 10
605.804162
 20
242.224541
 10
605.806576
 20
242.187577
 10
605.808691
 20
242.137832
 10
605.810427
 20
242.077217
 10
605.811717
 20
242.008063
 10
605.812512
 20
241.933026
 10
605.81278
 20
241.854989
  0
LINE
  5
8A79
100
AcDbEntity
  8
1
100
AcDbLine
 10
605.81278
 20
241.854989
 30
0.0
 11
605.81278
 21
241.354989
 31
0.0
  0
LWPOLYLINE
  5
8A7A
100
AcDbEntity
  8
1
100
AcDbPolyline
 90
        9
 70
   128
 43
0.0
 10
608.157455
 20
242.254989
 10
608.235447
 20
242.247304
 10
608.310442
 20
242.224541
 10
608.379558
 20
242.187577
 10
608.440138
 20
242.137832
 10
608.489855
 20
242.077217
 10
608.526798
 20
242.008063
 10
608.549548
 20
241.933026
 10
608.557229
 20
241.854989
  0
LINE
  5
8A7B
100
AcDbEntity
  8
1
100
AcDbLine
 10
608.171415
 20
241.854989
 30
0.0
 11
608.557229
 21
241.854989
 31
0.0
  0
LWPOLYLINE
  5
8A7C
100
AcDbEntity
  8
1
100
AcDbPolyline
 90
        7
 70
   128
 43
0.0
 10
607.72502
 20
241.089902
 10
607.951478
 20
241.081934
 10
608.142434
 20
241.073859
 10
608.297506
 20
241.065693
 10
608.41639
 20
241.057452
 10
608.498847
 20
241.049153
 10
608.544716
 20
241.040812
  0
LINE
  5
8A7D
100
AcDbEntity
  8
1
100
AcDbLine
 10
608.157455
 20
242.254989
 30
0.0
 11
608.497141
 21
242.254989
 31
0.0
  0
LINE
  5
8A7E
100
AcDbEntity
  8
1
100
AcDbLine
 10
608.544716
 20
241.354989
 30
0.0
 11
607.72502
 21
241.354989
 31
0.0
  0
LWPOLYLINE
  5
8A7F
100
AcDbEntity
  8
1
100
AcDbPolyline
 90
        9
 70
   128
 43
0.0
 10
605.027179
 20
242.254989
 10
605.105172
 20
242.247304
 10
605.180168
 20
242.224541
 10
605.249285
 20
242.187577
 10
605.309866
 20
242.137832
 10
605.359584
 20
242.077217
 10
605.396528
 20
242.008063
 10
605.419278
 20
241.933026
 10
605.426959
 20
241.854989
  0
LINE
  5
8A80
100
AcDbEntity
  8
1
100
AcDbLine
 10
605.426959
 20
241.354989
 30
0.0
 11
605.426959
 21
241.854989
 31
0.0
  0
LINE
  5
8A81
100
AcDbEntity
  8
1
100
AcDbLine
 10
605.426959
 20
241.854989
 30
0.0
 11
605.308747
 21
241.854989
 31
0.0
  0
LINE
  5
8A82
100
AcDbEntity
  8
1
100
AcDbLine
 10
605.308747
 20
241.354989
 30
0.0
 11
605.308747
 21
241.854989
 31
0.0
  0
LINE
  5
8A83
100
AcDbEntity
  8
1
100
AcDbLine
 10
605.308747
 20
241.854989
 30
0.0
 11
605.281752
 21
241.854989
 31
0.0
  0
LWPOLYLINE
  5
8A84
100
AcDbEntity
  8
1
100
AcDbPolyline
 90
        9
 70
   128
 43
0.0
 10
604.881961
 20
242.254989
 10
604.959956
 20
242.247304
 10
605.034954
 20
242.224541
 10
605.104073
 20
242.187577
 10
605.164656
 20
242.137832
 10
605.214375
 20
242.077217
 10
605.25132
 20
242.008063
 10
605.27407
 20
241.933026
 10
605.281752
 20
241.854989
  0
LINE
  5
8A85
100
AcDbEntity
  8
1
100
AcDbLine
 10
605.281752
 20
241.854989
 30
0.0
 11
605.281752
 21
241.354989
 31
0.0
  0
LINE
  5
8A86
100
AcDbEntity
  8
1
100
AcDbLine
 10
604.895921
 20
241.854989
 30
0.0
 11
605.281752
 21
241.854989
 31
0.0
  0
LWPOLYLINE
  5
8A87
100
AcDbEntity
  8
1
100
AcDbPolyline
 90
        9
 70
   128
 43
0.0
 10
604.881961
 20
242.254989
 10
604.884684
 20
242.247304
 10
604.887303
 20
242.224541
 10
604.889716
 20
242.187577
 10
604.891832
 20
242.137832
 10
604.893568
 20
242.077217
 10
604.894858
 20
242.008063
 10
604.895652
 20
241.933026
 10
604.895921
 20
241.854989
  0
LINE
  5
8A88
100
AcDbEntity
  8
1
100
AcDbLine
 10
604.895921
 20
241.354989
 30
0.0
 11
604.895921
 21
241.854989
 31
0.0
  0
LINE
  5
8A89
100
AcDbEntity
  8
1
100
AcDbLine
 10
604.908956
 20
242.254989
 30
0.0
 11
605.027179
 21
242.254989
 31
0.0
  0
LINE
  5
8A8A
100
AcDbEntity
  8
1
100
AcDbLine
 10
604.881961
 20
242.254989
 30
0.0
 11
604.908956
 21
242.254989
 31
0.0
  0
LWPOLYLINE
  5
8A8B
100
AcDbEntity
  8
1
100
AcDbPolyline
 90
        9
 70
   128
 43
0.0
 10
604.908956
 20
242.254989
 10
604.986951
 20
242.247304
 10
605.061949
 20
242.224541
 10
605.131068
 20
242.187577
 10
605.191651
 20
242.137832
 10
605.24137
 20
242.077217
 10
605.278315
 20
242.008063
 10
605.301065
 20
241.933026
 10
605.308747
 20
241.854989
  0
LINE
  5
8A8C
100
AcDbEntity
  8
1
100
AcDbLine
 10
604.895921
 20
241.354989
 30
0.0
 11
607.218875
 21
241.354989
 31
0.0
  0
LINE
  5
8A8D
100
AcDbEntity
  8
1
100
AcDbLine
 10
605.426959
 20
241.854989
 30
0.0
 11
605.81278
 21
241.854989
 31
0.0
  0
LINE
  5
8A8E
100
AcDbEntity
  8
1
100
AcDbLine
 10
605.79882
 20
242.254989
 30
0.0
 11
605.027179
 21
242.254989
 31
0.0
  0
LINE
  5
8A8F
100
AcDbEntity
  8
1
100
AcDbLine
 10
617.298089
 20
241.854989
 30
0.0
 11
616.96549
 21
241.854989
 31
0.0
  0
LINE
  5
8A90
100
AcDbEntity
  8
1
100
AcDbLine
 10
616.96549
 20
241.854989
 30
0.0
 11
616.96549
 21
241.354989
 31
0.0
  0
LINE
  5
8A91
100
AcDbEntity
  8
1
100
AcDbLine
 10
616.953161
 20
241.040693
 30
0.0
 11
616.953161
 21
241.354989
 31
0.0
  0
LINE
  5
8A92
100
AcDbEntity
  8
1
100
AcDbLine
 10
614.207192
 20
242.254989
 30
0.0
 11
616.565706
 21
242.254989
 31
0.0
  0
LINE
  5
8A93
100
AcDbEntity
  8
1
100
AcDbLine
 10
615.047444
 20
242.154989
 30
0.0
 11
616.147444
 21
242.154989
 31
0.0
  0
LWPOLYLINE
  5
8A94
100
AcDbEntity
  8
1
100
AcDbPolyline
 90
        9
 70
   128
 43
0.0
 10
616.579666
 20
241.854989
 10
616.579397
 20
241.933026
 10
616.578603
 20
242.008063
 10
616.577313
 20
242.077217
 10
616.575577
 20
242.137832
 10
616.573461
 20
242.187577
 10
616.571048
 20
242.224541
 10
616.568429
 20
242.247304
 10
616.565706
 20
242.254989
  0
LINE
  5
8A95
100
AcDbEntity
  8
1
100
AcDbLine
 10
616.579666
 20
241.354989
 30
0.0
 11
616.579666
 21
241.854989
 31
0.0
  0
LINE
  5
8A96
100
AcDbEntity
  8
1
100
AcDbLine
 10
616.579666
 20
241.854989
 30
0.0
 11
616.147444
 21
241.854989
 31
0.0
  0
LINE
  5
8A97
100
AcDbEntity
  8
1
100
AcDbLine
 10
616.147444
 20
241.568257
 30
0.0
 11
616.503106
 21
241.354989
 31
0.0
  0
LINE
  5
8A98
100
AcDbEntity
  8
1
100
AcDbLine
 10
616.211475
 20
241.354989
 30
0.0
 11
616.147444
 21
241.393385
 31
0.0
  0
LINE
  5
8A99
100
AcDbEntity
  8
1
100
AcDbLine
 10
616.048811
 20
241.090106
 30
0.0
 11
616.122022
 21
241.090106
 31
0.0
  0
LINE
  5
8A9A
100
AcDbEntity
  8
1
100
AcDbLine
 10
616.122022
 20
241.090106
 30
0.0
 11
616.122022
 21
241.354989
 31
0.0
  0
LINE
  5
8A9B
100
AcDbEntity
  8
1
100
AcDbLine
 10
616.565706
 20
242.254989
 30
0.0
 11
616.906731
 21
242.254989
 31
0.0
  0
LINE
  5
8A9C
100
AcDbEntity
  8
1
100
AcDbLine
 10
616.147444
 20
241.594075
 30
0.0
 11
616.54665
 21
241.354989
 31
0.0
  0
LINE
  5
8A9D
100
AcDbEntity
  8
1
100
AcDbLine
 10
616.147444
 20
241.354989
 30
0.0
 11
616.147444
 21
242.154989
 31
0.0
  0
LINE
  5
8A9E
100
AcDbEntity
  8
1
100
AcDbLine
 10
615.047444
 20
241.854989
 30
0.0
 11
614.221152
 21
241.854989
 31
0.0
  0
LWPOLYLINE
  5
8A9F
100
AcDbEntity
  8
1
100
AcDbPolyline
 90
        9
 70
   128
 43
0.0
 10
614.221152
 20
241.854989
 10
614.220884
 20
241.933026
 10
614.220089
 20
242.008063
 10
614.218799
 20
242.077217
 10
614.217063
 20
242.137832
 10
614.214948
 20
242.187577
 10
614.212534
 20
242.224541
 10
614.209916
 20
242.247304
 10
614.207192
 20
242.254989
  0
LINE
  5
8AA0
100
AcDbEntity
  8
1
100
AcDbLine
 10
614.221152
 20
241.854989
 30
0.0
 11
614.221152
 21
241.354989
 31
0.0
  0
LINE
  5
8AA1
100
AcDbEntity
  8
1
100
AcDbLine
 10
615.047444
 20
242.154989
 30
0.0
 11
615.047444
 21
241.354989
 31
0.0
  0
LWPOLYLINE
  5
8AA2
100
AcDbEntity
  8
1
100
AcDbPolyline
 90
        9
 70
   128
 43
0.0
 10
613.835338
 20
241.854989
 10
613.827656
 20
241.933026
 10
613.804907
 20
242.008063
 10
613.767964
 20
242.077217
 10
613.718247
 20
242.137832
 10
613.657667
 20
242.187577
 10
613.588551
 20
242.224541
 10
613.513556
 20
242.247304
 10
613.435564
 20
242.254989
  0
LINE
  5
8AA3
100
AcDbEntity
  8
1
100
AcDbLine
 10
613.835338
 20
241.354989
 30
0.0
 11
613.835338
 21
241.854989
 31
0.0
  0
LINE
  5
8AA4
100
AcDbEntity
  8
1
100
AcDbLine
 10
613.835338
 20
241.854989
 30
0.0
 11
613.710222
 21
241.854989
 31
0.0
  0
LINE
  5
8AA5
100
AcDbEntity
  8
1
100
AcDbLine
 10
613.710222
 20
241.854989
 30
0.0
 11
613.680529
 21
241.854989
 31
0.0
  0
LINE
  5
8AA6
100
AcDbEntity
  8
1
100
AcDbLine
 10
613.710222
 20
241.354989
 30
0.0
 11
613.710222
 21
241.854989
 31
0.0
  0
LWPOLYLINE
  5
8AA7
100
AcDbEntity
  8
1
100
AcDbPolyline
 90
        9
 70
   128
 43
0.0
 10
613.280776
 20
242.254989
 10
613.358764
 20
242.247304
 10
613.433755
 20
242.224541
 10
613.502867
 20
242.187577
 10
613.563444
 20
242.137832
 10
613.613159
 20
242.077217
 10
613.6501
 20
242.008063
 10
613.672848
 20
241.933026
 10
613.680529
 20
241.854989
  0
LINE
  5
8AA8
100
AcDbEntity
  8
1
100
AcDbLine
 10
613.680529
 20
241.854989
 30
0.0
 11
613.680529
 21
241.354989
 31
0.0
  0
LINE
  5
8AA9
100
AcDbEntity
  8
1
100
AcDbLine
 10
613.294735
 20
241.854989
 30
0.0
 11
613.680529
 21
241.854989
 31
0.0
  0
LWPOLYLINE
  5
8AAA
100
AcDbEntity
  8
1
100
AcDbPolyline
 90
        9
 70
   128
 43
0.0
 10
613.280776
 20
242.254989
 10
613.283499
 20
242.247304
 10
613.286118
 20
242.224541
 10
613.288531
 20
242.187577
 10
613.290647
 20
242.137832
 10
613.292383
 20
242.077217
 10
613.293673
 20
242.008063
 10
613.294467
 20
241.933026
 10
613.294735
 20
241.854989
  0
LINE
  5
8AAB
100
AcDbEntity
  8
1
100
AcDbLine
 10
613.294735
 20
241.354989
 30
0.0
 11
613.294735
 21
241.854989
 31
0.0
  0
LINE
  5
8AAC
100
AcDbEntity
  8
1
100
AcDbLine
 10
613.310469
 20
242.254989
 30
0.0
 11
613.435564
 21
242.254989
 31
0.0
  0
LINE
  5
8AAD
100
AcDbEntity
  8
1
100
AcDbLine
 10
613.280776
 20
242.254989
 30
0.0
 11
613.310469
 21
242.254989
 31
0.0
  0
LWPOLYLINE
  5
8AAE
100
AcDbEntity
  8
1
100
AcDbPolyline
 90
        9
 70
   128
 43
0.0
 10
613.310469
 20
242.254989
 10
613.388457
 20
242.247304
 10
613.463448
 20
242.224541
 10
613.53256
 20
242.187577
 10
613.593137
 20
242.137832
 10
613.642852
 20
242.077217
 10
613.679793
 20
242.008063
 10
613.702541
 20
241.933026
 10
613.710222
 20
241.854989
  0
LINE
  5
8AAF
100
AcDbEntity
  8
1
100
AcDbLine
 10
613.835338
 20
241.854989
 30
0.0
 11
614.221152
 21
241.854989
 31
0.0
  0
LINE
  5
8AB0
100
AcDbEntity
  8
1
100
AcDbLine
 10
614.207192
 20
242.254989
 30
0.0
 11
613.435564
 21
242.254989
 31
0.0
  0
LINE
  5
8AB1
100
AcDbEntity
  8
1
100
AcDbLine
 10
613.294735
 20
241.354989
 30
0.0
 11
615.616639
 21
241.354989
 31
0.0
  0
LWPOLYLINE
  5
8AB2
100
AcDbEntity
  8
1
100
AcDbPolyline
 90
        9
 70
   128
 43
0.0
 10
616.96549
 20
241.854989
 10
616.957809
 20
241.933026
 10
616.935059
 20
242.008063
 10
616.898115
 20
242.077217
 10
616.848396
 20
242.137832
 10
616.787814
 20
242.187577
 10
616.718697
 20
242.224541
 10
616.6437
 20
242.247304
 10
616.565706
 20
242.254989
  0
LINE
  5
8AB3
100
AcDbEntity
  8
1
100
AcDbLine
 10
616.579666
 20
241.854989
 30
0.0
 11
616.96549
 21
241.854989
 31
0.0
  0
LWPOLYLINE
  5
8AB4
100
AcDbEntity
  8
1
100
AcDbPolyline
 90
        7
 70
   128
 43
0.0
 10
616.122022
 20
241.090106
 10
616.352076
 20
241.082058
 10
616.545974
 20
241.073913
 10
616.703317
 20
241.065687
 10
616.823781
 20
241.057397
 10
616.90712
 20
241.04906
 10
616.953161
 20
241.040693
  0
LWPOLYLINE
  5
8AB5
100
AcDbEntity
  8
1
100
AcDbPolyline
 90
        7
 70
   128
 43
0.0
 10
617.298089
 20
241.854989
 10
617.283973
 20
241.961453
 10
617.245704
 20
242.054907
 10
617.166495
 20
242.154172
 10
617.034403
 20
242.233106
 10
616.909579
 20
242.254979
 10
616.906731
 20
242.254989
  0
LINE
  5
8AB6
100
AcDbEntity
  8
1
100
AcDbLine
 10
616.122022
 20
241.354989
 30
0.0
 11
616.953161
 21
241.354989
 31
0.0
  0
LINE
  5
8AB7
100
AcDbEntity
  8
1
100
AcDbLine
 10
625.197141
 20
241.854989
 30
0.0
 11
624.823907
 21
241.854989
 31
0.0
  0
LINE
  5
8AB8
100
AcDbEntity
  8
1
100
AcDbLine
 10
624.823907
 20
241.854989
 30
0.0
 11
624.823907
 21
241.354989
 31
0.0
  0
LINE
  5
8AB9
100
AcDbEntity
  8
1
100
AcDbLine
 10
624.437996
 20
241.854989
 30
0.0
 11
624.823907
 21
241.854989
 31
0.0
  0
LWPOLYLINE
  5
8ABA
100
AcDbEntity
  8
1
100
AcDbPolyline
 90
        9
 70
   128
 43
0.0
 10
624.823907
 20
241.854989
 10
624.816224
 20
241.933026
 10
624.793469
 20
242.008063
 10
624.756517
 20
242.077217
 10
624.706788
 20
242.137832
 10
624.646192
 20
242.187577
 10
624.57706
 20
242.224541
 10
624.502047
 20
242.247304
 10
624.424036
 20
242.254989
  0
LWPOLYLINE
  5
8ABB
100
AcDbEntity
  8
1
100
AcDbPolyline
 90
        9
 70
   128
 43
0.0
 10
624.437996
 20
241.854989
 10
624.437727
 20
241.933026
 10
624.436933
 20
242.008063
 10
624.435643
 20
242.077217
 10
624.433907
 20
242.137832
 10
624.431791
 20
242.187577
 10
624.429378
 20
242.224541
 10
624.426759
 20
242.247304
 10
624.424036
 20
242.254989
  0
LINE
  5
8ABC
100
AcDbEntity
  8
1
100
AcDbLine
 10
624.437996
 20
241.364638
 30
0.0
 11
624.437996
 21
241.854989
 31
0.0
  0
LINE
  5
8ABD
100
AcDbEntity
  8
1
100
AcDbLine
 10
624.437996
 20
241.854989
 30
0.0
 11
624.054845
 21
241.854989
 31
0.0
  0
LINE
  5
8ABE
100
AcDbEntity
  8
1
100
AcDbLine
 10
624.054845
 20
241.568257
 30
0.0
 11
624.410507
 21
241.354989
 31
0.0
  0
LINE
  5
8ABF
100
AcDbEntity
  8
1
100
AcDbLine
 10
624.118876
 20
241.354989
 30
0.0
 11
624.054845
 21
241.393385
 31
0.0
  0
LINE
  5
8AC0
100
AcDbEntity
  8
1
100
AcDbLine
 10
624.814336
 20
241.041981
 30
0.0
 11
624.814336
 21
241.354989
 31
0.0
  0
LWPOLYLINE
  5
8AC1
100
AcDbEntity
  8
1
100
AcDbPolyline
 90
        7
 70
   128
 43
0.0
 10
624.031219
 20
241.091333
 10
624.252021
 20
241.083284
 10
624.437132
 20
241.075142
 10
624.586182
 20
241.066925
 10
624.698871
 20
241.058648
 10
624.774973
 20
241.050328
 10
624.814336
 20
241.041981
  0
LINE
  5
8AC2
100
AcDbEntity
  8
1
100
AcDbLine
 10
623.948567
 20
241.091333
 30
0.0
 11
624.031219
 21
241.091333
 31
0.0
  0
LINE
  5
8AC3
100
AcDbEntity
  8
1
100
AcDbLine
 10
624.031219
 20
241.091333
 30
0.0
 11
624.031219
 21
241.354989
 31
0.0
  0
LINE
  5
8AC4
100
AcDbEntity
  8
1
100
AcDbLine
 10
624.424036
 20
242.254989
 30
0.0
 11
624.797079
 21
242.254989
 31
0.0
  0
LWPOLYLINE
  5
8AC5
100
AcDbEntity
  8
1
100
AcDbPolyline
 90
        6
 70
   128
 43
0.0
 10
624.797079
 20
242.254989
 10
624.929517
 20
242.232436
 10
625.047024
 20
242.167314
 10
625.136341
 20
242.066972
 10
625.187396
 20
241.942738
 10
625.197141
 20
241.854989
  0
LWPOLYLINE
  5
8AC6
100
AcDbEntity
  8
1
100
AcDbPolyline
 90
        3
 70
   128
 43
0.0
 10
624.437996
 20
241.364638
 10
624.446061
 20
241.359809
 10
624.454118
 20
241.354989
  0
LINE
  5
8AC7
100
AcDbEntity
  8
1
100
AcDbLine
 10
624.054845
 20
241.594108
 30
0.0
 11
624.437996
 21
241.364638
 31
0.0
  0
LINE
  5
8AC8
100
AcDbEntity
  8
1
100
AcDbLine
 10
624.031219
 20
241.354989
 30
0.0
 11
624.814336
 21
241.354989
 31
0.0
  0
LINE
  5
8AC9
100
AcDbEntity
  8
1
100
AcDbLine
 10
622.954845
 20
242.154989
 30
0.0
 11
624.054845
 21
242.154989
 31
0.0
  0
LINE
  5
8ACA
100
AcDbEntity
  8
1
100
AcDbLine
 10
622.954845
 20
242.154989
 30
0.0
 11
622.954845
 21
241.354989
 31
0.0
  0
LINE
  5
8ACB
100
AcDbEntity
  8
1
100
AcDbLine
 10
624.054845
 20
241.354989
 30
0.0
 11
624.054845
 21
242.154989
 31
0.0
  0
LWPOLYLINE
  5
8ACC
100
AcDbEntity
  8
1
100
AcDbPolyline
 90
        9
 70
   128
 43
0.0
 10
622.08671
 20
241.854989
 10
622.086442
 20
241.933026
 10
622.085648
 20
242.008063
 10
622.084358
 20
242.077217
 10
622.082622
 20
242.137832
 10
622.080506
 20
242.187577
 10
622.078093
 20
242.224541
 10
622.075474
 20
242.247304
 10
622.072751
 20
242.254989
  0
LINE
  5
8ACD
100
AcDbEntity
  8
1
100
AcDbLine
 10
622.08671
 20
241.854989
 30
0.0
 11
622.08671
 21
241.354989
 31
0.0
  0
LINE
  5
8ACE
100
AcDbEntity
  8
1
100
AcDbLine
 10
621.700801
 20
241.854989
 30
0.0
 11
622.08671
 21
241.854989
 31
0.0
  0
LWPOLYLINE
  5
8ACF
100
AcDbEntity
  8
1
100
AcDbPolyline
 90
        9
 70
   128
 43
0.0
 10
621.700801
 20
241.854989
 10
621.693118
 20
241.933026
 10
621.670363
 20
242.008063
 10
621.633411
 20
242.077217
 10
621.583683
 20
242.137832
 10
621.523088
 20
242.187577
 10
621.453956
 20
242.224541
 10
621.378943
 20
242.247304
 10
621.300933
 20
242.254989
  0
LINE
  5
8AD0
100
AcDbEntity
  8
1
100
AcDbLine
 10
621.700801
 20
241.354989
 30
0.0
 11
621.700801
 21
241.854989
 31
0.0
  0
LINE
  5
8AD1
100
AcDbEntity
  8
1
100
AcDbLine
 10
621.700801
 20
241.854989
 30
0.0
 11
621.6061
 21
241.854989
 31
0.0
  0
LINE
  5
8AD2
100
AcDbEntity
  8
1
100
AcDbLine
 10
621.6061
 20
241.854989
 30
0.0
 11
621.584718
 21
241.854989
 31
0.0
  0
LINE
  5
8AD3
100
AcDbEntity
  8
1
100
AcDbLine
 10
621.6061
 20
241.354989
 30
0.0
 11
621.6061
 21
241.854989
 31
0.0
  0
LWPOLYLINE
  5
8AD4
100
AcDbEntity
  8
1
100
AcDbPolyline
 90
        9
 70
   128
 43
0.0
 10
621.584718
 20
241.854989
 10
621.577035
 20
241.933026
 10
621.554281
 20
242.008063
 10
621.51733
 20
242.077217
 10
621.467602
 20
242.137832
 10
621.407008
 20
242.187577
 10
621.337877
 20
242.224541
 10
621.262865
 20
242.247304
 10
621.184856
 20
242.254989
  0
LINE
  5
8AD5
100
AcDbEntity
  8
1
100
AcDbLine
 10
621.584718
 20
241.854989
 30
0.0
 11
621.584718
 21
241.354989
 31
0.0
  0
LINE
  5
8AD6
100
AcDbEntity
  8
1
100
AcDbLine
 10
621.198816
 20
241.854989
 30
0.0
 11
621.584718
 21
241.854989
 31
0.0
  0
LWPOLYLINE
  5
8AD7
100
AcDbEntity
  8
1
100
AcDbPolyline
 90
        9
 70
   128
 43
0.0
 10
621.198816
 20
241.854989
 10
621.198548
 20
241.933026
 10
621.197753
 20
242.008063
 10
621.196463
 20
242.077217
 10
621.194727
 20
242.137832
 10
621.192612
 20
242.187577
 10
621.190198
 20
242.224541
 10
621.18758
 20
242.247304
 10
621.184856
 20
242.254989
  0
LINE
  5
8AD8
100
AcDbEntity
  8
1
100
AcDbLine
 10
621.198816
 20
241.354989
 30
0.0
 11
621.198816
 21
241.854989
 31
0.0
  0
LINE
  5
8AD9
100
AcDbEntity
  8
1
100
AcDbLine
 10
622.072751
 20
242.254989
 30
0.0
 11
621.300933
 21
242.254989
 31
0.0
  0
LINE
  5
8ADA
100
AcDbEntity
  8
1
100
AcDbLine
 10
621.206237
 20
242.254989
 30
0.0
 11
621.300933
 21
242.254989
 31
0.0
  0
LINE
  5
8ADB
100
AcDbEntity
  8
1
100
AcDbLine
 10
621.184856
 20
242.254989
 30
0.0
 11
621.206237
 21
242.254989
 31
0.0
  0
LWPOLYLINE
  5
8ADC
100
AcDbEntity
  8
1
100
AcDbPolyline
 90
        9
 70
   128
 43
0.0
 10
621.6061
 20
241.854989
 10
621.598416
 20
241.933026
 10
621.575662
 20
242.008063
 10
621.538711
 20
242.077217
 10
621.488983
 20
242.137832
 10
621.428389
 20
242.187577
 10
621.359258
 20
242.224541
 10
621.284247
 20
242.247304
 10
621.206237
 20
242.254989
  0
LINE
  5
8ADD
100
AcDbEntity
  8
1
100
AcDbLine
 10
622.954845
 20
241.854989
 30
0.0
 11
622.08671
 21
241.854989
 31
0.0
  0
LINE
  5
8ADE
100
AcDbEntity
  8
1
100
AcDbLine
 10
622.072751
 20
242.254989
 30
0.0
 11
624.424036
 21
242.254989
 31
0.0
  0
LINE
  5
8ADF
100
AcDbEntity
  8
1
100
AcDbLine
 10
621.198816
 20
241.354989
 30
0.0
 11
623.52404
 21
241.354989
 31
0.0
  0
LINE
  5
902C
100
AcDbEntity
  8
1
100
AcDbLine
 10
568.994425
 20
233.347443
 30
0.0
 11
570.850647
 21
233.347443
 31
0.0
  0
LINE
  5
902D
100
AcDbEntity
  8
OSIE
100
AcDbLine
 10
559.98196
 20
234.504989
 30
0.0
 11
548.735579
 21
234.504989
 31
0.0
  0
LINE
  5
902E
100
AcDbEntity
  8
1
100
AcDbLine
 10
559.98196
 20
235.662536
 30
0.0
 11
559.164594
 21
235.662536
 31
0.0
  0
LINE
  5
902F
100
AcDbEntity
  8
WYMIARY
 62
     3
100
AcDbLine
 10
559.98196
 20
227.804989
 30
0.0
 11
568.994425
 21
227.804989
 31
0.0
  0
LWPOLYLINE
  5
9030
100
AcDbEntity
  8
WYMIARY
 62
     3
100
AcDbPolyline
 90
        4
 70
     1
 43
0.0
 10
562.9675
 20
236.620816
 10
564.625773
 20
236.620816
 10
564.625773
 20
232.479647
 10
562.9675
 20
232.479647
  0
TEXT
  5
90B2
100
AcDbEntity
  8
1
100
AcDbText
 10
646.28964
 20
12.107945
 30
0.0
 40
3.0
  1
z
 41
0.6
 51
15.0
  7
ITALIC
100
AcDbText
  0
LINE
  5
90B3
100
AcDbEntity
  8
WYMIARY
 62
     3
100
AcDbLine
 10
645.592765
 20
9.067909
 30
0.0
 11
650.62428
 21
14.093943
 31
0.0
  0
TEXT
  5
90B4
100
AcDbEntity
  8
1
100
AcDbText
 10
648.557364
 20
9.134798
 30
0.0
 40
3.0
  1
with
 41
0.6
 51
15.0
  7
ITALIC
100
AcDbText
  0
TEXT
  5
90C0
100
AcDbEntity
  8
1
100
AcDbText
 10
576.95891
 20
275.186134
 30
0.0
 40
3.0
  1
with
 41
0.6
 51
15.0
  7
ITALIC
100
AcDbText
  0
LINE
  5
90C1
100
AcDbEntity
  8
WYMIARY
 62
     3
100
AcDbLine
 10
573.99431
 20
275.119245
 30
0.0
 11
579.025825
 21
280.145279
 31
0.0
  0
TEXT
  5
90C2
100
AcDbEntity
  8
1
100
AcDbText
 10
560.021837
 20
275.115345
 30
0.0
 40
5.0
  1
PI84   GZT80
 41
0.8
 51
15.0
  7
ITALIC
100
AcDbText
  0
TEXT
  5
90C3
100
AcDbEntity
  8
1
100
AcDbText
 10
574.691185
 20
278.159281
 30
0.0
 40
3.0
  1
z
 41
0.6
 51
15.0
  7
ITALIC
100
AcDbText
  0
LINE
  5
90ED
100
AcDbEntity
  8
WYMIARY
 62
     3
100
AcDbLine
 10
562.9675
 20
236.620816
 30
0.0
 11
562.9675
 21
236.670816
 31
0.0
  0
DIMENSION
  5
90FB
100
AcDbEntity
  8
WY
100
AcDbDimension
  2
*D7
 10
543.44649
 20
230.754989
 30
0.0
 11
540.14649
 21
217.154989
 31
0.0
 12
13.067766
 22
135.104039
 32
0.0
 70
    32
  3
STANDARD
100
AcDbAlignedDimension
 13
554.897141
 23
238.254989
 33
0.0
 14
554.897141
 24
230.754989
 34
0.0
 50
90.0
100
AcDbRotatedDimension
  0
ENDSEC
  0
SECTION
  2
OBJECTS
  0
DICTIONARY
  5
C
100
AcDbDictionary
  3
ACAD_GROUP
350
D
  3
ACAD_MLINESTYLE
350
E
  3
ACDBVARIABLEDICTIONARY
350
C1B
  0
DICTIONARY
  5
D
102
{ACAD_REACTORS
330
C
102
}
100
AcDbDictionary
  0
DICTIONARY
  5
E
102
{ACAD_REACTORS
330
C
102
}
100
AcDbDictionary
  3
STANDARD
350
1B
  0
DICTIONARY
  5
C1B
102
{ACAD_REACTORS
330
C
102
}
100
AcDbDictionary
  3
SORTENTS
350
C1C
  0
MLINESTYLE
  5
1B
102
{ACAD_REACTORS
330
E
102
}
100
AcDbMlineStyle
  2
STANDARD
 70
     0
  3

 62
     0
 51
90.0
 52
90.0
 71
     2
 49
0.5
 62
   256
  6
BYLAYER
 49
-0.5
 62
   256
  6
BYLAYER
  0
DICTIONARYVAR
  5
C1C
102
{ACAD_REACTORS
330
C1B
102
}
100
DictionaryVariables
280
     0
  1
96
  0
ENDSEC
  0
EOF
