  0
SECTION
  2
HEADER
  9
$ACADVER
  1
AC1018
  9
$ACADMAINTVER
 70
   104
  9
$DWGCODEPAGE
  3
ANSI_1252
  9
$LASTSAVEDBY
  1
dlobaton
  9
$INSBASE
 10
0.0
 20
0.0
 30
0.0
  9
$EXTMIN
 10
-52.340193799198
 20
-31.07832202591714
 30
0.0
  9
$EXTMAX
 10
109.0029167055769
 20
136.3936835291519
 30
0.0
  9
$LIMMIN
 10
0.0
 20
0.0
  9
$LIMMAX
 10
12.0
 20
9.0
  9
$ORTHOMODE
 70
     0
  9
$REGENMODE
 70
     1
  9
$FILLMODE
 70
     1
  9
$QTEXTMODE
 70
     0
  9
$MIRRTEXT
 70
     0
  9
$LTSCALE
 40
1.0
  9
$ATTMODE
 70
     1
  9
$TEXTSIZE
 40
0.2
  9
$TRACEWID
 40
0.05
  9
$TEXTSTYLE
  7
Standard
  9
$CLAYER
  8
0
  9
$CELTYPE
  6
ByLayer
  9
$CECOLOR
 62
   256
  9
$CELTSCALE
 40
1.0
  9
$DISPSILH
 70
     0
  9
$DIMSCALE
 40
1.0
  9
$DIMASZ
 40
0.18
  9
$DIMEXO
 40
0.0625
  9
$DIMDLI
 40
0.38
  9
$DIMRND
 40
0.0
  9
$DIMDLE
 40
0.0
  9
$DIMEXE
 40
0.18
  9
$DIMTP
 40
0.0
  9
$DIMTM
 40
0.0
  9
$DIMTXT
 40
0.18
  9
$DIMCEN
 40
0.09
  9
$DIMTSZ
 40
0.0
  9
$DIMTOL
 70
     0
  9
$DIMLIM
 70
     0
  9
$DIMTIH
 70
     1
  9
$DIMTOH
 70
     1
  9
$DIMSE1
 70
     0
  9
$DIMSE2
 70
     0
  9
$DIMTAD
 70
     0
  9
$DIMZIN
 70
     0
  9
$DIMBLK
  1

  9
$DIMASO
 70
     1
  9
$DIMSHO
 70
     1
  9
$DIMPOST
  1

  9
$DIMAPOST
  1

  9
$DIMALT
 70
     0
  9
$DIMALTD
 70
     2
  9
$DIMALTF
 40
25.4
  9
$DIMLFAC
 40
1.0
  9
$DIMTOFL
 70
     0
  9
$DIMTVP
 40
0.0
  9
$DIMTIX
 70
     0
  9
$DIMSOXD
 70
     0
  9
$DIMSAH
 70
     0
  9
$DIMBLK1
  1

  9
$DIMBLK2
  1

  9
$DIMSTYLE
  2
Standard
  9
$DIMCLRD
 70
     0
  9
$DIMCLRE
 70
     0
  9
$DIMCLRT
 70
     0
  9
$DIMTFAC
 40
1.0
  9
$DIMGAP
 40
0.09
  9
$DIMJUST
 70
     0
  9
$DIMSD1
 70
     0
  9
$DIMSD2
 70
     0
  9
$DIMTOLJ
 70
     1
  9
$DIMTZIN
 70
     0
  9
$DIMALTZ
 70
     0
  9
$DIMALTTZ
 70
     0
  9
$DIMUPT
 70
     0
  9
$DIMDEC
 70
     4
  9
$DIMTDEC
 70
     4
  9
$DIMALTU
 70
     2
  9
$DIMALTTD
 70
     2
  9
$DIMTXSTY
  7
Standard
  9
$DIMAUNIT
 70
     0
  9
$DIMADEC
 70
     0
  9
$DIMALTRND
 40
0.0
  9
$DIMAZIN
 70
     0
  9
$DIMDSEP
 70
    46
  9
$DIMATFIT
 70
     3
  9
$DIMFRAC
 70
     0
  9
$DIMLDRBLK
  1

  9
$DIMLUNIT
 70
     2
  9
$DIMLWD
 70
    -2
  9
$DIMLWE
 70
    -2
  9
$DIMTMOVE
 70
     0
  9
$LUNITS
 70
     2
  9
$LUPREC
 70
     4
  9
$SKETCHINC
 40
0.1
  9
$FILLETRAD
 40
0.0
  9
$AUNITS
 70
     0
  9
$AUPREC
 70
     0
  9
$MENU
  1
.
  9
$ELEVATION
 40
0.0
  9
$PELEVATION
 40
0.0
  9
$THICKNESS
 40
0.0
  9
$LIMCHECK
 70
     0
  9
$CHAMFERA
 40
0.0
  9
$CHAMFERB
 40
0.0
  9
$CHAMFERC
 40
0.0
  9
$CHAMFERD
 40
0.0
  9
$SKPOLY
 70
     0
  9
$TDCREATE
 40
2455534.481819618
  9
$TDUCREATE
 40
2455534.690152951
  9
$TDUPDATE
 40
2456861.365185845
  9
$TDUUPDATE
 40
2456861.573519178
  9
$TDINDWG
 40
0.0007548727
  9
$TDUSRTIMER
 40
0.0007546875
  9
$USRTIMER
 70
     1
  9
$ANGBASE
 50
0.0
  9
$ANGDIR
 70
     0
  9
$PDMODE
 70
     0
  9
$PDSIZE
 40
0.0
  9
$PLINEWID
 40
0.0
  9
$SPLFRAME
 70
     0
  9
$SPLINETYPE
 70
     6
  9
$SPLINESEGS
 70
     8
  9
$HANDSEED
  5
487
  9
$SURFTAB1
 70
     6
  9
$SURFTAB2
 70
     6
  9
$SURFTYPE
 70
     6
  9
$SURFU
 70
     6
  9
$SURFV
 70
     6
  9
$UCSBASE
  2

  9
$UCSNAME
  2

  9
$UCSORG
 10
0.0
 20
0.0
 30
0.0
  9
$UCSXDIR
 10
1.0
 20
0.0
 30
0.0
  9
$UCSYDIR
 10
0.0
 20
1.0
 30
0.0
  9
$UCSORTHOREF
  2

  9
$UCSORTHOVIEW
 70
     0
  9
$UCSORGTOP
 10
0.0
 20
0.0
 30
0.0
  9
$UCSORGBOTTOM
 10
0.0
 20
0.0
 30
0.0
  9
$UCSORGLEFT
 10
0.0
 20
0.0
 30
0.0
  9
$UCSORGRIGHT
 10
0.0
 20
0.0
 30
0.0
  9
$UCSORGFRONT
 10
0.0
 20
0.0
 30
0.0
  9
$UCSORGBACK
 10
0.0
 20
0.0
 30
0.0
  9
$PUCSBASE
  2

  9
$PUCSNAME
  2

  9
$PUCSORG
 10
0.0
 20
0.0
 30
0.0
  9
$PUCSXDIR
 10
1.0
 20
0.0
 30
0.0
  9
$PUCSYDIR
 10
0.0
 20
1.0
 30
0.0
  9
$PUCSORTHOREF
  2

  9
$PUCSORTHOVIEW
 70
     0
  9
$PUCSORGTOP
 10
0.0
 20
0.0
 30
0.0
  9
$PUCSORGBOTTOM
 10
0.0
 20
0.0
 30
0.0
  9
$PUCSORGLEFT
 10
0.0
 20
0.0
 30
0.0
  9
$PUCSORGRIGHT
 10
0.0
 20
0.0
 30
0.0
  9
$PUCSORGFRONT
 10
0.0
 20
0.0
 30
0.0
  9
$PUCSORGBACK
 10
0.0
 20
0.0
 30
0.0
  9
$USERI1
 70
     0
  9
$USERI2
 70
     0
  9
$USERI3
 70
     0
  9
$USERI4
 70
     0
  9
$USERI5
 70
     0
  9
$USERR1
 40
0.0
  9
$USERR2
 40
0.0
  9
$USERR3
 40
0.0
  9
$USERR4
 40
0.0
  9
$USERR5
 40
0.0
  9
$WORLDVIEW
 70
     1
  9
$SHADEDGE
 70
     3
  9
$SHADEDIF
 70
    70
  9
$TILEMODE
 70
     1
  9
$MAXACTVP
 70
    64
  9
$PINSBASE
 10
0.0
 20
0.0
 30
0.0
  9
$PLIMCHECK
 70
     0
  9
$PEXTMIN
 10
0.0
 20
0.0
 30
0.0
  9
$PEXTMAX
 10
0.0
 20
0.0
 30
0.0
  9
$PLIMMIN
 10
0.0
 20
0.0
  9
$PLIMMAX
 10
12.0
 20
9.0
  9
$UNITMODE
 70
     0
  9
$VISRETAIN
 70
     1
  9
$PLINEGEN
 70
     0
  9
$PSLTSCALE
 70
     1
  9
$TREEDEPTH
 70
  3020
  9
$CMLSTYLE
  2
Standard
  9
$CMLJUST
 70
     0
  9
$CMLSCALE
 40
1.0
  9
$PROXYGRAPHICS
 70
     1
  9
$MEASUREMENT
 70
     0
  9
$CELWEIGHT
370
    -1
  9
$ENDCAPS
280
     0
  9
$JOINSTYLE
280
     0
  9
$LWDISPLAY
290
     0
  9
$INSUNITS
 70
     1
  9
$HYPERLINKBASE
  1

  9
$STYLESHEET
  1

  9
$XEDIT
290
     1
  9
$CEPSNTYPE
380
     0
  9
$PSTYLEMODE
290
     1
  9
$FINGERPRINTGUID
  2
{560AF803-8C70-440F-A622-1AA98E33DBD1}
  9
$VERSIONGUID
  2
{B8398FBB-54F4-443F-B8DF-0AECDD750C62}
  9
$EXTNAMES
290
     1
  9
$PSVPSCALE
 40
0.0
  9
$OLESTARTUP
290
     0
  9
$SORTENTS
280
   127
  9
$INDEXCTL
280
     0
  9
$HIDETEXT
280
     1
  9
$XCLIPFRAME
290
     0
  9
$HALOGAP
280
     0
  9
$OBSCOLOR
 70
   257
  9
$OBSLTYPE
280
     0
  9
$INTERSECTIONDISPLAY
280
     0
  9
$INTERSECTIONCOLOR
 70
   257
  9
$DIMASSOC
280
     2
  9
$PROJECTNAME
  1

  0
ENDSEC
  0
SECTION
  2
CLASSES
  0
CLASS
  1
ACDBDICTIONARYWDFLT
  2
AcDbDictionaryWithDefault
  3
ObjectDBX Classes
 90
        0
 91
        1
280
     0
281
     0
  0
CLASS
  1
DICTIONARYVAR
  2
AcDbDictionaryVar
  3
ObjectDBX Classes
 90
        0
 91
       16
280
     0
281
     0
  0
CLASS
  1
TABLESTYLE
  2
AcDbTableStyle
  3
ObjectDBX Classes
 90
     4095
 91
        1
280
     0
281
     0
  0
CLASS
  1
MATERIAL
  2
AcDbMaterial
  3
ObjectDBX Classes
 90
     1153
 91
        3
280
     0
281
     0
  0
CLASS
  1
VISUALSTYLE
  2
AcDbVisualStyle
  3
ObjectDBX Classes
 90
     4095
 91
       26
280
     0
281
     0
  0
CLASS
  1
SCALE
  2
AcDbScale
  3
ObjectDBX Classes
 90
     1153
 91
       33
280
     0
281
     0
  0
CLASS
  1
MLEADERSTYLE
  2
AcDbMLeaderStyle
  3
ACDB_MLEADERSTYLE_CLASS
 90
     4095
 91
        2
280
     0
281
     0
  0
CLASS
  1
CELLSTYLEMAP
  2
AcDbCellStyleMap
  3
ObjectDBX Classes
 90
     1152
 91
        3
280
     0
281
     0
  0
CLASS
  1
EXACXREFPANELOBJECT
  2
ExAcXREFPanelObject
  3
EXAC_ESW
 90
     1025
 91
        0
280
     0
281
     0
  0
CLASS
  1
NPOCOLLECTION
  2
AcDbImpNonPersistentObjectsCollection
  3
ObjectDBX Classes
 90
     1153
 91
        0
280
     0
281
     0
  0
CLASS
  1
LAYER_INDEX
  2
AcDbLayerIndex
  3
ObjectDBX Classes
 90
        0
 91
        0
280
     0
281
     0
  0
CLASS
  1
SPATIAL_INDEX
  2
AcDbSpatialIndex
  3
ObjectDBX Classes
 90
        0
 91
        0
280
     0
281
     0
  0
CLASS
  1
IDBUFFER
  2
AcDbIdBuffer
  3
ObjectDBX Classes
 90
        0
 91
        0
280
     0
281
     0
  0
CLASS
  1
SORTENTSTABLE
  2
AcDbSortentsTable
  3
ObjectDBX Classes
 90
        0
 91
        2
280
     0
281
     0
  0
CLASS
  1
AEC_REFEDIT_STATUS_TRACKER
  2
AecDbRefEditStatusTracker
  3
AecArchBase70|Product Desc: Autodesk Architectural Desktop 2007 |Company: Autodesk,Inc. |WEB Address: www.autodesk.com
 90
      129
 91
        0
280
     0
281
     0
  0
CLASS
  1
ACDBSECTIONVIEWSTYLE
  2
AcDbSectionViewStyle
  3
ObjectDBX Classes
 90
     1025
 91
        1
280
     0
281
     0
  0
CLASS
  1
ACDBDETAILVIEWSTYLE
  2
AcDbDetailViewStyle
  3
ObjectDBX Classes
 90
     1025
 91
        1
280
     0
281
     0
  0
ENDSEC
  0
SECTION
  2
TABLES
  0
TABLE
  2
VPORT
  5
8
102
{ACAD_XDICTIONARY
360
28F
102
}
330
0
100
AcDbSymbolTable
 70
     1
  0
VPORT
  5
94
330
8
100
AcDbSymbolTableRecord
100
AcDbViewportTableRecord
  2
*Active
 70
     0
 10
0.0
 20
0.0
 11
1.0
 21
1.0
 12
91.22163321315085
 22
52.65768075161741
 13
0.0
 23
0.0
 14
0.5
 24
0.5
 15
0.5
 25
0.5
 16
0.0
 26
0.0
 36
1.0
 17
0.0
 27
0.0
 37
0.0
 40
168.7171505777833
 41
2.270325203252032
 42
50.0
 43
0.0
 44
0.0
 50
0.0
 51
0.0
 71
     0
 72
  1000
 73
     1
 74
     3
 75
     0
 76
     0
 77
     0
 78
     0
281
     0
 65
     1
110
0.0
120
0.0
130
0.0
111
1.0
121
0.0
131
0.0
112
0.0
122
1.0
132
0.0
 79
     0
146
0.0
1001
ACAD_NAV_VCDISPLAY
1070
     3
  0
ENDTAB
  0
TABLE
  2
LTYPE
  5
5
330
0
100
AcDbSymbolTable
 70
     2
  0
LTYPE
  5
14
330
5
100
AcDbSymbolTableRecord
100
AcDbLinetypeTableRecord
  2
ByBlock
 70
     0
  3

 72
    65
 73
     0
 40
0.0
  0
LTYPE
  5
15
330
5
100
AcDbSymbolTableRecord
100
AcDbLinetypeTableRecord
  2
ByLayer
 70
     0
  3

 72
    65
 73
     0
 40
0.0
  0
LTYPE
  5
16
330
5
100
AcDbSymbolTableRecord
100
AcDbLinetypeTableRecord
  2
Continuous
 70
     0
  3
Solid line
 72
    65
 73
     0
 40
0.0
  0
ENDTAB
  0
TABLE
  2
LAYER
  5
2
102
{ACAD_XDICTIONARY
360
1CC
102
}
330
0
100
AcDbSymbolTable
 70
     5
  0
LAYER
  5
10
102
{ACAD_XDICTIONARY
360
E6
102
}
330
2
100
AcDbSymbolTableRecord
100
AcDbLayerTableRecord
  2
0
 70
     0
 62
     7
  6
Continuous
370
    -3
390
F
  0
LAYER
  5
1C5
330
2
100
AcDbSymbolTableRecord
100
AcDbLayerTableRecord
  2
Dimension (ANSI)
 70
     0
 62
     7
  6
Continuous
370
    -3
390
F
  0
LAYER
  5
1C6
330
2
100
AcDbSymbolTableRecord
100
AcDbLayerTableRecord
  2
Visible (ANSI)
 70
     0
 62
     7
  6
Continuous
370
    -3
390
F
  0
LAYER
  5
1C7
330
2
100
AcDbSymbolTableRecord
100
AcDbLayerTableRecord
  2
Visible Narrow (ANSI)
 70
     0
 62
     7
  6
Continuous
370
    -3
390
F
  0
LAYER
  5
1C8
330
2
100
AcDbSymbolTableRecord
100
AcDbLayerTableRecord
  2
Defpoints
 70
     0
 62
     7
  6
Continuous
290
     0
370
    -3
390
F
  0
ENDTAB
  0
TABLE
  2
STYLE
  5
3
330
0
100
AcDbSymbolTable
 70
     3
  0
STYLE
  5
11
330
3
100
AcDbSymbolTableRecord
100
AcDbTextStyleTableRecord
  2
Standard
 70
     0
 40
0.0
 41
1.0
 50
0.0
 71
     0
 42
0.2
  3
ARIAL.TTF
  4

1001
ACAD
1000
Arial
1071
       34
  0
STYLE
  5
DC
330
3
100
AcDbSymbolTableRecord
100
AcDbTextStyleTableRecord
  2
Annotative
 70
     0
 40
0.0
 41
1.0
 50
0.0
 71
     0
 42
0.2
  3
ARIAL.TTF
  4

1001
AcadAnnotative
1000
AnnotativeData
1002
{
1070
     1
1070
     1
1002
}
1001
ACAD
1000
Arial
1071
       34
  0
STYLE
  5
1C9
330
3
100
AcDbSymbolTableRecord
100
AcDbTextStyleTableRecord
  2
Note Text (ANSI)
 70
     0
 40
0.0
 41
1.0
 50
0.0
 71
     0
 42
0.2
  3
ARIAL.TTF
  4

1001
ACAD
1000
Arial
1071
      256
  0
ENDTAB
  0
TABLE
  2
VIEW
  5
6
330
0
100
AcDbSymbolTable
 70
     0
  0
ENDTAB
  0
TABLE
  2
UCS
  5
7
330
0
100
AcDbSymbolTable
 70
     0
  0
ENDTAB
  0
TABLE
  2
APPID
  5
9
330
0
100
AcDbSymbolTable
 70
     9
  0
APPID
  5
12
330
9
100
AcDbSymbolTableRecord
100
AcDbRegAppTableRecord
  2
ACAD
 70
     0
  0
APPID
  5
DD
330
9
100
AcDbSymbolTableRecord
100
AcDbRegAppTableRecord
  2
AcadAnnoPO
 70
     0
  0
APPID
  5
DE
330
9
100
AcDbSymbolTableRecord
100
AcDbRegAppTableRecord
  2
AcadAnnotative
 70
     0
  0
APPID
  5
DF
330
9
100
AcDbSymbolTableRecord
100
AcDbRegAppTableRecord
  2
ACAD_DSTYLE_DIMJAG
 70
     0
  0
APPID
  5
E0
330
9
100
AcDbSymbolTableRecord
100
AcDbRegAppTableRecord
  2
ACAD_DSTYLE_DIMTALN
 70
     0
  0
APPID
  5
107
330
9
100
AcDbSymbolTableRecord
100
AcDbRegAppTableRecord
  2
ACAD_MLEADERVER
 70
     0
  0
APPID
  5
1CB
330
9
100
AcDbSymbolTableRecord
100
AcDbRegAppTableRecord
  2
ACAD_DSTYLE_DIMINSPECT
 70
     0
  0
APPID
  5
3FD
330
9
100
AcDbSymbolTableRecord
100
AcDbRegAppTableRecord
  2
ACAD_EXEMPT_FROM_CAD_STANDARDS
 70
     0
  0
APPID
  5
3FF
330
9
100
AcDbSymbolTableRecord
100
AcDbRegAppTableRecord
  2
ACAD_NAV_VCDISPLAY
 70
     0
  0
ENDTAB
  0
TABLE
  2
DIMSTYLE
  5
A
330
0
100
AcDbSymbolTable
 70
     3
100
AcDbDimStyleTable
 71
     2
340
27
340
E1
  0
DIMSTYLE
105
27
330
A
100
AcDbSymbolTableRecord
100
AcDbDimStyleTableRecord
  2
Standard
 70
     0
340
11
  0
DIMSTYLE
105
E1
330
A
100
AcDbSymbolTableRecord
100
AcDbDimStyleTableRecord
  2
Annotative
 70
     0
 40
0.0
340
11
1001
AcadAnnotative
1000
AnnotativeData
1002
{
1070
     1
1070
     1
1002
}
1001
ACAD_DSTYLE_DIMJAG
1070
   388
1040
1.5
1001
ACAD_DSTYLE_DIMTALN
1070
   392
1070
     0
  0
DIMSTYLE
105
1CA
102
{ACAD_REACTORS
330
27D
330
27E
330
27F
330
280
330
281
330
381
330
382
330
383
330
384
330
385
102
}
330
A
100
AcDbSymbolTableRecord
100
AcDbDimStyleTableRecord
  2
Default - mm (ANSI)
 70
     0
  3
\X
 41
2.5
 42
1.600199999999999
 43
5.999999999999999
 44
3.174999999999999
 45
0.00000001
 46
10.0
 78
     4
 79
     1
140
3.04800009727478
144
0.0393700787401575
147
0.8
170
     1
171
     1
176
   256
177
   256
178
   256
179
     1
271
     2
272
     2
274
     1
284
     4
285
     4
340
1C9
371
    -1
372
    -1
  0
ENDTAB
  0
TABLE
  2
BLOCK_RECORD
  5
1
330
0
100
AcDbSymbolTable
 70
    12
  0
BLOCK_RECORD
  5
1F
102
{ACAD_XDICTIONARY
360
15D
102
}
330
1
100
AcDbSymbolTableRecord
100
AcDbBlockTableRecord
  2
*Model_Space
340
22
  0
BLOCK_RECORD
  5
58
330
1
100
AcDbSymbolTableRecord
100
AcDbBlockTableRecord
  2
*Paper_Space
340
59
  0
BLOCK_RECORD
  5
5D
330
1
100
AcDbSymbolTableRecord
100
AcDbBlockTableRecord
  2
*Paper_Space0
340
5E
  0
BLOCK_RECORD
  5
183
330
1
100
AcDbSymbolTableRecord
100
AcDbBlockTableRecord
  2
*D1
340
0
  0
BLOCK_RECORD
  5
190
330
1
100
AcDbSymbolTableRecord
100
AcDbBlockTableRecord
  2
*D2
340
0
  0
BLOCK_RECORD
  5
19D
330
1
100
AcDbSymbolTableRecord
100
AcDbBlockTableRecord
  2
*D3
340
0
  0
BLOCK_RECORD
  5
1AA
330
1
100
AcDbSymbolTableRecord
100
AcDbBlockTableRecord
  2
*D4
340
0
  0
BLOCK_RECORD
  5
1B8
330
1
100
AcDbSymbolTableRecord
100
AcDbBlockTableRecord
  2
*D5
340
0
  0
BLOCK_RECORD
  5
1CE
102
{ACAD_XDICTIONARY
360
283
102
}
330
1
100
AcDbSymbolTableRecord
100
AcDbBlockTableRecord
  2
A$C0F0A554F
340
0
1001
ACAD
1000
DesignCenter Data
1002
{
1070
     1
1070
     1
1002
}
  0
BLOCK_RECORD
  5
387
330
1
100
AcDbSymbolTableRecord
100
AcDbBlockTableRecord
  2
*D7
340
0
  0
BLOCK_RECORD
  5
394
330
1
100
AcDbSymbolTableRecord
100
AcDbBlockTableRecord
  2
*D8
340
0
  0
BLOCK_RECORD
  5
3A1
330
1
100
AcDbSymbolTableRecord
100
AcDbBlockTableRecord
  2
*D9
340
0
  0
BLOCK_RECORD
  5
3AE
330
1
100
AcDbSymbolTableRecord
100
AcDbBlockTableRecord
  2
*D10
340
0
  0
BLOCK_RECORD
  5
3BC
330
1
100
AcDbSymbolTableRecord
100
AcDbBlockTableRecord
  2
*D11
340
0
  0
ENDTAB
  0
ENDSEC
  0
SECTION
  2
BLOCKS
  0
BLOCK
  5
20
330
1F
100
AcDbEntity
  8
0
100
AcDbBlockBegin
  2
*Model_Space
 70
     0
 10
0.0
 20
0.0
 30
0.0
  3
*Model_Space
  1

  0
ENDBLK
  5
21
330
1F
100
AcDbEntity
  8
0
100
AcDbBlockEnd
  0
BLOCK
  5
5A
330
58
100
AcDbEntity
 67
     1
  8
0
100
AcDbBlockBegin
  2
*Paper_Space
 70
     0
 10
0.0
 20
0.0
 30
0.0
  3
*Paper_Space
  1

  0
ENDBLK
  5
5B
330
58
100
AcDbEntity
 67
     1
  8
0
100
AcDbBlockEnd
  0
BLOCK
  5
5F
330
5D
100
AcDbEntity
 67
     1
  8
0
100
AcDbBlockBegin
  2
*Paper_Space0
 70
     0
 10
0.0
 20
0.0
 30
0.0
  3
*Paper_Space0
  1

  0
ENDBLK
  5
60
330
5D
100
AcDbEntity
 67
     1
  8
0
100
AcDbBlockEnd
  0
BLOCK
  5
184
330
183
100
AcDbEntity
  8
0
100
AcDbBlockBegin
  2
*D1
 70
     1
 10
0.0
 20
0.0
 30
0.0
  3
*D1
  1

  0
LINE
  5
185
330
183
100
AcDbEntity
  8
Dimension (ANSI)
440
 16777216
100
AcDbLine
 10
-43.33447875178227
 20
14.97931297205551
 30
0.0
 11
12.72032124821774
 21
14.97931297205549
 31
0.0
  0
LINE
  5
186
330
183
100
AcDbEntity
  8
Dimension (ANSI)
440
 16777216
100
AcDbLine
 10
-16.85447875178225
 20
85.98931297205561
 30
0.0
 11
12.72032124821776
 21
85.98931297205561
 31
0.0
  0
LINE
  5
187
330
183
100
AcDbEntity
  8
Dimension (ANSI)
440
 16777216
100
AcDbLine
 10
9.545321248217746
 20
17.47931297205549
 30
0.0
 11
9.545321248217753
 21
45.18473574796352
 31
0.0
  0
LINE
  5
188
330
183
100
AcDbEntity
  8
Dimension (ANSI)
440
 16777216
100
AcDbLine
 10
9.54532124821776
 20
83.48931297205561
 30
0.0
 11
9.545321248217755
 21
55.78389019614748
 31
0.0
  0
SOLID
  5
189
330
183
100
AcDbEntity
  8
Dimension (ANSI)
440
 16777216
100
AcDbTrace
 10
9.12865458155108
 20
17.47931297205549
 30
0.0
 11
9.961987914884412
 21
17.47931297205549
 31
0.0
 12
9.545321248217746
 22
14.97931297205549
 32
0.0
 13
9.545321248217746
 23
14.97931297205549
 33
0.0
  0
SOLID
  5
18A
330
183
100
AcDbEntity
  8
Dimension (ANSI)
440
 16777216
100
AcDbTrace
 10
9.128654581551094
 20
83.48931297205561
 30
0.0
 11
9.961987914884426
 21
83.48931297205561
 31
0.0
 12
9.545321248217762
 22
85.98931297205561
 32
0.0
 13
9.545321248217762
 23
85.98931297205561
 33
0.0
  0
MTEXT
  5
18B
330
183
100
AcDbEntity
  8
Dimension (ANSI)
440
 16777216
100
AcDbMText
 10
9.545321248217746
 20
50.4843129720555
 30
0.0
 40
3.04800009727478
 41
0.0
 71
     5
 72
     1
  1
\A1; 2.80\P [71.0]
  7
Note Text (ANSI)
 73
     1
 44
1.0
  0
POINT
  5
18C
330
183
100
AcDbEntity
  8
Defpoints
 62
     0
440
 16777216
100
AcDbPoint
 10
-44.93467875178227
 20
14.97931297205551
 30
0.0
  0
POINT
  5
18D
330
183
100
AcDbEntity
  8
Defpoints
 62
     0
440
 16777216
100
AcDbPoint
 10
-18.45467875178225
 20
85.98931297205561
 30
0.0
  0
POINT
  5
18E
330
183
100
AcDbEntity
  8
Defpoints
 62
     0
440
 16777216
100
AcDbPoint
 10
9.545321248217762
 20
85.98931297205561
 30
0.0
  0
ENDBLK
  5
18F
330
183
100
AcDbEntity
  8
0
100
AcDbBlockEnd
  0
BLOCK
  5
191
330
190
100
AcDbEntity
  8
0
100
AcDbBlockBegin
  2
*D2
 70
     1
 10
0.0
 20
0.0
 30
0.0
  3
*D2
  1

  0
LINE
  5
192
330
190
100
AcDbEntity
  8
Dimension (ANSI)
440
 16777216
100
AcDbLine
 10
-75.60467875178223
 20
87.58951297205561
 30
0.0
 11
-75.60467875178223
 21
100.6483695843565
 31
0.0
  0
LINE
  5
193
330
190
100
AcDbEntity
  8
Dimension (ANSI)
440
 16777216
100
AcDbLine
 10
-18.45467875178225
 20
87.58951297205561
 30
0.0
 11
-18.45467875178225
 21
100.6483695843565
 31
0.0
  0
LINE
  5
194
330
190
100
AcDbEntity
  8
Dimension (ANSI)
440
 16777216
100
AcDbLine
 10
-73.10467875178223
 20
97.47336958435656
 30
0.0
 11
-53.60965165111647
 21
97.47336958435656
 31
0.0
  0
LINE
  5
195
330
190
100
AcDbEntity
  8
Dimension (ANSI)
440
 16777216
100
AcDbLine
 10
-20.95467875178226
 20
97.47336958435656
 30
0.0
 11
-40.44970585244813
 21
97.47336958435656
 31
0.0
  0
SOLID
  5
196
330
190
100
AcDbEntity
  8
Dimension (ANSI)
440
 16777216
100
AcDbTrace
 10
-73.10467875178223
 20
97.89003625102324
 30
0.0
 11
-73.10467875178223
 21
97.05670291768988
 31
0.0
 12
-75.60467875178223
 22
97.47336958435656
 32
0.0
 13
-75.60467875178223
 23
97.47336958435656
 33
0.0
  0
SOLID
  5
197
330
190
100
AcDbEntity
  8
Dimension (ANSI)
440
 16777216
100
AcDbTrace
 10
-20.95467875178226
 20
97.89003625102324
 30
0.0
 11
-20.95467875178226
 21
97.05670291768988
 31
0.0
 12
-18.45467875178225
 22
97.47336958435656
 32
0.0
 13
-18.45467875178225
 23
97.47336958435656
 33
0.0
  0
MTEXT
  5
198
330
190
100
AcDbEntity
  8
Dimension (ANSI)
440
 16777216
100
AcDbMText
 10
-47.0296787517823
 20
97.47336958435656
 30
0.0
 40
3.04800009727478
 41
0.0
 71
     5
 72
     1
  1
\A1; 2.25\P [57.2]
  7
Note Text (ANSI)
 73
     1
 44
1.0
  0
POINT
  5
199
330
190
100
AcDbEntity
  8
Defpoints
 62
     0
440
 16777216
100
AcDbPoint
 10
-75.60467875178223
 20
85.98931297205561
 30
0.0
  0
POINT
  5
19A
330
190
100
AcDbEntity
  8
Defpoints
 62
     0
440
 16777216
100
AcDbPoint
 10
-18.45467875178225
 20
85.98931297205561
 30
0.0
  0
POINT
  5
19B
330
190
100
AcDbEntity
  8
Defpoints
 62
     0
440
 16777216
100
AcDbPoint
 10
-18.45467875178225
 20
97.47336958435656
 30
0.0
  0
ENDBLK
  5
19C
330
190
100
AcDbEntity
  8
0
100
AcDbBlockEnd
  0
BLOCK
  5
19E
330
19D
100
AcDbEntity
  8
0
100
AcDbBlockBegin
  2
*D3
 70
     1
 10
0.0
 20
0.0
 30
0.0
  3
*D3
  1

  0
LINE
  5
19F
330
19D
100
AcDbEntity
  8
Dimension (ANSI)
440
 16777216
100
AcDbLine
 10
-16.85447875178225
 20
18.42931297205555
 30
0.0
 11
-3.495172228826699
 21
18.42931297205555
 31
0.0
  0
LINE
  5
1A0
330
19D
100
AcDbEntity
  8
Dimension (ANSI)
440
 16777216
100
AcDbLine
 10
-16.85447875178225
 20
85.98931297205561
 30
0.0
 11
-3.495172228826684
 21
85.98931297205561
 31
0.0
  0
LINE
  5
1A1
330
19D
100
AcDbEntity
  8
Dimension (ANSI)
440
 16777216
100
AcDbLine
 10
-6.670172228826699
 20
20.92931297205555
 30
0.0
 11
-6.670172228826693
 21
46.90973574796355
 31
0.0
  0
LINE
  5
1A2
330
19D
100
AcDbEntity
  8
Dimension (ANSI)
440
 16777216
100
AcDbLine
 10
-6.670172228826685
 20
83.48931297205561
 30
0.0
 11
-6.670172228826691
 21
57.5088901961475
 31
0.0
  0
SOLID
  5
1A3
330
19D
100
AcDbEntity
  8
Dimension (ANSI)
440
 16777216
100
AcDbTrace
 10
-7.086838895493366
 20
20.92931297205555
 30
0.0
 11
-6.253505562160032
 21
20.92931297205555
 31
0.0
 12
-6.670172228826699
 22
18.42931297205555
 32
0.0
 13
-6.670172228826699
 23
18.42931297205555
 33
0.0
  0
SOLID
  5
1A4
330
19D
100
AcDbEntity
  8
Dimension (ANSI)
440
 16777216
100
AcDbTrace
 10
-7.086838895493352
 20
83.48931297205561
 30
0.0
 11
-6.253505562160018
 21
83.48931297205561
 31
0.0
 12
-6.670172228826685
 22
85.98931297205561
 32
0.0
 13
-6.670172228826685
 23
85.98931297205561
 33
0.0
  0
MTEXT
  5
1A5
330
19D
100
AcDbEntity
  8
Dimension (ANSI)
440
 16777216
100
AcDbMText
 10
-6.6701722288267
 20
52.20931297205552
 30
0.0
 40
3.04800009727478
 41
0.0
 71
     5
 72
     1
  1
\A1; 2.66\P [67.6]
  7
Note Text (ANSI)
 73
     1
 44
1.0
  0
POINT
  5
1A6
330
19D
100
AcDbEntity
  8
Defpoints
 62
     0
440
 16777216
100
AcDbPoint
 10
-18.45467875178225
 20
18.42931297205555
 30
0.0
  0
POINT
  5
1A7
330
19D
100
AcDbEntity
  8
Defpoints
 62
     0
440
 16777216
100
AcDbPoint
 10
-18.45467875178225
 20
85.98931297205561
 30
0.0
  0
POINT
  5
1A8
330
19D
100
AcDbEntity
  8
Defpoints
 62
     0
440
 16777216
100
AcDbPoint
 10
-6.670172228826685
 20
85.98931297205561
 30
0.0
  0
ENDBLK
  5
1A9
330
19D
100
AcDbEntity
  8
0
100
AcDbBlockEnd
  0
BLOCK
  5
1AB
330
1AA
100
AcDbEntity
  8
0
100
AcDbBlockBegin
  2
*D4
 70
     1
 10
0.0
 20
0.0
 30
0.0
  3
*D4
  1

  0
LINE
  5
1AC
330
1AA
100
AcDbEntity
  8
Dimension (ANSI)
440
 16777216
100
AcDbLine
 10
-16.85447875175951
 20
134.911810960195
 30
0.0
 11
-3.857717214391135
 21
134.911810960195
 31
0.0
  0
LINE
  5
1AD
330
1AA
100
AcDbEntity
  8
Dimension (ANSI)
440
 16777216
100
AcDbLine
 10
-16.85447875175951
 20
119.031810960195
 30
0.0
 11
-3.857717214391138
 21
119.031810960195
 31
0.0
  0
LINE
  5
1AE
330
1AA
100
AcDbEntity
  8
Dimension (ANSI)
440
 16777216
100
AcDbLine
 10
-7.03271721439114
 20
116.531810960195
 30
0.0
 11
-7.03271721439114
 21
114.031810960195
 31
0.0
  0
LINE
  5
1AF
330
1AA
100
AcDbEntity
  8
Dimension (ANSI)
440
 16777216
100
AcDbLine
 10
-7.032717214391135
 20
137.411810960195
 30
0.0
 11
-7.032717214391134
 21
143.7167926234127
 31
0.0
  0
LINE
  5
1B0
330
1AA
100
AcDbEntity
  8
Dimension (ANSI)
440
 16777216
100
AcDbLine
 10
-7.032717214391134
 20
143.7167926234127
 30
0.0
 11
-4.532717214391134
 21
143.7167926234127
 31
0.0
  0
SOLID
  5
1B1
330
1AA
100
AcDbEntity
  8
Dimension (ANSI)
440
 16777216
100
AcDbTrace
 10
-7.449383881057807
 20
116.531810960195
 30
0.0
 11
-6.616050547724473
 21
116.531810960195
 31
0.0
 12
-7.032717214391139
 22
119.031810960195
 32
0.0
 13
-7.032717214391139
 23
119.031810960195
 33
0.0
  0
SOLID
  5
1B2
330
1AA
100
AcDbEntity
  8
Dimension (ANSI)
440
 16777216
100
AcDbTrace
 10
-7.449383881057802
 20
137.411810960195
 30
0.0
 11
-6.616050547724468
 21
137.411810960195
 31
0.0
 12
-7.032717214391135
 22
134.911810960195
 32
0.0
 13
-7.032717214391135
 23
134.911810960195
 33
0.0
  0
MTEXT
  5
1B3
330
1AA
100
AcDbEntity
  8
Dimension (ANSI)
440
 16777216
100
AcDbMText
 10
2.04725568494301
 20
143.7167926234127
 30
0.0
 40
3.04800009727478
 41
0.0
 71
     5
 72
     1
  1
\A1; .63\P [15.9]
  7
Note Text (ANSI)
 73
     1
 44
1.0
  0
POINT
  5
1B4
330
1AA
100
AcDbEntity
  8
Defpoints
 62
     0
440
 16777216
100
AcDbPoint
 10
-18.45467875175951
 20
134.911810960195
 30
0.0
  0
POINT
  5
1B5
330
1AA
100
AcDbEntity
  8
Defpoints
 62
     0
440
 16777216
100
AcDbPoint
 10
-18.45467875175951
 20
119.031810960195
 30
0.0
  0
POINT
  5
1B6
330
1AA
100
AcDbEntity
  8
Defpoints
 62
     0
440
 16777216
100
AcDbPoint
 10
-7.032717214391139
 20
119.031810960195
 30
0.0
  0
ENDBLK
  5
1B7
330
1AA
100
AcDbEntity
  8
0
100
AcDbBlockEnd
  0
BLOCK
  5
1B9
330
1B8
100
AcDbEntity
  8
0
100
AcDbBlockBegin
  2
*D5
 70
     1
 10
0.0
 20
0.0
 30
0.0
  3
*D5
  1

  0
LINE
  5
1BA
330
1B8
100
AcDbEntity
  8
Dimension (ANSI)
440
 16777216
100
AcDbLine
 10
34.98511150820137
 20
82.50951297205558
 30
0.0
 11
34.98511150820137
 21
106.0843129720554
 31
0.0
  0
LINE
  5
1BB
330
1B8
100
AcDbEntity
  8
Dimension (ANSI)
440
 16777216
100
AcDbLine
 10
43.36511150820136
 20
82.50951297205558
 30
0.0
 11
43.36511150820136
 21
106.0843129720554
 31
0.0
  0
LINE
  5
1BC
330
1B8
100
AcDbEntity
  8
Dimension (ANSI)
440
 16777216
100
AcDbLine
 10
45.86511150820136
 20
102.9093129720554
 30
0.0
 11
48.36511150820136
 21
102.9093129720554
 31
0.0
  0
LINE
  5
1BD
330
1B8
100
AcDbEntity
  8
Dimension (ANSI)
440
 16777216
100
AcDbLine
 10
32.48511150820137
 20
102.9093129720554
 30
0.0
 11
23.83089575927005
 21
102.9093129720554
 31
0.0
  0
SOLID
  5
1BE
330
1B8
100
AcDbEntity
  8
Dimension (ANSI)
440
 16777216
100
AcDbTrace
 10
45.86511150820136
 20
103.3259796387221
 30
0.0
 11
45.86511150820136
 21
102.4926463053888
 31
0.0
 12
43.36511150820136
 22
102.9093129720554
 32
0.0
 13
43.36511150820136
 23
102.9093129720554
 33
0.0
  0
SOLID
  5
1BF
330
1B8
100
AcDbEntity
  8
Dimension (ANSI)
440
 16777216
100
AcDbTrace
 10
32.48511150820137
 20
103.3259796387221
 30
0.0
 11
32.48511150820137
 21
102.4926463053888
 31
0.0
 12
34.98511150820137
 22
102.9093129720554
 32
0.0
 13
34.98511150820137
 23
102.9093129720554
 33
0.0
  0
MTEXT
  5
1C0
330
1B8
100
AcDbEntity
  8
Dimension (ANSI)
440
 16777216
100
AcDbMText
 10
18.4349856535225
 20
102.9093129720554
 30
0.0
 40
3.04800009727478
 41
0.0
 71
     5
 72
     1
  1
\A1; .33\P [8.4]
  7
Note Text (ANSI)
 73
     1
 44
1.0
  0
POINT
  5
1C1
330
1B8
100
AcDbEntity
  8
Defpoints
 62
     0
440
 16777216
100
AcDbPoint
 10
34.98511150820137
 20
80.90931297205557
 30
0.0
  0
POINT
  5
1C2
330
1B8
100
AcDbEntity
  8
Defpoints
 62
     0
440
 16777216
100
AcDbPoint
 10
43.36511150820136
 20
80.90931297205557
 30
0.0
  0
POINT
  5
1C3
330
1B8
100
AcDbEntity
  8
Defpoints
 62
     0
440
 16777216
100
AcDbPoint
 10
43.36511150820136
 20
102.9093129720554
 30
0.0
  0
ENDBLK
  5
1C4
330
1B8
100
AcDbEntity
  8
0
100
AcDbBlockEnd
  0
BLOCK
  5
285
330
1CE
100
AcDbEntity
  8
0
100
AcDbBlockBegin
  2
A$C0F0A554F
 70
     0
 10
0.0
 20
0.0
 30
0.0
  3
A$C0F0A554F
  1

  0
LINE
  5
1CF
330
1CE
100
AcDbEntity
  8
Visible (ANSI)
100
AcDbLine
 10
-25.21000000000001
 20
-39.68430143929663
 30
0.0
 11
-25.21000000000001
 21
-37.65430143929666
 31
0.0
  0
LINE
  5
1D0
330
1CE
100
AcDbEntity
  8
Visible Narrow (ANSI)
100
AcDbLine
 10
-25.21000000000001
 20
-39.68430143929663
 30
0.0
 11
-21.02000000000007
 21
-39.68430143929663
 31
0.0
  0
LINE
  5
1D1
330
1CE
100
AcDbEntity
  8
Visible (ANSI)
100
AcDbLine
 10
-21.02000000000007
 20
-37.65430143929666
 30
0.0
 11
-21.02000000000007
 21
-39.68430143929663
 31
0.0
  0
LINE
  5
1D2
330
1CE
100
AcDbEntity
  8
Visible (ANSI)
100
AcDbLine
 10
-21.02000000000007
 20
-37.65430143929666
 30
0.0
 11
-25.21000000000001
 21
-37.65430143929666
 31
0.0
  0
LINE
  5
1D3
330
1CE
100
AcDbEntity
  8
Visible (ANSI)
100
AcDbLine
 10
-21.02000000000007
 20
-46.12
 30
0.0
 11
-21.02000000000007
 21
-39.68430143929663
 31
0.0
  0
LINE
  5
1D4
330
1CE
100
AcDbEntity
  8
Visible (ANSI)
100
AcDbLine
 10
-25.21000000000001
 20
-39.68430143929663
 30
0.0
 11
-25.21000000000001
 21
-46.12
 31
0.0
  0
LINE
  5
1D5
330
1CE
100
AcDbEntity
  8
Visible (ANSI)
100
AcDbLine
 10
-21.02000000000007
 20
-46.12
 30
0.0
 11
-25.21000000000001
 21
-46.12
 31
0.0
  0
LINE
  5
1D6
330
1CE
100
AcDbEntity
  8
Visible (ANSI)
100
AcDbLine
 10
-29.46500000000001
 20
-38.09799999999995
 30
0.0
 11
-29.46500000000001
 21
-23.87
 31
0.0
  0
LINE
  5
1D7
330
1CE
100
AcDbEntity
  8
Visible (ANSI)
100
AcDbLine
 10
-29.46500000000001
 20
-2.279999999999972
 30
0.0
 11
-29.46500000000001
 21
6.206999999999993
 31
0.0
  0
LINE
  5
1D8
330
1CE
100
AcDbEntity
  8
Visible (ANSI)
100
AcDbLine
 10
-26.28500000000006
 20
9.387000000000057
 30
0.0
 11
-24.51000000000008
 21
9.387000000000057
 31
0.0
  0
LINE
  5
1D9
330
1CE
100
AcDbEntity
  8
Visible (ANSI)
100
AcDbLine
 10
-21.72
 20
9.387000000000057
 30
0.0
 11
-19.94500000000002
 21
9.387000000000057
 31
0.0
  0
LINE
  5
1DA
330
1CE
100
AcDbEntity
  8
Visible (ANSI)
100
AcDbLine
 10
-16.76500000000007
 20
6.206999999999993
 30
0.0
 11
-16.76500000000007
 21
-2.279999999999972
 31
0.0
  0
LINE
  5
1DB
330
1CE
100
AcDbEntity
  8
Visible (ANSI)
100
AcDbLine
 10
-16.76500000000007
 20
-23.87
 30
0.0
 11
-16.76500000000007
 21
-38.09799999999995
 31
0.0
  0
LINE
  5
1DC
330
1CE
100
AcDbEntity
  8
Visible (ANSI)
100
AcDbLine
 10
-29.46500000000001
 20
-23.11000000000001
 30
0.0
 11
-29.46500000000001
 21
-23.87
 31
0.0
  0
LINE
  5
1DD
330
1CE
100
AcDbEntity
  8
Visible (ANSI)
100
AcDbLine
 10
-29.46500000000001
 20
-23.87
 30
0.0
 11
-28.57500000000002
 21
-23.87
 31
0.0
  0
LINE
  5
1DE
330
1CE
100
AcDbEntity
  8
Visible (ANSI)
100
AcDbLine
 10
-28.57500000000002
 20
-23.87
 30
0.0
 11
-28.57500000000002
 21
-23.11000000000001
 31
0.0
  0
LINE
  5
1DF
330
1CE
100
AcDbEntity
  8
Visible (ANSI)
100
AcDbLine
 10
-28.57500000000002
 20
-23.11000000000001
 30
0.0
 11
-29.46500000000001
 21
-23.11000000000001
 31
0.0
  0
LINE
  5
1E0
330
1CE
100
AcDbEntity
  8
Visible (ANSI)
100
AcDbLine
 10
-29.46500000000001
 20
-23.11000000000001
 30
0.0
 11
-29.46500000000001
 21
-3.039999999999963
 31
0.0
  0
LINE
  5
1E1
330
1CE
100
AcDbEntity
  8
Visible (ANSI)
100
AcDbLine
 10
-17.65500000000006
 20
-23.11000000000001
 30
0.0
 11
-17.65500000000006
 21
-3.039999999999963
 31
0.0
  0
LINE
  5
1E2
330
1CE
100
AcDbEntity
  8
Visible (ANSI)
100
AcDbLine
 10
-16.76500000000007
 20
-3.039999999999963
 30
0.0
 11
-16.76500000000007
 21
-23.11000000000001
 31
0.0
  0
LINE
  5
1E3
330
1CE
100
AcDbEntity
  8
Visible (ANSI)
100
AcDbLine
 10
-28.57500000000002
 20
-3.039999999999963
 30
0.0
 11
-28.57500000000002
 21
-23.11000000000001
 31
0.0
  0
LINE
  5
1E4
330
1CE
100
AcDbEntity
  8
Visible (ANSI)
100
AcDbLine
 10
-29.46500000000001
 20
-2.279999999999972
 30
0.0
 11
-29.46500000000001
 21
-3.039999999999963
 31
0.0
  0
LINE
  5
1E5
330
1CE
100
AcDbEntity
  8
Visible (ANSI)
100
AcDbLine
 10
-29.46500000000001
 20
-3.039999999999963
 30
0.0
 11
-28.57500000000002
 21
-3.039999999999963
 31
0.0
  0
LINE
  5
1E6
330
1CE
100
AcDbEntity
  8
Visible (ANSI)
100
AcDbLine
 10
-28.57500000000002
 20
-3.039999999999963
 30
0.0
 11
-28.57500000000002
 21
-2.279999999999972
 31
0.0
  0
LINE
  5
1E7
330
1CE
100
AcDbEntity
  8
Visible (ANSI)
100
AcDbLine
 10
-28.57500000000002
 20
-2.279999999999972
 30
0.0
 11
-29.46500000000001
 21
-2.279999999999972
 31
0.0
  0
LINE
  5
1E8
330
1CE
100
AcDbEntity
  8
Visible (ANSI)
100
AcDbLine
 10
-21.72
 20
9.387000000000057
 30
0.0
 11
-24.51000000000008
 21
9.387000000000057
 31
0.0
  0
LINE
  5
1E9
330
1CE
100
AcDbEntity
  8
Visible (ANSI)
100
AcDbLine
 10
-21.72
 20
9.387000000000057
 30
0.0
 11
-21.72
 21
7.096999999999979
 31
0.0
  0
LINE
  5
1EA
330
1CE
100
AcDbEntity
  8
Visible (ANSI)
100
AcDbLine
 10
-24.51000000000008
 20
7.096999999999979
 30
0.0
 11
-24.51000000000008
 21
9.387000000000057
 31
0.0
  0
LINE
  5
1EB
330
1CE
100
AcDbEntity
  8
Visible Narrow (ANSI)
100
AcDbLine
 10
-24.51000000000008
 20
7.096999999999979
 30
0.0
 11
-21.72
 21
7.096999999999979
 31
0.0
  0
LINE
  5
1EC
330
1CE
100
AcDbEntity
  8
Visible (ANSI)
100
AcDbLine
 10
-22.36499999999999
 20
-24.70787333965473
 30
0.0
 11
-22.36499999999999
 21
3.197000000000002
 31
0.0
  0
LINE
  5
1ED
330
1CE
100
AcDbEntity
  8
Visible (ANSI)
100
AcDbLine
 10
-23.86499999999998
 20
3.197000000000002
 30
0.0
 11
-23.86499999999998
 21
-24.70787333965473
 31
0.0
  0
LINE
  5
1EE
330
1CE
100
AcDbEntity
  8
Visible (ANSI)
100
AcDbLine
 10
-22.36499999999999
 20
-24.70787333965473
 30
0.0
 11
-23.86499999999998
 21
-24.70787333965473
 31
0.0
  0
LINE
  5
1EF
330
1CE
100
AcDbEntity
  8
Visible (ANSI)
100
AcDbLine
 10
-28.57500000000002
 20
-23.87
 30
0.0
 11
-23.86499999999998
 21
-23.87
 31
0.0
  0
LINE
  5
1F0
330
1CE
100
AcDbEntity
  8
Visible (ANSI)
100
AcDbLine
 10
-22.36499999999999
 20
-23.87
 30
0.0
 11
-17.65500000000006
 21
-23.87
 31
0.0
  0
LINE
  5
1F1
330
1CE
100
AcDbEntity
  8
Visible (ANSI)
100
AcDbLine
 10
-29.46500000000001
 20
-23.87
 30
0.0
 11
-25.21000000000001
 21
-37.65430143929666
 31
0.0
  0
LINE
  5
1F2
330
1CE
100
AcDbEntity
  8
Visible (ANSI)
100
AcDbLine
 10
-21.02000000000007
 20
-37.65430143929666
 30
0.0
 11
-16.76500000000007
 21
-23.87
 31
0.0
  0
ARC
  5
1F3
330
1CE
100
AcDbEntity
  8
Visible (ANSI)
100
AcDbCircle
 10
-26.28500000000006
 20
6.206999999999993
 30
0.0
 40
3.179999999999994
100
AcDbArc
 50
90.0
 51
180.0
  0
ARC
  5
1F4
330
1CE
100
AcDbEntity
  8
Visible (ANSI)
100
AcDbCircle
 10
-19.94500000000002
 20
6.206999999999993
 30
0.0
 40
3.179999999999996
100
AcDbArc
 50
0.0
 51
90.0
  0
LINE
  5
1F5
330
1CE
100
AcDbEntity
  8
Visible (ANSI)
100
AcDbLine
 10
-24.51000000000008
 20
7.096999999999979
 30
0.0
 11
-24.51000000000008
 21
5.767000000000052
 31
0.0
  0
LINE
  5
1F6
330
1CE
100
AcDbEntity
  8
Visible (ANSI)
100
AcDbLine
 10
-24.51000000000008
 20
5.767000000000052
 30
0.0
 11
-21.72
 21
5.767000000000052
 31
0.0
  0
LINE
  5
1F7
330
1CE
100
AcDbEntity
  8
Visible (ANSI)
100
AcDbLine
 10
-21.72
 20
5.767000000000052
 30
0.0
 11
-21.72
 21
7.096999999999979
 31
0.0
  0
LINE
  5
1F8
330
1CE
100
AcDbEntity
  8
Visible (ANSI)
100
AcDbLine
 10
-24.51000000000008
 20
5.767000000000052
 30
0.0
 11
-24.51000000000008
 21
3.197000000000002
 31
0.0
  0
LINE
  5
1F9
330
1CE
100
AcDbEntity
  8
Visible (ANSI)
100
AcDbLine
 10
-24.51000000000008
 20
3.197000000000002
 30
0.0
 11
-21.72
 21
3.197000000000002
 31
0.0
  0
LINE
  5
1FA
330
1CE
100
AcDbEntity
  8
Visible (ANSI)
100
AcDbLine
 10
-21.72
 20
3.197000000000002
 30
0.0
 11
-21.72
 21
5.767000000000052
 31
0.0
  0
LINE
  5
1FB
330
1CE
100
AcDbEntity
  8
Visible (ANSI)
100
AcDbLine
 10
-17.65500000000006
 20
-23.11000000000001
 30
0.0
 11
-17.65500000000006
 21
-23.87
 31
0.0
  0
LINE
  5
1FC
330
1CE
100
AcDbEntity
  8
Visible (ANSI)
100
AcDbLine
 10
-17.65500000000006
 20
-23.87
 30
0.0
 11
-16.76500000000007
 21
-23.87
 31
0.0
  0
LINE
  5
1FD
330
1CE
100
AcDbEntity
  8
Visible (ANSI)
100
AcDbLine
 10
-16.76500000000007
 20
-23.87
 30
0.0
 11
-16.76500000000007
 21
-23.11000000000001
 31
0.0
  0
LINE
  5
1FE
330
1CE
100
AcDbEntity
  8
Visible (ANSI)
100
AcDbLine
 10
-16.76500000000007
 20
-23.11000000000001
 30
0.0
 11
-17.65500000000006
 21
-23.11000000000001
 31
0.0
  0
LINE
  5
1FF
330
1CE
100
AcDbEntity
  8
Visible (ANSI)
100
AcDbLine
 10
-17.65500000000006
 20
-2.279999999999972
 30
0.0
 11
-17.65500000000006
 21
-3.039999999999963
 31
0.0
  0
LINE
  5
200
330
1CE
100
AcDbEntity
  8
Visible (ANSI)
100
AcDbLine
 10
-17.65500000000006
 20
-3.039999999999963
 30
0.0
 11
-16.76500000000007
 21
-3.039999999999963
 31
0.0
  0
LINE
  5
201
330
1CE
100
AcDbEntity
  8
Visible (ANSI)
100
AcDbLine
 10
-16.76500000000007
 20
-3.039999999999963
 30
0.0
 11
-16.76500000000007
 21
-2.279999999999972
 31
0.0
  0
LINE
  5
202
330
1CE
100
AcDbEntity
  8
Visible (ANSI)
100
AcDbLine
 10
-16.76500000000007
 20
-2.279999999999972
 30
0.0
 11
-17.65500000000006
 21
-2.279999999999972
 31
0.0
  0
ARC
  5
203
330
1CE
100
AcDbEntity
  8
Visible (ANSI)
100
AcDbCircle
 10
-13.59000000000001
 20
-38.09799999999995
 30
0.0
 40
3.174999999999994
100
AcDbArc
 50
180.0
 51
270.0
  0
ARC
  5
204
330
1CE
100
AcDbEntity
  8
Visible (ANSI)
100
AcDbCircle
 10
-13.59000000000001
 20
-38.09799999999995
 30
0.0
 40
3.174999999999994
100
AcDbArc
 50
270.0
 51
0.0
  0
ARC
  5
205
330
1CE
100
AcDbEntity
  8
Visible (ANSI)
100
AcDbCircle
 10
-32.64000000000007
 20
-38.09799999999995
 30
0.0
 40
3.174999999999998
100
AcDbArc
 50
270.0
 51
0.0
  0
ARC
  5
206
330
1CE
100
AcDbEntity
  8
Visible (ANSI)
100
AcDbCircle
 10
-32.64000000000007
 20
-38.09799999999995
 30
0.0
 40
3.174999999999997
100
AcDbArc
 50
180.0
 51
270.0
  0
LINE
  5
207
330
1CE
100
AcDbEntity
  8
Visible (ANSI)
100
AcDbLine
 10
-25.21000000000001
 20
-42.66999999999995
 30
0.0
 11
-51.69000000000003
 21
-42.66999999999995
 31
0.0
  0
LINE
  5
208
330
1CE
100
AcDbEntity
  8
Visible (ANSI)
100
AcDbLine
 10
5.459999999999947
 20
-42.66999999999995
 30
0.0
 11
-21.02000000000007
 21
-42.66999999999995
 31
0.0
  0
LINE
  5
209
330
1CE
100
AcDbEntity
  8
Visible (ANSI)
100
AcDbLine
 10
5.459999999999947
 20
19.81000000000006
 30
0.0
 11
5.459999999999947
 21
-42.66999999999995
 31
0.0
  0
LINE
  5
20A
330
1CE
100
AcDbEntity
  8
Visible (ANSI)
100
AcDbLine
 10
4.05999999999997
 20
0.0
 30
0.0
 11
4.05999999999997
 21
19.81000000000006
 31
0.0
  0
LINE
  5
20B
330
1CE
100
AcDbEntity
  8
Visible (ANSI)
100
AcDbLine
 10
-46.22999999999999
 20
24.8900000000001
 30
0.0
 11
-0.0000000000000888
 21
24.8900000000001
 31
0.0
  0
LINE
  5
20C
330
1CE
100
AcDbEntity
  8
Visible (ANSI)
100
AcDbLine
 10
-50.29000000000005
 20
19.81000000000006
 30
0.0
 11
-50.29000000000005
 21
0.0
 31
0.0
  0
LINE
  5
20D
330
1CE
100
AcDbEntity
  8
Visible (ANSI)
100
AcDbLine
 10
-51.69000000000003
 20
-42.66999999999995
 30
0.0
 11
-51.69000000000003
 21
19.81000000000006
 31
0.0
  0
LINE
  5
20E
330
1CE
100
AcDbEntity
  8
Visible (ANSI)
100
AcDbLine
 10
1.395000000000006
 20
24.8900000000001
 30
0.0
 11
1.395000000000006
 21
19.81000000000006
 31
0.0
  0
LINE
  5
20F
330
1CE
100
AcDbEntity
  8
Visible (ANSI)
100
AcDbLine
 10
-47.62500000000009
 20
19.81000000000006
 30
0.0
 11
-47.62500000000009
 21
24.8900000000001
 31
0.0
  0
LINE
  5
210
330
1CE
100
AcDbEntity
  8
Visible (ANSI)
100
AcDbLine
 10
-37.21199999999996
 20
-41.27299999999991
 30
0.0
 11
-50.29300000000009
 21
-41.27299999999991
 31
0.0
  0
LINE
  5
211
330
1CE
100
AcDbEntity
  8
Visible (ANSI)
100
AcDbLine
 10
-50.29300000000009
 20
-41.27299999999991
 30
0.0
 11
-50.29300000000009
 21
-5.072999999999979
 31
0.0
  0
LINE
  5
212
330
1CE
100
AcDbEntity
  8
Visible (ANSI)
100
AcDbLine
 10
-50.29300000000009
 20
-5.072999999999979
 30
0.0
 11
-37.21199999999996
 21
-5.072999999999979
 31
0.0
  0
LINE
  5
213
330
1CE
100
AcDbEntity
  8
Visible (ANSI)
100
AcDbLine
 10
-37.21199999999996
 20
-5.072999999999979
 30
0.0
 11
-37.21199999999996
 21
-41.27299999999991
 31
0.0
  0
LINE
  5
214
330
1CE
100
AcDbEntity
  8
Visible (ANSI)
100
AcDbLine
 10
4.062999999999899
 20
-5.072999999999979
 30
0.0
 11
4.062999999999899
 21
-41.27299999999991
 31
0.0
  0
LINE
  5
215
330
1CE
100
AcDbEntity
  8
Visible (ANSI)
100
AcDbLine
 10
4.062999999999899
 20
-41.27299999999991
 30
0.0
 11
-9.018000000000004
 21
-41.27299999999991
 31
0.0
  0
LINE
  5
216
330
1CE
100
AcDbEntity
  8
Visible (ANSI)
100
AcDbLine
 10
-9.018000000000004
 20
-41.27299999999991
 30
0.0
 11
-9.018000000000004
 21
-5.072999999999979
 31
0.0
  0
LINE
  5
217
330
1CE
100
AcDbEntity
  8
Visible (ANSI)
100
AcDbLine
 10
-9.018000000000004
 20
-5.072999999999979
 30
0.0
 11
4.062999999999899
 21
-5.072999999999979
 31
0.0
  0
LINE
  5
218
330
1CE
100
AcDbEntity
  8
Visible (ANSI)
100
AcDbLine
 10
-21.52500000000006
 20
23.49299999999994
 30
0.0
 11
-1.397000000000023
 21
23.49299999999994
 31
0.0
  0
LINE
  5
219
330
1CE
100
AcDbEntity
  8
Visible (ANSI)
100
AcDbLine
 10
-1.397000000000023
 20
23.49299999999994
 30
0.0
 11
-1.397000000000023
 21
-3.67599999999993
 31
0.0
  0
LINE
  5
21A
330
1CE
100
AcDbEntity
  8
Visible (ANSI)
100
AcDbLine
 10
-1.397000000000023
 20
-3.67599999999993
 30
0.0
 11
-9.018000000000004
 21
-3.67599999999993
 31
0.0
  0
LINE
  5
21B
330
1CE
100
AcDbEntity
  8
Visible (ANSI)
100
AcDbLine
 10
-9.018000000000004
 20
-3.67599999999993
 30
0.0
 11
-9.018000000000004
 21
16.03269856070346
 31
0.0
  0
LINE
  5
21C
330
1CE
100
AcDbEntity
  8
Visible (ANSI)
100
AcDbLine
 10
-9.018000000000004
 20
16.03269856070346
 30
0.0
 11
-22.41650000000002
 21
16.03269856070346
 31
0.0
  0
LINE
  5
21D
330
1CE
100
AcDbEntity
  8
Visible (ANSI)
100
AcDbLine
 10
-22.41650000000002
 20
16.03269856070346
 30
0.0
 11
-22.41650000000002
 21
19.8130000000001
 31
0.0
  0
LINE
  5
21E
330
1CE
100
AcDbEntity
  8
Visible (ANSI)
100
AcDbLine
 10
-23.81350000000006
 20
19.8130000000001
 30
0.0
 11
-23.81350000000006
 21
16.03269856070346
 31
0.0
  0
LINE
  5
21F
330
1CE
100
AcDbEntity
  8
Visible (ANSI)
100
AcDbLine
 10
-23.81350000000006
 20
16.03269856070346
 30
0.0
 11
-37.21199999999996
 21
16.03269856070346
 31
0.0
  0
LINE
  5
220
330
1CE
100
AcDbEntity
  8
Visible (ANSI)
100
AcDbLine
 10
-37.21199999999996
 20
16.03269856070346
 30
0.0
 11
-37.21199999999996
 21
-3.67599999999993
 31
0.0
  0
LINE
  5
221
330
1CE
100
AcDbEntity
  8
Visible (ANSI)
100
AcDbLine
 10
-37.21199999999996
 20
-3.67599999999993
 30
0.0
 11
-44.83300000000006
 21
-3.67599999999993
 31
0.0
  0
LINE
  5
222
330
1CE
100
AcDbEntity
  8
Visible (ANSI)
100
AcDbLine
 10
-44.83300000000006
 20
-3.67599999999993
 30
0.0
 11
-44.83300000000006
 21
23.49299999999994
 31
0.0
  0
LINE
  5
223
330
1CE
100
AcDbEntity
  8
Visible (ANSI)
100
AcDbLine
 10
-44.83300000000006
 20
23.49299999999994
 30
0.0
 11
-24.70500000000002
 21
23.49299999999994
 31
0.0
  0
LINE
  5
224
330
1CE
100
AcDbEntity
  8
Visible (ANSI)
100
AcDbLine
 10
-25.21000000000001
 20
-41.27299999999991
 30
0.0
 11
-32.64000000000007
 21
-41.27299999999991
 31
0.0
  0
LINE
  5
225
330
1CE
100
AcDbEntity
  8
Visible (ANSI)
100
AcDbLine
 10
-35.81500000000003
 20
-38.09799999999995
 30
0.0
 11
-35.81500000000003
 21
14.6356985607033
 31
0.0
  0
LINE
  5
226
330
1CE
100
AcDbEntity
  8
Visible (ANSI)
100
AcDbLine
 10
-35.81500000000003
 20
14.6356985607033
 30
0.0
 11
-10.41500000000005
 21
14.6356985607033
 31
0.0
  0
LINE
  5
227
330
1CE
100
AcDbEntity
  8
Visible (ANSI)
100
AcDbLine
 10
-10.41500000000005
 20
14.6356985607033
 30
0.0
 11
-10.41500000000005
 21
-38.09799999999995
 31
0.0
  0
LINE
  5
228
330
1CE
100
AcDbEntity
  8
Visible (ANSI)
100
AcDbLine
 10
-13.59000000000001
 20
-41.27299999999991
 30
0.0
 11
-21.02000000000007
 21
-41.27299999999991
 31
0.0
  0
ARC
  5
229
330
1CE
100
AcDbEntity
  8
Visible (ANSI)
100
AcDbCircle
 10
2.029999999999997
 20
0.0
 30
0.0
 40
2.029999999999998
100
AcDbArc
 50
180.0
 51
0.0
  0
LINE
  5
22A
330
1CE
100
AcDbEntity
  8
Visible (ANSI)
100
AcDbLine
 10
0.0000000000000249
 20
0.0
 30
0.0
 11
0.0000000000000249
 21
24.8900000000001
 31
0.0
  0
LINE
  5
22B
330
1CE
100
AcDbEntity
  8
Visible (ANSI)
100
AcDbLine
 10
-46.22999999999999
 20
24.8900000000001
 30
0.0
 11
-46.22999999999999
 21
0.0
 31
0.0
  0
ARC
  5
22C
330
1CE
100
AcDbEntity
  8
Visible (ANSI)
100
AcDbCircle
 10
-48.26000000000007
 20
0.0
 30
0.0
 40
2.030000000000002
100
AcDbArc
 50
180.0
 51
0.0
  0
LINE
  5
22D
330
1CE
100
AcDbEntity
  8
Visible (ANSI)
100
AcDbLine
 10
-24.70500000000002
 20
19.8130000000001
 30
0.0
 11
-24.70500000000002
 21
23.49299999999994
 31
0.0
  0
LINE
  5
22E
330
1CE
100
AcDbEntity
  8
Visible (ANSI)
100
AcDbLine
 10
-24.70500000000002
 20
23.49299999999994
 30
0.0
 11
-21.52500000000006
 21
23.49299999999994
 31
0.0
  0
LINE
  5
22F
330
1CE
100
AcDbEntity
  8
Visible (ANSI)
100
AcDbLine
 10
-21.52500000000006
 20
23.49299999999994
 30
0.0
 11
-21.52500000000006
 21
19.8130000000001
 31
0.0
  0
LINE
  5
230
330
1CE
100
AcDbEntity
  8
Visible (ANSI)
100
AcDbLine
 10
-21.52500000000006
 20
19.8130000000001
 30
0.0
 11
-24.70500000000002
 21
19.8130000000001
 31
0.0
  0
LINE
  5
231
330
1CE
100
AcDbEntity
  8
Visible (ANSI)
100
AcDbLine
 10
1.395000000000006
 20
19.81000000000006
 30
0.0
 11
5.459999999999947
 21
19.81000000000006
 31
0.0
  0
LINE
  5
232
330
1CE
100
AcDbEntity
  8
Visible (ANSI)
100
AcDbLine
 10
-51.69000000000003
 20
19.81000000000006
 30
0.0
 11
-47.62500000000009
 21
19.81000000000006
 31
0.0
  0
LINE
  5
233
330
1CE
100
AcDbEntity
  8
Visible (ANSI)
100
AcDbLine
 10
5.459999999999947
 20
24.8900000000001
 30
0.0
 11
5.459999999999947
 21
19.81000000000006
 31
0.0
  0
LINE
  5
234
330
1CE
100
AcDbEntity
  8
Visible (ANSI)
100
AcDbLine
 10
1.395000000000006
 20
24.8900000000001
 30
0.0
 11
5.459999999999947
 21
24.8900000000001
 31
0.0
  0
LINE
  5
235
330
1CE
100
AcDbEntity
  8
Visible (ANSI)
100
AcDbLine
 10
-51.69000000000003
 20
24.8900000000001
 30
0.0
 11
-47.62500000000009
 21
24.8900000000001
 31
0.0
  0
LINE
  5
236
330
1CE
100
AcDbEntity
  8
Visible (ANSI)
100
AcDbLine
 10
-51.69000000000003
 20
19.81000000000006
 30
0.0
 11
-51.69000000000003
 21
24.8900000000001
 31
0.0
  0
ARC
  5
237
330
1CE
100
AcDbEntity
  8
Visible (ANSI)
100
AcDbCircle
 10
57.81479025997569
 20
-39.68430143929663
 30
0.0
 40
2.029999999999997
100
AcDbArc
 50
90.0
 51
180.0
  0
ARC
  5
238
330
1CE
100
AcDbEntity
  8
Visible (ANSI)
100
AcDbCircle
 10
68.36479025997565
 20
-39.68430143929663
 30
0.0
 40
2.029999999999996
100
AcDbArc
 50
0.0
 51
90.0
  0
LINE
  5
239
330
1CE
100
AcDbEntity
  8
Visible (ANSI)
100
AcDbLine
 10
57.81479025997569
 20
-37.65430143929666
 30
0.0
 11
58.89979025997573
 21
-37.65430143929666
 31
0.0
  0
LINE
  5
23A
330
1CE
100
AcDbEntity
  8
Visible (ANSI)
100
AcDbLine
 10
55.78479025997572
 20
-46.12
 30
0.0
 11
55.78479025997572
 21
-39.68430143929663
 31
0.0
  0
LINE
  5
23B
330
1CE
100
AcDbEntity
  8
Visible (ANSI)
100
AcDbLine
 10
57.6897902599757
 20
-46.12
 30
0.0
 11
55.78479025997572
 21
-46.12
 31
0.0
  0
LINE
  5
23C
330
1CE
100
AcDbEntity
  8
Visible (ANSI)
100
AcDbLine
 10
57.6897902599757
 20
-42.66999999999995
 30
0.0
 11
58.89979025997573
 21
-42.66999999999995
 31
0.0
  0
LINE
  5
23D
330
1CE
100
AcDbEntity
  8
Visible (ANSI)
100
AcDbLine
 10
70.39479025997562
 20
-39.68430143929663
 30
0.0
 11
70.39479025997573
 21
-46.12
 31
0.0
  0
LINE
  5
23E
330
1CE
100
AcDbEntity
  8
Visible (ANSI)
100
AcDbLine
 10
67.27979025997573
 20
-37.65430143929666
 30
0.0
 11
68.36479025997565
 21
-37.65430143929666
 31
0.0
  0
LINE
  5
23F
330
1CE
100
AcDbEntity
  8
Visible (ANSI)
100
AcDbLine
 10
67.27979025997573
 20
-42.66999999999995
 30
0.0
 11
68.48979025997564
 21
-42.66999999999995
 31
0.0
  0
LINE
  5
240
330
1CE
100
AcDbEntity
  8
Visible (ANSI)
100
AcDbLine
 10
70.39479025997573
 20
-46.12
 30
0.0
 11
68.48979025997564
 21
-46.12
 31
0.0
  0
LINE
  5
241
330
1CE
100
AcDbEntity
  8
Visible (ANSI)
100
AcDbLine
 10
57.6897902599757
 20
-46.12
 30
0.0
 11
57.6897902599757
 21
-42.66999999999995
 31
0.0
  0
LINE
  5
242
330
1CE
100
AcDbEntity
  8
Visible (ANSI)
100
AcDbLine
 10
68.48979025997564
 20
-42.66999999999995
 30
0.0
 11
68.48979025997564
 21
-46.12
 31
0.0
  0
ARC
  5
243
330
1CE
100
AcDbEntity
  8
Visible (ANSI)
100
AcDbCircle
 10
66.51479025997551
 20
7.096999999999979
 30
0.0
 40
2.289999999999996
100
AcDbArc
 50
0.0
 51
70.48454381043962
  0
LINE
  5
244
330
1CE
100
AcDbEntity
  8
Visible (ANSI)
100
AcDbLine
 10
67.2797902599755
 20
4.814074238338321
 30
0.0
 11
68.80479025997548
 21
5.767000000000052
 31
0.0
  0
LINE
  5
245
330
1CE
100
AcDbEntity
  8
Visible (ANSI)
100
AcDbLine
 10
68.80479025997548
 20
5.767000000000052
 30
0.0
 11
68.80479025997548
 21
7.096999999999979
 31
0.0
  0
ARC
  5
246
330
1CE
100
AcDbEntity
  8
Visible (ANSI)
100
AcDbCircle
 10
59.66479025997549
 20
7.096999999999979
 30
0.0
 40
2.289999999999995
100
AcDbArc
 50
109.5154561895604
 51
180.0
  0
LINE
  5
247
330
1CE
100
AcDbEntity
  8
Visible (ANSI)
100
AcDbLine
 10
57.37479025997552
 20
5.767000000000052
 30
0.0
 11
57.37479025997552
 21
7.096999999999979
 31
0.0
  0
LINE
  5
248
330
1CE
100
AcDbEntity
  8
Visible (ANSI)
100
AcDbLine
 10
58.89979025997551
 20
4.814074238338321
 30
0.0
 11
57.37479025997552
 21
5.767000000000052
 31
0.0
  0
LINE
  5
249
330
1CE
100
AcDbEntity
  8
Visible (ANSI)
100
AcDbLine
 10
67.27979025998357
 20
-42.66999999999995
 30
0.0
 11
67.27979025998357
 21
19.81000000000006
 31
0.0
  0
LINE
  5
24A
330
1CE
100
AcDbEntity
  8
Visible (ANSI)
100
AcDbLine
 10
58.89979025998357
 20
19.81000000000006
 30
0.0
 11
58.89979025998357
 21
-42.66999999999995
 31
0.0
  0
LINE
  5
24B
330
1CE
100
AcDbEntity
  8
Visible (ANSI)
100
AcDbLine
 10
67.27979025998357
 20
-42.66999999999995
 30
0.0
 11
58.89979025998357
 21
-42.66999999999995
 31
0.0
  0
LINE
  5
24C
330
1CE
100
AcDbEntity
  8
Visible (ANSI)
100
AcDbLine
 10
55.14979025998357
 20
24.8900000000001
 30
0.0
 11
55.14979025998357
 21
19.81000000000006
 31
0.0
  0
LINE
  5
24D
330
1CE
100
AcDbEntity
  8
Visible (ANSI)
100
AcDbLine
 10
71.02979025998357
 20
19.81000000000006
 30
0.0
 11
71.02979025998357
 21
24.8900000000001
 31
0.0
  0
LINE
  5
24E
330
1CE
100
AcDbEntity
  8
Visible (ANSI)
100
AcDbLine
 10
71.02979025998357
 20
24.8900000000001
 30
0.0
 11
55.14979025998357
 21
24.8900000000001
 31
0.0
  0
LINE
  5
24F
330
1CE
100
AcDbEntity
  8
Visible (ANSI)
100
AcDbLine
 10
55.14979025998357
 20
19.81000000000006
 30
0.0
 11
58.89979025998357
 21
19.81000000000006
 31
0.0
  0
LINE
  5
250
330
1CE
100
AcDbEntity
  8
Visible (ANSI)
100
AcDbLine
 10
67.27979025998357
 20
19.81000000000006
 30
0.0
 11
71.02979025998357
 21
19.81000000000006
 31
0.0
  0
LINE
  5
251
330
1CE
100
AcDbEntity
  8
Visible (ANSI)
100
AcDbLine
 10
-25.20999999997727
 20
58.56749798812029
 30
0.0
 11
-25.20999999997727
 21
60.59749798812095
 31
0.0
  0
LINE
  5
252
330
1CE
100
AcDbEntity
  8
Visible (ANSI)
100
AcDbLine
 10
-25.20999999997727
 20
58.56749798812029
 30
0.0
 11
-21.01999999997733
 21
58.56749798812029
 31
0.0
  0
LINE
  5
253
330
1CE
100
AcDbEntity
  8
Visible (ANSI)
100
AcDbLine
 10
-21.01999999997733
 20
60.59749798812095
 30
0.0
 11
-21.01999999997733
 21
58.56749798812029
 31
0.0
  0
LINE
  5
254
330
1CE
100
AcDbEntity
  8
Visible Narrow (ANSI)
100
AcDbLine
 10
-21.01999999997733
 20
60.59749798812095
 30
0.0
 11
-21.52499999997733
 21
60.59749798812095
 31
0.0
  0
LINE
  5
255
330
1CE
100
AcDbEntity
  8
Visible Narrow (ANSI)
100
AcDbLine
 10
-24.70499999997739
 20
60.59749798812095
 30
0.0
 11
-25.20999999997727
 21
60.59749798812095
 31
0.0
  0
LINE
  5
256
330
1CE
100
AcDbEntity
  8
Visible (ANSI)
100
AcDbLine
 10
-25.20999999997727
 20
71.1474979881209
 30
0.0
 11
-25.20999999997727
 21
73.1774979881203
 31
0.0
  0
LINE
  5
257
330
1CE
100
AcDbEntity
  8
Visible Narrow (ANSI)
100
AcDbLine
 10
-25.20999999997727
 20
71.1474979881209
 30
0.0
 11
-24.70499999997739
 21
71.1474979881209
 31
0.0
  0
LINE
  5
258
330
1CE
100
AcDbEntity
  8
Visible Narrow (ANSI)
100
AcDbLine
 10
-21.52499999997733
 20
71.1474979881209
 30
0.0
 11
-21.01999999997733
 21
71.1474979881209
 31
0.0
  0
LINE
  5
259
330
1CE
100
AcDbEntity
  8
Visible (ANSI)
100
AcDbLine
 10
-21.01999999997733
 20
73.17749798812042
 30
0.0
 11
-21.01999999997733
 21
71.1474979881209
 31
0.0
  0
LINE
  5
25A
330
1CE
100
AcDbEntity
  8
Visible (ANSI)
100
AcDbLine
 10
-21.01999999997733
 20
73.17749798812042
 30
0.0
 11
-25.20999999997727
 21
73.17749798812042
 31
0.0
  0
LINE
  5
25B
330
1CE
100
AcDbEntity
  8
Visible (ANSI)
100
AcDbLine
 10
-21.01999999997733
 20
60.59749798812095
 30
0.0
 11
-21.01999999997733
 21
61.68249798812098
 31
0.0
  0
LINE
  5
25C
330
1CE
100
AcDbEntity
  8
Visible (ANSI)
100
AcDbLine
 10
-25.20999999997727
 20
61.68249798812098
 30
0.0
 11
-25.20999999997727
 21
60.59749798812095
 31
0.0
  0
LINE
  5
25D
330
1CE
100
AcDbEntity
  8
Visible (ANSI)
100
AcDbLine
 10
-21.01999999997733
 20
70.06249798812098
 30
0.0
 11
-21.01999999997733
 21
71.1474979881209
 31
0.0
  0
LINE
  5
25E
330
1CE
100
AcDbEntity
  8
Visible (ANSI)
100
AcDbLine
 10
-25.20999999997727
 20
71.1474979881209
 30
0.0
 11
-25.20999999997727
 21
70.06249798812098
 31
0.0
  0
LINE
  5
25F
330
1CE
100
AcDbEntity
  8
Visible (ANSI)
100
AcDbLine
 10
-46.22999999997737
 20
70.06249798813212
 30
0.0
 11
-50.28999999997731
 21
70.06249798813212
 31
0.0
  0
LINE
  5
260
330
1CE
100
AcDbEntity
  8
Visible (ANSI)
100
AcDbLine
 10
-50.28999999997731
 20
61.68249798813213
 30
0.0
 11
-46.22999999997737
 21
61.68249798813213
 31
0.0
  0
LINE
  5
261
330
1CE
100
AcDbEntity
  8
Visible (ANSI)
100
AcDbLine
 10
0.0000000000226485
 20
70.06249798813951
 30
0.0
 11
-46.22999999997737
 21
70.06249798813951
 31
0.0
  0
LINE
  5
262
330
1CE
100
AcDbEntity
  8
Visible (ANSI)
100
AcDbLine
 10
-46.22999999997737
 20
61.68249798813952
 30
0.0
 11
0.0000000000226485
 21
61.68249798813952
 31
0.0
  0
LINE
  5
263
330
1CE
100
AcDbEntity
  8
Visible (ANSI)
100
AcDbLine
 10
-47.62499999997735
 20
57.93249798813952
 30
0.0
 11
-47.62499999997735
 21
59.45749798813949
 31
0.0
  0
LINE
  5
264
330
1CE
100
AcDbEntity
  8
Visible (ANSI)
100
AcDbLine
 10
-47.62499999997735
 20
59.45749798813949
 30
0.0
 11
-50.28999999997731
 21
59.45749798813949
 31
0.0
  0
LINE
  5
265
330
1CE
100
AcDbEntity
  8
Visible (ANSI)
100
AcDbLine
 10
1.39500000002263
 20
73.81249798813951
 30
0.0
 11
1.39500000002263
 21
72.28749798813954
 31
0.0
  0
LINE
  5
266
330
1CE
100
AcDbEntity
  8
Visible (ANSI)
100
AcDbLine
 10
1.39500000002263
 20
72.28749798813954
 30
0.0
 11
4.060000000022707
 21
72.28749798813954
 31
0.0
  0
LINE
  5
267
330
1CE
100
AcDbEntity
  8
Visible (ANSI)
100
AcDbLine
 10
-50.28999999997731
 20
59.45749798813949
 30
0.0
 11
-50.28999999997731
 21
72.28749798813954
 31
0.0
  0
LINE
  5
268
330
1CE
100
AcDbEntity
  8
Visible (ANSI)
100
AcDbLine
 10
-50.28999999997731
 20
72.28749798813954
 30
0.0
 11
-47.62499999997735
 21
72.28749798813954
 31
0.0
  0
LINE
  5
269
330
1CE
100
AcDbEntity
  8
Visible (ANSI)
100
AcDbLine
 10
-47.62499999997735
 20
72.28749798813954
 30
0.0
 11
-47.62499999997735
 21
73.81249798813951
 31
0.0
  0
LINE
  5
26A
330
1CE
100
AcDbEntity
  8
Visible (ANSI)
100
AcDbLine
 10
4.060000000022707
 20
72.28749798813954
 30
0.0
 11
4.060000000022707
 21
59.45749798813949
 31
0.0
  0
LINE
  5
26B
330
1CE
100
AcDbEntity
  8
Visible (ANSI)
100
AcDbLine
 10
4.060000000022707
 20
59.45749798813949
 30
0.0
 11
1.39500000002263
 21
59.45749798813949
 31
0.0
  0
LINE
  5
26C
330
1CE
100
AcDbEntity
  8
Visible (ANSI)
100
AcDbLine
 10
1.39500000002263
 20
59.45749798813949
 30
0.0
 11
1.39500000002263
 21
57.93249798813952
 31
0.0
  0
LINE
  5
26D
330
1CE
100
AcDbEntity
  8
Visible (ANSI)
100
AcDbLine
 10
4.060000000022707
 20
70.06249798813212
 30
0.0
 11
0.0000000000226485
 21
70.06249798813212
 31
0.0
  0
LINE
  5
26E
330
1CE
100
AcDbEntity
  8
Visible (ANSI)
100
AcDbLine
 10
0.0000000000226485
 20
61.68249798813213
 30
0.0
 11
4.060000000022707
 21
61.68249798813213
 31
0.0
  0
LINE
  5
26F
330
1CE
100
AcDbEntity
  8
Visible (ANSI)
100
AcDbLine
 10
-24.70499999997739
 20
70.06249798813906
 30
0.0
 11
-24.70499999997739
 21
72.28749798813908
 31
0.0
  0
LINE
  5
270
330
1CE
100
AcDbEntity
  8
Visible (ANSI)
100
AcDbLine
 10
-21.52499999997733
 20
70.06249798813906
 30
0.0
 11
-21.52499999997733
 21
72.28749798813908
 31
0.0
  0
LINE
  5
271
330
1CE
100
AcDbEntity
  8
Visible (ANSI)
100
AcDbLine
 10
-21.52499999997733
 20
72.28749798813908
 30
0.0
 11
-24.70499999997739
 21
72.28749798813908
 31
0.0
  0
LINE
  5
272
330
1CE
100
AcDbEntity
  8
Visible (ANSI)
100
AcDbLine
 10
-24.70499999997739
 20
61.68249798813917
 30
0.0
 11
-24.70499999997739
 21
59.45749798813904
 31
0.0
  0
LINE
  5
273
330
1CE
100
AcDbEntity
  8
Visible (ANSI)
100
AcDbLine
 10
-24.70499999997739
 20
59.45749798813904
 30
0.0
 11
-21.52499999997733
 21
59.45749798813904
 31
0.0
  0
LINE
  5
274
330
1CE
100
AcDbEntity
  8
Visible (ANSI)
100
AcDbLine
 10
-21.52499999997733
 20
61.68249798813917
 30
0.0
 11
-21.52499999997733
 21
59.45749798813904
 31
0.0
  0
LINE
  5
275
330
1CE
100
AcDbEntity
  8
Visible (ANSI)
100
AcDbLine
 10
0.0000000000226485
 20
61.68249798813952
 30
0.0
 11
0.0000000000226485
 21
70.06249798813951
 31
0.0
  0
LINE
  5
276
330
1CE
100
AcDbEntity
  8
Visible (ANSI)
100
AcDbLine
 10
-46.22999999997737
 20
70.06249798813951
 30
0.0
 11
-46.22999999997737
 21
61.68249798813952
 31
0.0
  0
LINE
  5
277
330
1CE
100
AcDbEntity
  8
Visible (ANSI)
100
AcDbLine
 10
-47.62499999997735
 20
73.81249798813951
 30
0.0
 11
-51.68999999997729
 21
73.81249798813951
 31
0.0
  0
LINE
  5
278
330
1CE
100
AcDbEntity
  8
Visible (ANSI)
100
AcDbLine
 10
1.39500000002263
 20
57.93249798813952
 30
0.0
 11
5.460000000022684
 21
57.93249798813952
 31
0.0
  0
LINE
  5
279
330
1CE
100
AcDbEntity
  8
Visible (ANSI)
100
AcDbLine
 10
-51.68999999997729
 20
57.93249798813952
 30
0.0
 11
-47.62499999997735
 21
57.93249798813952
 31
0.0
  0
LINE
  5
27A
330
1CE
100
AcDbEntity
  8
Visible (ANSI)
100
AcDbLine
 10
-51.68999999997729
 20
73.81249798813951
 30
0.0
 11
-51.68999999997729
 21
57.93249798813952
 31
0.0
  0
LINE
  5
27B
330
1CE
100
AcDbEntity
  8
Visible (ANSI)
100
AcDbLine
 10
5.460000000022684
 20
73.81249798813951
 30
0.0
 11
1.39500000002263
 21
73.81249798813951
 31
0.0
  0
LINE
  5
27C
330
1CE
100
AcDbEntity
  8
Visible (ANSI)
100
AcDbLine
 10
5.460000000022684
 20
73.81249798813951
 30
0.0
 11
5.460000000022684
 21
57.93249798813952
 31
0.0
  0
DIMENSION
  5
27D
330
1CE
100
AcDbEntity
  8
Dimension (ANSI)
100
AcDbDimension
  2
*D1
 10
33.45999999999996
 20
24.8900000000001
 30
0.0
 11
33.45999999999995
 21
-10.61500000000001
 31
0.0
 12
23.9146787517822
 22
-61.09931297205552
 32
0.0
 70
   128
  1
 <>[]
 71
     5
 42
2.795669291338587
  3
Default - mm (ANSI)
100
AcDbAlignedDimension
 13
-21.02000000000007
 23
-46.12
 33
0.0
 14
5.459999999999947
 24
24.8900000000001
 34
0.0
 50
90.0
100
AcDbRotatedDimension
1001
ACAD
1000
DSTYLE
1002
{
1070
   286
1070
     0
1070
   274
1070
     1
1070
   284
1070
     4
1070
   283
1070
     1
1070
   146
1040
1.0
1070
   272
1070
     2
1070
    47
1040
0.0
1070
    48
1040
0.0
1070
    72
1070
     0
1070
    71
1070
     0
1070
   289
1070
     1
1002
}
1001
ACAD_DSTYLE_DIMINSPECT
1070
   396
1000
100%
1070
   395
1000

1070
   394
1070
    33
1070
   393
1070
     0
  0
DIMENSION
  5
27E
330
1CE
100
AcDbEntity
  8
Dimension (ANSI)
100
AcDbDimension
  2
*D2
 10
5.459999999999947
 20
36.37405661230105
 30
0.0
 11
-23.1150000000001
 21
36.37405661230105
 31
0.0
 12
23.9146787517822
 22
-61.09931297205552
 32
0.0
 70
   128
  1
 <>[]
 71
     5
 42
2.249999999999999
  3
Default - mm (ANSI)
100
AcDbAlignedDimension
 13
-51.69000000000003
 23
24.8900000000001
 33
0.0
 14
5.459999999999947
 24
24.8900000000001
 34
0.0
100
AcDbRotatedDimension
1001
ACAD
1000
DSTYLE
1002
{
1070
   286
1070
     0
1070
   274
1070
     1
1070
   284
1070
     4
1070
   283
1070
     1
1070
   146
1040
1.0
1070
   272
1070
     2
1070
    47
1040
0.0
1070
    48
1040
0.0
1070
    72
1070
     0
1070
    71
1070
     0
1070
    73
1070
     0
1070
    74
1070
     0
1070
   289
1070
     1
1002
}
1001
ACAD_DSTYLE_DIMINSPECT
1070
   396
1000
100%
1070
   395
1000

1070
   394
1070
    33
1070
   393
1070
     0
  0
DIMENSION
  5
27F
330
1CE
100
AcDbEntity
  8
Dimension (ANSI)
100
AcDbDimension
  2
*D3
 10
17.24450652295551
 20
24.8900000000001
 30
0.0
 11
17.2445065229555
 21
-8.889999999999986
 31
0.0
 12
23.9146787517822
 22
-61.09931297205552
 32
0.0
 70
   128
  1
 <>[]
 71
     5
 42
2.659842519685041
  3
Default - mm (ANSI)
100
AcDbAlignedDimension
 13
5.459999999999947
 23
-42.66999999999995
 33
0.0
 14
5.459999999999947
 24
24.8900000000001
 34
0.0
 50
90.0
100
AcDbRotatedDimension
1001
ACAD
1000
DSTYLE
1002
{
1070
   286
1070
     0
1070
   274
1070
     1
1070
   284
1070
     4
1070
   283
1070
     1
1070
   146
1040
1.0
1070
   272
1070
     2
1070
    47
1040
0.0
1070
    48
1040
0.0
1070
    72
1070
     0
1070
    71
1070
     0
1070
   289
1070
     1
1002
}
1001
ACAD_DSTYLE_DIMINSPECT
1070
   396
1000
100%
1070
   395
1000

1070
   394
1070
    33
1070
   393
1070
     0
  0
DIMENSION
  5
280
330
1CE
100
AcDbEntity
  8
Dimension (ANSI)
100
AcDbDimension
  2
*D4
 10
16.88196153739106
 20
57.93249798813952
 30
0.0
 11
25.96193443672521
 21
82.61747965135725
 31
0.0
 12
23.9146787517822
 22
-61.09931297205552
 32
0.0
 70
   128
  1
 <>[]
 71
     5
 42
0.6251968503937007
  3
Default - mm (ANSI)
100
AcDbAlignedDimension
 13
5.460000000022684
 23
73.81249798813951
 33
0.0
 14
5.460000000022684
 24
57.93249798813952
 34
0.0
 50
90.0
100
AcDbRotatedDimension
1001
ACAD
1000
DSTYLE
1002
{
1070
   286
1070
     0
1070
   274
1070
     1
1070
   284
1070
     4
1070
   283
1070
     1
1070
   146
1040
1.0
1070
   272
1070
     2
1070
    47
1040
0.0
1070
    48
1040
0.0
1070
    72
1070
     0
1070
    71
1070
     0
1070
   289
1070
     1
1002
}
1001
ACAD_DSTYLE_DIMINSPECT
1070
   396
1000
100%
1070
   395
1000

1070
   394
1070
    33
1070
   393
1070
     0
  0
DIMENSION
  5
281
330
1CE
100
AcDbEntity
  8
Dimension (ANSI)
100
AcDbDimension
  2
*D5
 10
67.27979025998357
 20
41.80999999999994
 30
0.0
 11
42.3496644053047
 21
41.80999999999994
 31
0.0
 12
23.9146787517822
 22
-61.09931297205552
 32
0.0
 70
   128
  1
 <>[]
 71
     5
 42
0.3299212598425195
  3
Default - mm (ANSI)
100
AcDbAlignedDimension
 13
58.89979025998357
 23
19.81000000000006
 33
0.0
 14
67.27979025998357
 24
19.81000000000006
 34
0.0
 50
180.0
100
AcDbRotatedDimension
1001
ACAD
1000
DSTYLE
1002
{
1070
   286
1070
     0
1070
   274
1070
     1
1070
   284
1070
     4
1070
   283
1070
     1
1070
   146
1040
1.0
1070
   272
1070
     2
1070
    47
1040
0.0
1070
    48
1040
0.0
1070
    72
1070
     0
1070
    71
1070
     0
1070
    73
1070
     0
1070
    74
1070
     0
1070
   289
1070
     1
1002
}
1001
ACAD_DSTYLE_DIMINSPECT
1070
   396
1000
100%
1070
   395
1000

1070
   394
1070
    33
1070
   393
1070
     0
  0
MTEXT
  5
282
330
1CE
100
AcDbEntity
  8
0
100
AcDbMText
 10
8.900010519804279
 20
106.8932743135956
 30
0.0
 40
9.0
 41
449.3031819116229
 71
     5
 72
     5
  1
{\fArial|b1|i0|c0|p34;CDP-MK1\PMECHANICAL INTERLOCK}
 73
     1
 44
1.0
1001
ACAD
1000
ACAD_MTEXT_COLUMN_INFO_BEGIN
1070
    75
1070
     2
1070
    79
1070
     0
1070
    76
1070
     1
1070
    78
1070
     0
1070
    48
1040
449.3031819116229
1070
    49
1040
1.0
1070
    50
1070
     1
1040
0.0
1000
ACAD_MTEXT_COLUMN_INFO_END
  0
ENDBLK
  5
286
330
1CE
100
AcDbEntity
  8
0
100
AcDbBlockEnd
  0
BLOCK
  5
388
330
387
100
AcDbEntity
  8
0
100
AcDbBlockBegin
  2
*D7
 70
     1
 10
0.0
 20
0.0
 30
0.0
  3
*D7
  1

  0
LINE
  5
3CA
330
387
100
AcDbEntity
  8
Dimension (ANSI)
440
 16777216
100
AcDbLine
 10
0.4443613017343563
 20
-31.07832202591712
 30
0.0
 11
56.49916130173437
 21
-31.07832202591714
 31
0.0
  0
LINE
  5
3CB
330
387
100
AcDbEntity
  8
Dimension (ANSI)
440
 16777216
100
AcDbLine
 10
26.92436130173438
 20
39.93167797408299
 30
0.0
 11
56.49916130173438
 21
39.93167797408298
 31
0.0
  0
LINE
  5
3CC
330
387
100
AcDbEntity
  8
Dimension (ANSI)
440
 16777216
100
AcDbLine
 10
53.32416130173437
 20
-28.57832202591713
 30
0.0
 11
53.32416130173438
 21
-0.8728992500091065
 31
0.0
  0
LINE
  5
3CD
330
387
100
AcDbEntity
  8
Dimension (ANSI)
440
 16777216
100
AcDbLine
 10
53.32416130173438
 20
37.43167797408298
 30
0.0
 11
53.32416130173438
 21
9.726255198174845
 31
0.0
  0
SOLID
  5
3CE
330
387
100
AcDbEntity
  8
Dimension (ANSI)
440
 16777216
100
AcDbTrace
 10
52.9074946350677
 20
-28.57832202591713
 30
0.0
 11
53.74082796840103
 21
-28.57832202591713
 31
0.0
 12
53.32416130173437
 22
-31.07832202591713
 32
0.0
 13
53.32416130173437
 23
-31.07832202591713
 33
0.0
  0
SOLID
  5
3CF
330
387
100
AcDbEntity
  8
Dimension (ANSI)
440
 16777216
100
AcDbTrace
 10
52.90749463506772
 20
37.43167797408298
 30
0.0
 11
53.74082796840105
 21
37.43167797408298
 31
0.0
 12
53.32416130173438
 22
39.93167797408298
 32
0.0
 13
53.32416130173438
 23
39.93167797408298
 33
0.0
  0
MTEXT
  5
3D0
330
387
100
AcDbEntity
  8
Dimension (ANSI)
440
 16777216
100
AcDbMText
 10
53.32416130173438
 20
4.426677974082878
 30
0.0
 40
3.04800009727478
 41
0.0
 71
     5
 72
     1
  1
\A1; 2.80\P [71.0]
  7
Note Text (ANSI)
 73
     1
 44
1.0
  0
POINT
  5
3D1
330
387
100
AcDbEntity
  8
Defpoints
 62
     0
440
 16777216
100
AcDbPoint
 10
-1.155838698265643
 20
-31.07832202591712
 30
0.0
  0
POINT
  5
3D2
330
387
100
AcDbEntity
  8
Defpoints
 62
     0
440
 16777216
100
AcDbPoint
 10
25.32416130173438
 20
39.93167797408299
 30
0.0
  0
POINT
  5
3D3
330
387
100
AcDbEntity
  8
Defpoints
 62
     0
440
 16777216
100
AcDbPoint
 10
53.32416130173438
 20
39.93167797408298
 30
0.0
  0
ENDBLK
  5
389
330
387
100
AcDbEntity
  8
0
100
AcDbBlockEnd
  0
BLOCK
  5
395
330
394
100
AcDbEntity
  8
0
100
AcDbBlockBegin
  2
*D8
 70
     1
 10
0.0
 20
0.0
 30
0.0
  3
*D8
  1

  0
LINE
  5
3D4
330
394
100
AcDbEntity
  8
Dimension (ANSI)
440
 16777216
100
AcDbLine
 10
-31.8258386982656
 20
41.53187797408299
 30
0.0
 11
-31.8258386982656
 21
54.59073458638393
 31
0.0
  0
LINE
  5
3D5
330
394
100
AcDbEntity
  8
Dimension (ANSI)
440
 16777216
100
AcDbLine
 10
25.32416130173438
 20
41.53187797408299
 30
0.0
 11
25.32416130173438
 21
54.59073458638393
 31
0.0
  0
LINE
  5
3D6
330
394
100
AcDbEntity
  8
Dimension (ANSI)
440
 16777216
100
AcDbLine
 10
-29.3258386982656
 20
51.41573458638394
 30
0.0
 11
-9.830811597599838
 21
51.41573458638394
 31
0.0
  0
LINE
  5
3D7
330
394
100
AcDbEntity
  8
Dimension (ANSI)
440
 16777216
100
AcDbLine
 10
22.82416130173437
 20
51.41573458638394
 30
0.0
 11
3.329134201068496
 21
51.41573458638394
 31
0.0
  0
SOLID
  5
3D8
330
394
100
AcDbEntity
  8
Dimension (ANSI)
440
 16777216
100
AcDbTrace
 10
-29.3258386982656
 20
51.8324012530506
 30
0.0
 11
-29.3258386982656
 21
50.99906791971727
 31
0.0
 12
-31.8258386982656
 22
51.41573458638394
 32
0.0
 13
-31.8258386982656
 23
51.41573458638394
 33
0.0
  0
SOLID
  5
3D9
330
394
100
AcDbEntity
  8
Dimension (ANSI)
440
 16777216
100
AcDbTrace
 10
22.82416130173437
 20
51.8324012530506
 30
0.0
 11
22.82416130173437
 21
50.99906791971727
 31
0.0
 12
25.32416130173438
 22
51.41573458638394
 32
0.0
 13
25.32416130173438
 23
51.41573458638394
 33
0.0
  0
MTEXT
  5
3DA
330
394
100
AcDbEntity
  8
Dimension (ANSI)
440
 16777216
100
AcDbMText
 10
-3.25083869826567
 20
51.41573458638394
 30
0.0
 40
3.04800009727478
 41
0.0
 71
     5
 72
     1
  1
\A1; 2.25\P [57.2]
  7
Note Text (ANSI)
 73
     1
 44
1.0
  0
POINT
  5
3DB
330
394
100
AcDbEntity
  8
Defpoints
 62
     0
440
 16777216
100
AcDbPoint
 10
-31.8258386982656
 20
39.93167797408299
 30
0.0
  0
POINT
  5
3DC
330
394
100
AcDbEntity
  8
Defpoints
 62
     0
440
 16777216
100
AcDbPoint
 10
25.32416130173438
 20
39.93167797408299
 30
0.0
  0
POINT
  5
3DD
330
394
100
AcDbEntity
  8
Defpoints
 62
     0
440
 16777216
100
AcDbPoint
 10
25.32416130173438
 20
51.41573458638394
 30
0.0
  0
ENDBLK
  5
396
330
394
100
AcDbEntity
  8
0
100
AcDbBlockEnd
  0
BLOCK
  5
3A2
330
3A1
100
AcDbEntity
  8
0
100
AcDbBlockBegin
  2
*D9
 70
     1
 10
0.0
 20
0.0
 30
0.0
  3
*D9
  1

  0
LINE
  5
3DE
330
3A1
100
AcDbEntity
  8
Dimension (ANSI)
440
 16777216
100
AcDbLine
 10
26.92436130173438
 20
-27.62832202591707
 30
0.0
 11
40.28366782468991
 21
-27.62832202591708
 31
0.0
  0
LINE
  5
3DF
330
3A1
100
AcDbEntity
  8
Dimension (ANSI)
440
 16777216
100
AcDbLine
 10
26.92436130173438
 20
39.93167797408299
 30
0.0
 11
40.28366782468993
 21
39.93167797408299
 31
0.0
  0
LINE
  5
3E0
330
3A1
100
AcDbEntity
  8
Dimension (ANSI)
440
 16777216
100
AcDbLine
 10
37.10866782468992
 20
-25.12832202591707
 30
0.0
 11
37.10866782468993
 21
0.8521007499909181
 31
0.0
  0
LINE
  5
3E1
330
3A1
100
AcDbEntity
  8
Dimension (ANSI)
440
 16777216
100
AcDbLine
 10
37.10866782468994
 20
37.43167797408299
 30
0.0
 11
37.10866782468993
 21
11.45125519817487
 31
0.0
  0
SOLID
  5
3E2
330
3A1
100
AcDbEntity
  8
Dimension (ANSI)
440
 16777216
100
AcDbTrace
 10
36.69200115802326
 20
-25.12832202591707
 30
0.0
 11
37.52533449135659
 21
-25.12832202591707
 31
0.0
 12
37.10866782468992
 22
-27.62832202591707
 32
0.0
 13
37.10866782468992
 23
-27.62832202591707
 33
0.0
  0
SOLID
  5
3E3
330
3A1
100
AcDbEntity
  8
Dimension (ANSI)
440
 16777216
100
AcDbTrace
 10
36.69200115802328
 20
37.43167797408299
 30
0.0
 11
37.5253344913566
 21
37.43167797408299
 31
0.0
 12
37.10866782468994
 22
39.93167797408299
 32
0.0
 13
37.10866782468994
 23
39.93167797408299
 33
0.0
  0
MTEXT
  5
3E4
330
3A1
100
AcDbEntity
  8
Dimension (ANSI)
440
 16777216
100
AcDbMText
 10
37.10866782468993
 20
6.1516779740829
 30
0.0
 40
3.04800009727478
 41
0.0
 71
     5
 72
     1
  1
\A1; 2.66\P [67.6]
  7
Note Text (ANSI)
 73
     1
 44
1.0
  0
POINT
  5
3E5
330
3A1
100
AcDbEntity
  8
Defpoints
 62
     0
440
 16777216
100
AcDbPoint
 10
25.32416130173438
 20
-27.62832202591707
 30
0.0
  0
POINT
  5
3E6
330
3A1
100
AcDbEntity
  8
Defpoints
 62
     0
440
 16777216
100
AcDbPoint
 10
25.32416130173438
 20
39.93167797408299
 30
0.0
  0
POINT
  5
3E7
330
3A1
100
AcDbEntity
  8
Defpoints
 62
     0
440
 16777216
100
AcDbPoint
 10
37.10866782468994
 20
39.93167797408299
 30
0.0
  0
ENDBLK
  5
3A3
330
3A1
100
AcDbEntity
  8
0
100
AcDbBlockEnd
  0
BLOCK
  5
3AF
330
3AE
100
AcDbEntity
  8
0
100
AcDbBlockBegin
  2
*D10
 70
     1
 10
0.0
 20
0.0
 30
0.0
  3
*D10
  1

  0
LINE
  5
3E8
330
3AE
100
AcDbEntity
  8
Dimension (ANSI)
440
 16777216
100
AcDbLine
 10
26.92436130175711
 20
88.85417596222239
 30
0.0
 11
39.9211228391255
 21
88.85417596222238
 31
0.0
  0
LINE
  5
3E9
330
3AE
100
AcDbEntity
  8
Dimension (ANSI)
440
 16777216
100
AcDbLine
 10
26.92436130175711
 20
72.9741759622224
 30
0.0
 11
39.92112283912549
 21
72.97417596222238
 31
0.0
  0
LINE
  5
3EA
330
3AE
100
AcDbEntity
  8
Dimension (ANSI)
440
 16777216
100
AcDbLine
 10
36.74612283912548
 20
70.47417596222238
 30
0.0
 11
36.74612283912548
 21
67.97417596222238
 31
0.0
  0
LINE
  5
3EB
330
3AE
100
AcDbEntity
  8
Dimension (ANSI)
440
 16777216
100
AcDbLine
 10
36.74612283912549
 20
91.35417596222238
 30
0.0
 11
36.74612283912549
 21
97.65915762544013
 31
0.0
  0
LINE
  5
3EC
330
3AE
100
AcDbEntity
  8
Dimension (ANSI)
440
 16777216
100
AcDbLine
 10
36.74612283912549
 20
97.65915762544013
 30
0.0
 11
39.24612283912549
 21
97.65915762544013
 31
0.0
  0
SOLID
  5
3ED
330
3AE
100
AcDbEntity
  8
Dimension (ANSI)
440
 16777216
100
AcDbTrace
 10
36.32945617245882
 20
70.47417596222238
 30
0.0
 11
37.16278950579215
 21
70.47417596222238
 31
0.0
 12
36.74612283912548
 22
72.97417596222238
 32
0.0
 13
36.74612283912548
 23
72.97417596222238
 33
0.0
  0
SOLID
  5
3EE
330
3AE
100
AcDbEntity
  8
Dimension (ANSI)
440
 16777216
100
AcDbTrace
 10
36.32945617245883
 20
91.35417596222238
 30
0.0
 11
37.16278950579216
 21
91.35417596222238
 31
0.0
 12
36.74612283912549
 22
88.85417596222238
 32
0.0
 13
36.74612283912549
 23
88.85417596222238
 33
0.0
  0
MTEXT
  5
3EF
330
3AE
100
AcDbEntity
  8
Dimension (ANSI)
440
 16777216
100
AcDbMText
 10
45.82609573845964
 20
97.65915762544015
 30
0.0
 40
3.04800009727478
 41
0.0
 71
     5
 72
     1
  1
\A1; .63\P [15.9]
  7
Note Text (ANSI)
 73
     1
 44
1.0
  0
POINT
  5
3F0
330
3AE
100
AcDbEntity
  8
Defpoints
 62
     0
440
 16777216
100
AcDbPoint
 10
25.32416130175711
 20
88.85417596222239
 30
0.0
  0
POINT
  5
3F1
330
3AE
100
AcDbEntity
  8
Defpoints
 62
     0
440
 16777216
100
AcDbPoint
 10
25.32416130175711
 20
72.9741759622224
 30
0.0
  0
POINT
  5
3F2
330
3AE
100
AcDbEntity
  8
Defpoints
 62
     0
440
 16777216
100
AcDbPoint
 10
36.74612283912548
 20
72.97417596222238
 30
0.0
  0
ENDBLK
  5
3B0
330
3AE
100
AcDbEntity
  8
0
100
AcDbBlockEnd
  0
BLOCK
  5
3BD
330
3BC
100
AcDbEntity
  8
0
100
AcDbBlockBegin
  2
*D11
 70
     1
 10
0.0
 20
0.0
 30
0.0
  3
*D11
  1

  0
LINE
  5
3F3
330
3BC
100
AcDbEntity
  8
Dimension (ANSI)
440
 16777216
100
AcDbLine
 10
78.763951561718
 20
36.45187797408295
 30
0.0
 11
78.763951561718
 21
60.02667797408283
 31
0.0
  0
LINE
  5
3F4
330
3BC
100
AcDbEntity
  8
Dimension (ANSI)
440
 16777216
100
AcDbLine
 10
87.143951561718
 20
36.45187797408295
 30
0.0
 11
87.143951561718
 21
60.02667797408283
 31
0.0
  0
LINE
  5
3F5
330
3BC
100
AcDbEntity
  8
Dimension (ANSI)
440
 16777216
100
AcDbLine
 10
89.643951561718
 20
56.85167797408283
 30
0.0
 11
92.143951561718
 21
56.85167797408283
 31
0.0
  0
LINE
  5
3F6
330
3BC
100
AcDbEntity
  8
Dimension (ANSI)
440
 16777216
100
AcDbLine
 10
76.263951561718
 20
56.85167797408283
 30
0.0
 11
67.60973581278668
 21
56.85167797408283
 31
0.0
  0
SOLID
  5
3F7
330
3BC
100
AcDbEntity
  8
Dimension (ANSI)
440
 16777216
100
AcDbTrace
 10
89.643951561718
 20
57.2683446407495
 30
0.0
 11
89.643951561718
 21
56.43501130741617
 31
0.0
 12
87.143951561718
 22
56.85167797408283
 32
0.0
 13
87.143951561718
 23
56.85167797408283
 33
0.0
  0
SOLID
  5
3F8
330
3BC
100
AcDbEntity
  8
Dimension (ANSI)
440
 16777216
100
AcDbTrace
 10
76.263951561718
 20
57.2683446407495
 30
0.0
 11
76.263951561718
 21
56.43501130741617
 31
0.0
 12
78.763951561718
 22
56.85167797408283
 32
0.0
 13
78.763951561718
 23
56.85167797408283
 33
0.0
  0
MTEXT
  5
3F9
330
3BC
100
AcDbEntity
  8
Dimension (ANSI)
440
 16777216
100
AcDbMText
 10
62.21382570703913
 20
56.85167797408283
 30
0.0
 40
3.04800009727478
 41
0.0
 71
     5
 72
     1
  1
\A1; .33\P [8.4]
  7
Note Text (ANSI)
 73
     1
 44
1.0
  0
POINT
  5
3FA
330
3BC
100
AcDbEntity
  8
Defpoints
 62
     0
440
 16777216
100
AcDbPoint
 10
78.763951561718
 20
34.85167797408295
 30
0.0
  0
POINT
  5
3FB
330
3BC
100
AcDbEntity
  8
Defpoints
 62
     0
440
 16777216
100
AcDbPoint
 10
87.143951561718
 20
34.85167797408295
 30
0.0
  0
POINT
  5
3FC
330
3BC
100
AcDbEntity
  8
Defpoints
 62
     0
440
 16777216
100
AcDbPoint
 10
87.143951561718
 20
56.85167797408283
 30
0.0
  0
ENDBLK
  5
3BE
330
3BC
100
AcDbEntity
  8
0
100
AcDbBlockEnd
  0
ENDSEC
  0
SECTION
  2
ENTITIES
  0
LINE
  5
2D3
330
1F
100
AcDbEntity
  8
Visible (ANSI)
100
AcDbLine
 10
-5.345838698265584
 20
-24.64262346521375
 30
0.0
 11
-5.345838698265584
 21
-22.61262346521377
 31
0.0
  0
LINE
  5
2D4
330
1F
100
AcDbEntity
  8
Visible Narrow (ANSI)
100
AcDbLine
 10
-5.345838698265584
 20
-24.64262346521375
 30
0.0
 11
-1.155838698265643
 21
-24.64262346521375
 31
0.0
  0
LINE
  5
2D5
330
1F
100
AcDbEntity
  8
Visible (ANSI)
100
AcDbLine
 10
-1.155838698265643
 20
-22.61262346521377
 30
0.0
 11
-1.155838698265643
 21
-24.64262346521375
 31
0.0
  0
LINE
  5
2D6
330
1F
100
AcDbEntity
  8
Visible (ANSI)
100
AcDbLine
 10
-1.155838698265643
 20
-22.61262346521377
 30
0.0
 11
-5.345838698265584
 21
-22.61262346521377
 31
0.0
  0
LINE
  5
2D7
330
1F
100
AcDbEntity
  8
Visible (ANSI)
100
AcDbLine
 10
-1.155838698265643
 20
-31.07832202591712
 30
0.0
 11
-1.155838698265643
 21
-24.64262346521375
 31
0.0
  0
LINE
  5
2D8
330
1F
100
AcDbEntity
  8
Visible (ANSI)
100
AcDbLine
 10
-5.345838698265584
 20
-24.64262346521375
 30
0.0
 11
-5.345838698265584
 21
-31.07832202591712
 31
0.0
  0
LINE
  5
2D9
330
1F
100
AcDbEntity
  8
Visible (ANSI)
100
AcDbLine
 10
-1.155838698265643
 20
-31.07832202591712
 30
0.0
 11
-5.345838698265584
 21
-31.07832202591712
 31
0.0
  0
LINE
  5
2DA
330
1F
100
AcDbEntity
  8
Visible (ANSI)
100
AcDbLine
 10
-9.60083869826558
 20
-23.05632202591707
 30
0.0
 11
-9.60083869826558
 21
-8.828322025917117
 31
0.0
  0
LINE
  5
2DB
330
1F
100
AcDbEntity
  8
Visible (ANSI)
100
AcDbLine
 10
-9.60083869826558
 20
12.76167797408291
 30
0.0
 11
-9.60083869826558
 21
21.24867797408288
 31
0.0
  0
LINE
  5
2DC
330
1F
100
AcDbEntity
  8
Visible (ANSI)
100
AcDbLine
 10
-6.42083869826563
 20
24.42867797408295
 30
0.0
 11
-4.645838698265652
 21
24.42867797408295
 31
0.0
  0
LINE
  5
2DD
330
1F
100
AcDbEntity
  8
Visible (ANSI)
100
AcDbLine
 10
-1.855838698265575
 20
24.42867797408295
 30
0.0
 11
-0.0808386982655982
 21
24.42867797408295
 31
0.0
  0
LINE
  5
2DE
330
1F
100
AcDbEntity
  8
Visible (ANSI)
100
AcDbLine
 10
3.099161301734351
 20
21.24867797408288
 30
0.0
 11
3.099161301734351
 21
12.76167797408291
 31
0.0
  0
LINE
  5
2DF
330
1F
100
AcDbEntity
  8
Visible (ANSI)
100
AcDbLine
 10
3.099161301734351
 20
-8.828322025917117
 30
0.0
 11
3.099161301734351
 21
-23.05632202591707
 31
0.0
  0
LINE
  5
2E0
330
1F
100
AcDbEntity
  8
Visible (ANSI)
100
AcDbLine
 10
-9.60083869826558
 20
-8.068322025917126
 30
0.0
 11
-9.60083869826558
 21
-8.828322025917117
 31
0.0
  0
LINE
  5
2E1
330
1F
100
AcDbEntity
  8
Visible (ANSI)
100
AcDbLine
 10
-9.60083869826558
 20
-8.828322025917117
 30
0.0
 11
-8.710838698265593
 21
-8.828322025917117
 31
0.0
  0
LINE
  5
2E2
330
1F
100
AcDbEntity
  8
Visible (ANSI)
100
AcDbLine
 10
-8.710838698265593
 20
-8.828322025917117
 30
0.0
 11
-8.710838698265593
 21
-8.068322025917126
 31
0.0
  0
LINE
  5
2E3
330
1F
100
AcDbEntity
  8
Visible (ANSI)
100
AcDbLine
 10
-8.710838698265593
 20
-8.068322025917126
 30
0.0
 11
-9.60083869826558
 21
-8.068322025917126
 31
0.0
  0
LINE
  5
2E4
330
1F
100
AcDbEntity
  8
Visible (ANSI)
100
AcDbLine
 10
-9.60083869826558
 20
-8.068322025917126
 30
0.0
 11
-9.60083869826558
 21
12.00167797408292
 31
0.0
  0
LINE
  5
2E5
330
1F
100
AcDbEntity
  8
Visible (ANSI)
100
AcDbLine
 10
2.209161301734365
 20
-8.068322025917126
 30
0.0
 11
2.209161301734365
 21
12.00167797408292
 31
0.0
  0
LINE
  5
2E6
330
1F
100
AcDbEntity
  8
Visible (ANSI)
100
AcDbLine
 10
3.099161301734351
 20
12.00167797408292
 30
0.0
 11
3.099161301734351
 21
-8.068322025917126
 31
0.0
  0
LINE
  5
2E7
330
1F
100
AcDbEntity
  8
Visible (ANSI)
100
AcDbLine
 10
-8.710838698265593
 20
12.00167797408292
 30
0.0
 11
-8.710838698265593
 21
-8.068322025917126
 31
0.0
  0
LINE
  5
2E8
330
1F
100
AcDbEntity
  8
Visible (ANSI)
100
AcDbLine
 10
-9.60083869826558
 20
12.76167797408291
 30
0.0
 11
-9.60083869826558
 21
12.00167797408292
 31
0.0
  0
LINE
  5
2E9
330
1F
100
AcDbEntity
  8
Visible (ANSI)
100
AcDbLine
 10
-9.60083869826558
 20
12.00167797408292
 30
0.0
 11
-8.710838698265593
 21
12.00167797408292
 31
0.0
  0
LINE
  5
2EA
330
1F
100
AcDbEntity
  8
Visible (ANSI)
100
AcDbLine
 10
-8.710838698265593
 20
12.00167797408292
 30
0.0
 11
-8.710838698265593
 21
12.76167797408291
 31
0.0
  0
LINE
  5
2EB
330
1F
100
AcDbEntity
  8
Visible (ANSI)
100
AcDbLine
 10
-8.710838698265593
 20
12.76167797408291
 30
0.0
 11
-9.60083869826558
 21
12.76167797408291
 31
0.0
  0
LINE
  5
2EC
330
1F
100
AcDbEntity
  8
Visible (ANSI)
100
AcDbLine
 10
-1.855838698265575
 20
24.42867797408295
 30
0.0
 11
-4.645838698265652
 21
24.42867797408295
 31
0.0
  0
LINE
  5
2ED
330
1F
100
AcDbEntity
  8
Visible (ANSI)
100
AcDbLine
 10
-1.855838698265575
 20
24.42867797408295
 30
0.0
 11
-1.855838698265575
 21
22.13867797408287
 31
0.0
  0
LINE
  5
2EE
330
1F
100
AcDbEntity
  8
Visible (ANSI)
100
AcDbLine
 10
-4.645838698265652
 20
22.13867797408287
 30
0.0
 11
-4.645838698265652
 21
24.42867797408295
 31
0.0
  0
LINE
  5
2EF
330
1F
100
AcDbEntity
  8
Visible Narrow (ANSI)
100
AcDbLine
 10
-4.645838698265652
 20
22.13867797408287
 30
0.0
 11
-1.855838698265575
 21
22.13867797408287
 31
0.0
  0
LINE
  5
2F0
330
1F
100
AcDbEntity
  8
Visible (ANSI)
100
AcDbLine
 10
-2.500838698265557
 20
-9.666195365571837
 30
0.0
 11
-2.500838698265557
 21
18.23867797408289
 31
0.0
  0
LINE
  5
2F1
330
1F
100
AcDbEntity
  8
Visible (ANSI)
100
AcDbLine
 10
-4.000838698265557
 20
18.23867797408289
 30
0.0
 11
-4.000838698265557
 21
-9.666195365571837
 31
0.0
  0
LINE
  5
2F2
330
1F
100
AcDbEntity
  8
Visible (ANSI)
100
AcDbLine
 10
-2.500838698265557
 20
-9.666195365571837
 30
0.0
 11
-4.000838698265557
 21
-9.666195365571837
 31
0.0
  0
LINE
  5
2F3
330
1F
100
AcDbEntity
  8
Visible (ANSI)
100
AcDbLine
 10
-8.710838698265593
 20
-8.828322025917117
 30
0.0
 11
-4.000838698265557
 21
-8.828322025917117
 31
0.0
  0
LINE
  5
2F4
330
1F
100
AcDbEntity
  8
Visible (ANSI)
100
AcDbLine
 10
-2.500838698265557
 20
-8.828322025917117
 30
0.0
 11
2.209161301734365
 21
-8.828322025917117
 31
0.0
  0
LINE
  5
2F5
330
1F
100
AcDbEntity
  8
Visible (ANSI)
100
AcDbLine
 10
-9.60083869826558
 20
-8.828322025917117
 30
0.0
 11
-5.345838698265584
 21
-22.61262346521377
 31
0.0
  0
LINE
  5
2F6
330
1F
100
AcDbEntity
  8
Visible (ANSI)
100
AcDbLine
 10
-1.155838698265643
 20
-22.61262346521377
 30
0.0
 11
3.099161301734351
 21
-8.828322025917117
 31
0.0
  0
ARC
  5
2F7
330
1F
100
AcDbEntity
  8
Visible (ANSI)
100
AcDbCircle
 10
-6.42083869826563
 20
21.24867797408288
 30
0.0
 40
3.179999999999994
100
AcDbArc
 50
90.0
 51
180.0
  0
ARC
  5
2F8
330
1F
100
AcDbEntity
  8
Visible (ANSI)
100
AcDbCircle
 10
-0.0808386982655982
 20
21.24867797408288
 30
0.0
 40
3.179999999999996
100
AcDbArc
 50
0.0
 51
90.0
  0
LINE
  5
2F9
330
1F
100
AcDbEntity
  8
Visible (ANSI)
100
AcDbLine
 10
-4.645838698265652
 20
22.13867797408287
 30
0.0
 11
-4.645838698265652
 21
20.80867797408294
 31
0.0
  0
LINE
  5
2FA
330
1F
100
AcDbEntity
  8
Visible (ANSI)
100
AcDbLine
 10
-4.645838698265652
 20
20.80867797408294
 30
0.0
 11
-1.855838698265575
 21
20.80867797408294
 31
0.0
  0
LINE
  5
2FB
330
1F
100
AcDbEntity
  8
Visible (ANSI)
100
AcDbLine
 10
-1.855838698265575
 20
20.80867797408294
 30
0.0
 11
-1.855838698265575
 21
22.13867797408287
 31
0.0
  0
LINE
  5
2FC
330
1F
100
AcDbEntity
  8
Visible (ANSI)
100
AcDbLine
 10
-4.645838698265652
 20
20.80867797408294
 30
0.0
 11
-4.645838698265652
 21
18.23867797408289
 31
0.0
  0
LINE
  5
2FD
330
1F
100
AcDbEntity
  8
Visible (ANSI)
100
AcDbLine
 10
-4.645838698265652
 20
18.23867797408289
 30
0.0
 11
-1.855838698265575
 21
18.23867797408289
 31
0.0
  0
LINE
  5
2FE
330
1F
100
AcDbEntity
  8
Visible (ANSI)
100
AcDbLine
 10
-1.855838698265575
 20
18.23867797408289
 30
0.0
 11
-1.855838698265575
 21
20.80867797408294
 31
0.0
  0
LINE
  5
2FF
330
1F
100
AcDbEntity
  8
Visible (ANSI)
100
AcDbLine
 10
2.209161301734365
 20
-8.068322025917126
 30
0.0
 11
2.209161301734365
 21
-8.828322025917117
 31
0.0
  0
LINE
  5
300
330
1F
100
AcDbEntity
  8
Visible (ANSI)
100
AcDbLine
 10
2.209161301734365
 20
-8.828322025917117
 30
0.0
 11
3.099161301734351
 21
-8.828322025917117
 31
0.0
  0
LINE
  5
301
330
1F
100
AcDbEntity
  8
Visible (ANSI)
100
AcDbLine
 10
3.099161301734351
 20
-8.828322025917117
 30
0.0
 11
3.099161301734351
 21
-8.068322025917126
 31
0.0
  0
LINE
  5
302
330
1F
100
AcDbEntity
  8
Visible (ANSI)
100
AcDbLine
 10
3.099161301734351
 20
-8.068322025917126
 30
0.0
 11
2.209161301734365
 21
-8.068322025917126
 31
0.0
  0
LINE
  5
303
330
1F
100
AcDbEntity
  8
Visible (ANSI)
100
AcDbLine
 10
2.209161301734365
 20
12.76167797408291
 30
0.0
 11
2.209161301734365
 21
12.00167797408292
 31
0.0
  0
LINE
  5
304
330
1F
100
AcDbEntity
  8
Visible (ANSI)
100
AcDbLine
 10
2.209161301734365
 20
12.00167797408292
 30
0.0
 11
3.099161301734351
 21
12.00167797408292
 31
0.0
  0
LINE
  5
305
330
1F
100
AcDbEntity
  8
Visible (ANSI)
100
AcDbLine
 10
3.099161301734351
 20
12.00167797408292
 30
0.0
 11
3.099161301734351
 21
12.76167797408291
 31
0.0
  0
LINE
  5
306
330
1F
100
AcDbEntity
  8
Visible (ANSI)
100
AcDbLine
 10
3.099161301734351
 20
12.76167797408291
 30
0.0
 11
2.209161301734365
 21
12.76167797408291
 31
0.0
  0
ARC
  5
307
330
1F
100
AcDbEntity
  8
Visible (ANSI)
100
AcDbCircle
 10
6.274161301734419
 20
-23.05632202591707
 30
0.0
 40
3.174999999999994
100
AcDbArc
 50
180.0
 51
270.0
  0
ARC
  5
308
330
1F
100
AcDbEntity
  8
Visible (ANSI)
100
AcDbCircle
 10
6.274161301734419
 20
-23.05632202591707
 30
0.0
 40
3.174999999999994
100
AcDbArc
 50
270.0
 51
0.0
  0
ARC
  5
309
330
1F
100
AcDbEntity
  8
Visible (ANSI)
100
AcDbCircle
 10
-12.77583869826564
 20
-23.05632202591707
 30
0.0
 40
3.174999999999998
100
AcDbArc
 50
270.0
 51
0.0
  0
ARC
  5
30A
330
1F
100
AcDbEntity
  8
Visible (ANSI)
100
AcDbCircle
 10
-12.77583869826564
 20
-23.05632202591707
 30
0.0
 40
3.174999999999997
100
AcDbArc
 50
180.0
 51
270.0
  0
LINE
  5
30B
330
1F
100
AcDbEntity
  8
Visible (ANSI)
100
AcDbLine
 10
-5.345838698265584
 20
-27.62832202591707
 30
0.0
 11
-31.8258386982656
 21
-27.62832202591707
 31
0.0
  0
LINE
  5
30C
330
1F
100
AcDbEntity
  8
Visible (ANSI)
100
AcDbLine
 10
25.32416130173438
 20
-27.62832202591707
 30
0.0
 11
-1.155838698265643
 21
-27.62832202591707
 31
0.0
  0
LINE
  5
30D
330
1F
100
AcDbEntity
  8
Visible (ANSI)
100
AcDbLine
 10
25.32416130173438
 20
34.85167797408295
 30
0.0
 11
25.32416130173438
 21
-27.62832202591707
 31
0.0
  0
LINE
  5
30E
330
1F
100
AcDbEntity
  8
Visible (ANSI)
100
AcDbLine
 10
23.9241613017344
 20
15.04167797408288
 30
0.0
 11
23.9241613017344
 21
34.85167797408295
 31
0.0
  0
LINE
  5
30F
330
1F
100
AcDbEntity
  8
Visible (ANSI)
100
AcDbLine
 10
-26.36583869826556
 20
39.93167797408299
 30
0.0
 11
19.86416130173434
 21
39.93167797408299
 31
0.0
  0
LINE
  5
310
330
1F
100
AcDbEntity
  8
Visible (ANSI)
100
AcDbLine
 10
-30.42583869826562
 20
34.85167797408295
 30
0.0
 11
-30.42583869826562
 21
15.04167797408288
 31
0.0
  0
LINE
  5
311
330
1F
100
AcDbEntity
  8
Visible (ANSI)
100
AcDbLine
 10
-31.8258386982656
 20
-27.62832202591707
 30
0.0
 11
-31.8258386982656
 21
34.85167797408295
 31
0.0
  0
LINE
  5
312
330
1F
100
AcDbEntity
  8
Visible (ANSI)
100
AcDbLine
 10
21.25916130173443
 20
39.93167797408299
 30
0.0
 11
21.25916130173443
 21
34.85167797408295
 31
0.0
  0
LINE
  5
313
330
1F
100
AcDbEntity
  8
Visible (ANSI)
100
AcDbLine
 10
-27.76083869826566
 20
34.85167797408295
 30
0.0
 11
-27.76083869826566
 21
39.93167797408299
 31
0.0
  0
LINE
  5
314
330
1F
100
AcDbEntity
  8
Visible (ANSI)
100
AcDbLine
 10
-17.34783869826553
 20
-26.23132202591702
 30
0.0
 11
-30.42883869826567
 21
-26.23132202591702
 31
0.0
  0
LINE
  5
315
330
1F
100
AcDbEntity
  8
Visible (ANSI)
100
AcDbLine
 10
-30.42883869826567
 20
-26.23132202591702
 30
0.0
 11
-30.42883869826567
 21
9.968677974082908
 31
0.0
  0
LINE
  5
316
330
1F
100
AcDbEntity
  8
Visible (ANSI)
100
AcDbLine
 10
-30.42883869826567
 20
9.968677974082908
 30
0.0
 11
-17.34783869826553
 21
9.968677974082908
 31
0.0
  0
LINE
  5
317
330
1F
100
AcDbEntity
  8
Visible (ANSI)
100
AcDbLine
 10
-17.34783869826553
 20
9.968677974082908
 30
0.0
 11
-17.34783869826553
 21
-26.23132202591702
 31
0.0
  0
LINE
  5
318
330
1F
100
AcDbEntity
  8
Visible (ANSI)
100
AcDbLine
 10
23.92716130173432
 20
9.968677974082908
 30
0.0
 11
23.92716130173432
 21
-26.23132202591702
 31
0.0
  0
LINE
  5
319
330
1F
100
AcDbEntity
  8
Visible (ANSI)
100
AcDbLine
 10
23.92716130173432
 20
-26.23132202591702
 30
0.0
 11
10.84616130173442
 21
-26.23132202591702
 31
0.0
  0
LINE
  5
31A
330
1F
100
AcDbEntity
  8
Visible (ANSI)
100
AcDbLine
 10
10.84616130173442
 20
-26.23132202591702
 30
0.0
 11
10.84616130173442
 21
9.968677974082908
 31
0.0
  0
LINE
  5
31B
330
1F
100
AcDbEntity
  8
Visible (ANSI)
100
AcDbLine
 10
10.84616130173442
 20
9.968677974082908
 30
0.0
 11
23.92716130173432
 21
9.968677974082908
 31
0.0
  0
LINE
  5
31C
330
1F
100
AcDbEntity
  8
Visible (ANSI)
100
AcDbLine
 10
-1.660838698265639
 20
38.53467797408283
 30
0.0
 11
18.4671613017344
 21
38.53467797408283
 31
0.0
  0
LINE
  5
31D
330
1F
100
AcDbEntity
  8
Visible (ANSI)
100
AcDbLine
 10
18.4671613017344
 20
38.53467797408283
 30
0.0
 11
18.4671613017344
 21
11.36567797408295
 31
0.0
  0
LINE
  5
31E
330
1F
100
AcDbEntity
  8
Visible (ANSI)
100
AcDbLine
 10
18.4671613017344
 20
11.36567797408295
 30
0.0
 11
10.84616130173442
 21
11.36567797408295
 31
0.0
  0
LINE
  5
31F
330
1F
100
AcDbEntity
  8
Visible (ANSI)
100
AcDbLine
 10
10.84616130173442
 20
11.36567797408295
 30
0.0
 11
10.84616130173442
 21
31.07437653478636
 31
0.0
  0
LINE
  5
320
330
1F
100
AcDbEntity
  8
Visible (ANSI)
100
AcDbLine
 10
10.84616130173442
 20
31.07437653478636
 30
0.0
 11
-2.55233869826559
 21
31.07437653478636
 31
0.0
  0
LINE
  5
321
330
1F
100
AcDbEntity
  8
Visible (ANSI)
100
AcDbLine
 10
-2.55233869826559
 20
31.07437653478636
 30
0.0
 11
-2.55233869826559
 21
34.85467797408299
 31
0.0
  0
LINE
  5
322
330
1F
100
AcDbEntity
  8
Visible (ANSI)
100
AcDbLine
 10
-3.949338698265638
 20
34.85467797408299
 30
0.0
 11
-3.949338698265638
 21
31.07437653478636
 31
0.0
  0
LINE
  5
323
330
1F
100
AcDbEntity
  8
Visible (ANSI)
100
AcDbLine
 10
-3.949338698265638
 20
31.07437653478636
 30
0.0
 11
-17.34783869826553
 21
31.07437653478636
 31
0.0
  0
LINE
  5
324
330
1F
100
AcDbEntity
  8
Visible (ANSI)
100
AcDbLine
 10
-17.34783869826553
 20
31.07437653478636
 30
0.0
 11
-17.34783869826553
 21
11.36567797408295
 31
0.0
  0
LINE
  5
325
330
1F
100
AcDbEntity
  8
Visible (ANSI)
100
AcDbLine
 10
-17.34783869826553
 20
11.36567797408295
 30
0.0
 11
-24.96883869826563
 21
11.36567797408295
 31
0.0
  0
LINE
  5
326
330
1F
100
AcDbEntity
  8
Visible (ANSI)
100
AcDbLine
 10
-24.96883869826563
 20
11.36567797408295
 30
0.0
 11
-24.96883869826563
 21
38.53467797408283
 31
0.0
  0
LINE
  5
327
330
1F
100
AcDbEntity
  8
Visible (ANSI)
100
AcDbLine
 10
-24.96883869826563
 20
38.53467797408283
 30
0.0
 11
-4.840838698265589
 21
38.53467797408283
 31
0.0
  0
LINE
  5
328
330
1F
100
AcDbEntity
  8
Visible (ANSI)
100
AcDbLine
 10
-5.345838698265584
 20
-26.23132202591702
 30
0.0
 11
-12.77583869826564
 21
-26.23132202591702
 31
0.0
  0
LINE
  5
329
330
1F
100
AcDbEntity
  8
Visible (ANSI)
100
AcDbLine
 10
-15.9508386982656
 20
-23.05632202591707
 30
0.0
 11
-15.9508386982656
 21
29.67737653478619
 31
0.0
  0
LINE
  5
32A
330
1F
100
AcDbEntity
  8
Visible (ANSI)
100
AcDbLine
 10
-15.9508386982656
 20
29.67737653478619
 30
0.0
 11
9.449161301734374
 21
29.67737653478619
 31
0.0
  0
LINE
  5
32B
330
1F
100
AcDbEntity
  8
Visible (ANSI)
100
AcDbLine
 10
9.449161301734374
 20
29.67737653478619
 30
0.0
 11
9.449161301734374
 21
-23.05632202591707
 31
0.0
  0
LINE
  5
32C
330
1F
100
AcDbEntity
  8
Visible (ANSI)
100
AcDbLine
 10
6.274161301734419
 20
-26.23132202591702
 30
0.0
 11
-1.155838698265643
 21
-26.23132202591702
 31
0.0
  0
ARC
  5
32D
330
1F
100
AcDbEntity
  8
Visible (ANSI)
100
AcDbCircle
 10
21.89416130173443
 20
15.04167797408288
 30
0.0
 40
2.029999999999998
100
AcDbArc
 50
180.0
 51
0.0
  0
LINE
  5
32E
330
1F
100
AcDbEntity
  8
Visible (ANSI)
100
AcDbLine
 10
19.86416130173445
 20
15.04167797408288
 30
0.0
 11
19.86416130173445
 21
39.93167797408299
 31
0.0
  0
LINE
  5
32F
330
1F
100
AcDbEntity
  8
Visible (ANSI)
100
AcDbLine
 10
-26.36583869826556
 20
39.93167797408299
 30
0.0
 11
-26.36583869826556
 21
15.04167797408288
 31
0.0
  0
ARC
  5
330
330
1F
100
AcDbEntity
  8
Visible (ANSI)
100
AcDbCircle
 10
-28.39583869826565
 20
15.04167797408288
 30
0.0
 40
2.030000000000002
100
AcDbArc
 50
180.0
 51
0.0
  0
LINE
  5
331
330
1F
100
AcDbEntity
  8
Visible (ANSI)
100
AcDbLine
 10
-4.840838698265589
 20
34.85467797408299
 30
0.0
 11
-4.840838698265589
 21
38.53467797408283
 31
0.0
  0
LINE
  5
332
330
1F
100
AcDbEntity
  8
Visible (ANSI)
100
AcDbLine
 10
-4.840838698265589
 20
38.53467797408283
 30
0.0
 11
-1.660838698265639
 21
38.53467797408283
 31
0.0
  0
LINE
  5
333
330
1F
100
AcDbEntity
  8
Visible (ANSI)
100
AcDbLine
 10
-1.660838698265639
 20
38.53467797408283
 30
0.0
 11
-1.660838698265639
 21
34.85467797408299
 31
0.0
  0
LINE
  5
334
330
1F
100
AcDbEntity
  8
Visible (ANSI)
100
AcDbLine
 10
-1.660838698265639
 20
34.85467797408299
 30
0.0
 11
-4.840838698265589
 21
34.85467797408299
 31
0.0
  0
LINE
  5
335
330
1F
100
AcDbEntity
  8
Visible (ANSI)
100
AcDbLine
 10
21.25916130173443
 20
34.85167797408295
 30
0.0
 11
25.32416130173438
 21
34.85167797408295
 31
0.0
  0
LINE
  5
336
330
1F
100
AcDbEntity
  8
Visible (ANSI)
100
AcDbLine
 10
-31.8258386982656
 20
34.85167797408295
 30
0.0
 11
-27.76083869826566
 21
34.85167797408295
 31
0.0
  0
LINE
  5
337
330
1F
100
AcDbEntity
  8
Visible (ANSI)
100
AcDbLine
 10
25.32416130173438
 20
39.93167797408299
 30
0.0
 11
25.32416130173438
 21
34.85167797408295
 31
0.0
  0
LINE
  5
338
330
1F
100
AcDbEntity
  8
Visible (ANSI)
100
AcDbLine
 10
21.25916130173443
 20
39.93167797408299
 30
0.0
 11
25.32416130173438
 21
39.93167797408299
 31
0.0
  0
LINE
  5
339
330
1F
100
AcDbEntity
  8
Visible (ANSI)
100
AcDbLine
 10
-31.8258386982656
 20
39.93167797408299
 30
0.0
 11
-27.76083869826566
 21
39.93167797408299
 31
0.0
  0
LINE
  5
33A
330
1F
100
AcDbEntity
  8
Visible (ANSI)
100
AcDbLine
 10
-31.8258386982656
 20
34.85167797408295
 30
0.0
 11
-31.8258386982656
 21
39.93167797408299
 31
0.0
  0
ARC
  5
33B
330
1F
100
AcDbEntity
  8
Visible (ANSI)
100
AcDbCircle
 10
77.67895156171012
 20
-24.64262346521375
 30
0.0
 40
2.029999999999997
100
AcDbArc
 50
90.0
 51
180.0
  0
ARC
  5
33C
330
1F
100
AcDbEntity
  8
Visible (ANSI)
100
AcDbCircle
 10
88.22895156171007
 20
-24.64262346521375
 30
0.0
 40
2.029999999999996
100
AcDbArc
 50
0.0
 51
90.0
  0
LINE
  5
33D
330
1F
100
AcDbEntity
  8
Visible (ANSI)
100
AcDbLine
 10
77.67895156171012
 20
-22.61262346521377
 30
0.0
 11
78.76395156171016
 21
-22.61262346521377
 31
0.0
  0
LINE
  5
33E
330
1F
100
AcDbEntity
  8
Visible (ANSI)
100
AcDbLine
 10
75.64895156171015
 20
-31.07832202591712
 30
0.0
 11
75.64895156171015
 21
-24.64262346521375
 31
0.0
  0
LINE
  5
33F
330
1F
100
AcDbEntity
  8
Visible (ANSI)
100
AcDbLine
 10
77.55395156171012
 20
-31.07832202591712
 30
0.0
 11
75.64895156171015
 21
-31.07832202591712
 31
0.0
  0
LINE
  5
340
330
1F
100
AcDbEntity
  8
Visible (ANSI)
100
AcDbLine
 10
77.55395156171012
 20
-27.62832202591707
 30
0.0
 11
78.76395156171016
 21
-27.62832202591707
 31
0.0
  0
LINE
  5
341
330
1F
100
AcDbEntity
  8
Visible (ANSI)
100
AcDbLine
 10
90.25895156171005
 20
-24.64262346521375
 30
0.0
 11
90.25895156171015
 21
-31.07832202591712
 31
0.0
  0
LINE
  5
342
330
1F
100
AcDbEntity
  8
Visible (ANSI)
100
AcDbLine
 10
87.14395156171015
 20
-22.61262346521377
 30
0.0
 11
88.22895156171007
 21
-22.61262346521377
 31
0.0
  0
LINE
  5
343
330
1F
100
AcDbEntity
  8
Visible (ANSI)
100
AcDbLine
 10
87.14395156171015
 20
-27.62832202591707
 30
0.0
 11
88.35395156171008
 21
-27.62832202591707
 31
0.0
  0
LINE
  5
344
330
1F
100
AcDbEntity
  8
Visible (ANSI)
100
AcDbLine
 10
90.25895156171015
 20
-31.07832202591712
 30
0.0
 11
88.35395156171008
 21
-31.07832202591712
 31
0.0
  0
LINE
  5
345
330
1F
100
AcDbEntity
  8
Visible (ANSI)
100
AcDbLine
 10
77.55395156171012
 20
-31.07832202591712
 30
0.0
 11
77.55395156171012
 21
-27.62832202591707
 31
0.0
  0
LINE
  5
346
330
1F
100
AcDbEntity
  8
Visible (ANSI)
100
AcDbLine
 10
88.35395156171008
 20
-27.62832202591707
 30
0.0
 11
88.35395156171008
 21
-31.07832202591712
 31
0.0
  0
ARC
  5
347
330
1F
100
AcDbEntity
  8
Visible (ANSI)
100
AcDbCircle
 10
86.37895156170994
 20
22.13867797408287
 30
0.0
 40
2.289999999999996
100
AcDbArc
 50
0.0
 51
70.48454381043962
  0
LINE
  5
348
330
1F
100
AcDbEntity
  8
Visible (ANSI)
100
AcDbLine
 10
87.14395156170992
 20
19.85575221242121
 30
0.0
 11
88.6689515617099
 21
20.80867797408294
 31
0.0
  0
LINE
  5
349
330
1F
100
AcDbEntity
  8
Visible (ANSI)
100
AcDbLine
 10
88.6689515617099
 20
20.80867797408294
 30
0.0
 11
88.6689515617099
 21
22.13867797408287
 31
0.0
  0
ARC
  5
34A
330
1F
100
AcDbEntity
  8
Visible (ANSI)
100
AcDbCircle
 10
79.52895156170992
 20
22.13867797408287
 30
0.0
 40
2.289999999999995
100
AcDbArc
 50
109.5154561895604
 51
180.0
  0
LINE
  5
34B
330
1F
100
AcDbEntity
  8
Visible (ANSI)
100
AcDbLine
 10
77.23895156170995
 20
20.80867797408294
 30
0.0
 11
77.23895156170995
 21
22.13867797408287
 31
0.0
  0
LINE
  5
34C
330
1F
100
AcDbEntity
  8
Visible (ANSI)
100
AcDbLine
 10
78.76395156170993
 20
19.85575221242121
 30
0.0
 11
77.23895156170995
 21
20.80867797408294
 31
0.0
  0
LINE
  5
34D
330
1F
100
AcDbEntity
  8
Visible (ANSI)
100
AcDbLine
 10
87.143951561718
 20
-27.62832202591707
 30
0.0
 11
87.143951561718
 21
34.85167797408295
 31
0.0
  0
LINE
  5
34E
330
1F
100
AcDbEntity
  8
Visible (ANSI)
100
AcDbLine
 10
78.763951561718
 20
34.85167797408295
 30
0.0
 11
78.763951561718
 21
-27.62832202591707
 31
0.0
  0
LINE
  5
34F
330
1F
100
AcDbEntity
  8
Visible (ANSI)
100
AcDbLine
 10
87.143951561718
 20
-27.62832202591707
 30
0.0
 11
78.763951561718
 21
-27.62832202591707
 31
0.0
  0
LINE
  5
350
330
1F
100
AcDbEntity
  8
Visible (ANSI)
100
AcDbLine
 10
75.013951561718
 20
39.93167797408299
 30
0.0
 11
75.013951561718
 21
34.85167797408295
 31
0.0
  0
LINE
  5
351
330
1F
100
AcDbEntity
  8
Visible (ANSI)
100
AcDbLine
 10
90.893951561718
 20
34.85167797408295
 30
0.0
 11
90.893951561718
 21
39.93167797408299
 31
0.0
  0
LINE
  5
352
330
1F
100
AcDbEntity
  8
Visible (ANSI)
100
AcDbLine
 10
90.893951561718
 20
39.93167797408299
 30
0.0
 11
75.013951561718
 21
39.93167797408299
 31
0.0
  0
LINE
  5
353
330
1F
100
AcDbEntity
  8
Visible (ANSI)
100
AcDbLine
 10
75.013951561718
 20
34.85167797408295
 30
0.0
 11
78.763951561718
 21
34.85167797408295
 31
0.0
  0
LINE
  5
354
330
1F
100
AcDbEntity
  8
Visible (ANSI)
100
AcDbLine
 10
87.143951561718
 20
34.85167797408295
 30
0.0
 11
90.893951561718
 21
34.85167797408295
 31
0.0
  0
LINE
  5
355
330
1F
100
AcDbEntity
  8
Visible (ANSI)
100
AcDbLine
 10
-5.345838698242847
 20
73.60917596220318
 30
0.0
 11
-5.345838698242847
 21
75.63917596220384
 31
0.0
  0
LINE
  5
356
330
1F
100
AcDbEntity
  8
Visible (ANSI)
100
AcDbLine
 10
-5.345838698242847
 20
73.60917596220318
 30
0.0
 11
-1.155838698242906
 21
73.60917596220318
 31
0.0
  0
LINE
  5
357
330
1F
100
AcDbEntity
  8
Visible (ANSI)
100
AcDbLine
 10
-1.155838698242906
 20
75.63917596220384
 30
0.0
 11
-1.155838698242906
 21
73.60917596220318
 31
0.0
  0
LINE
  5
358
330
1F
100
AcDbEntity
  8
Visible Narrow (ANSI)
100
AcDbLine
 10
-1.155838698242906
 20
75.63917596220384
 30
0.0
 11
-1.660838698242901
 21
75.63917596220384
 31
0.0
  0
LINE
  5
359
330
1F
100
AcDbEntity
  8
Visible Narrow (ANSI)
100
AcDbLine
 10
-4.840838698242965
 20
75.63917596220384
 30
0.0
 11
-5.345838698242847
 21
75.63917596220384
 31
0.0
  0
LINE
  5
35A
330
1F
100
AcDbEntity
  8
Visible (ANSI)
100
AcDbLine
 10
-5.345838698242847
 20
86.18917596220379
 30
0.0
 11
-5.345838698242847
 21
88.2191759622032
 31
0.0
  0
LINE
  5
35B
330
1F
100
AcDbEntity
  8
Visible Narrow (ANSI)
100
AcDbLine
 10
-5.345838698242847
 20
86.18917596220379
 30
0.0
 11
-4.840838698242965
 21
86.18917596220379
 31
0.0
  0
LINE
  5
35C
330
1F
100
AcDbEntity
  8
Visible Narrow (ANSI)
100
AcDbLine
 10
-1.660838698242901
 20
86.18917596220379
 30
0.0
 11
-1.155838698242906
 21
86.18917596220379
 31
0.0
  0
LINE
  5
35D
330
1F
100
AcDbEntity
  8
Visible (ANSI)
100
AcDbLine
 10
-1.155838698242906
 20
88.2191759622033
 30
0.0
 11
-1.155838698242906
 21
86.18917596220379
 31
0.0
  0
LINE
  5
35E
330
1F
100
AcDbEntity
  8
Visible (ANSI)
100
AcDbLine
 10
-1.155838698242906
 20
88.2191759622033
 30
0.0
 11
-5.345838698242847
 21
88.2191759622033
 31
0.0
  0
LINE
  5
35F
330
1F
100
AcDbEntity
  8
Visible (ANSI)
100
AcDbLine
 10
-1.155838698242906
 20
75.63917596220384
 30
0.0
 11
-1.155838698242906
 21
76.72417596220387
 31
0.0
  0
LINE
  5
360
330
1F
100
AcDbEntity
  8
Visible (ANSI)
100
AcDbLine
 10
-5.345838698242847
 20
76.72417596220387
 30
0.0
 11
-5.345838698242847
 21
75.63917596220384
 31
0.0
  0
LINE
  5
361
330
1F
100
AcDbEntity
  8
Visible (ANSI)
100
AcDbLine
 10
-1.155838698242906
 20
85.10417596220387
 30
0.0
 11
-1.155838698242906
 21
86.18917596220379
 31
0.0
  0
LINE
  5
362
330
1F
100
AcDbEntity
  8
Visible (ANSI)
100
AcDbLine
 10
-5.345838698242847
 20
86.18917596220379
 30
0.0
 11
-5.345838698242847
 21
85.10417596220387
 31
0.0
  0
LINE
  5
363
330
1F
100
AcDbEntity
  8
Visible (ANSI)
100
AcDbLine
 10
-26.36583869824294
 20
85.104175962215
 30
0.0
 11
-30.42583869824289
 21
85.104175962215
 31
0.0
  0
LINE
  5
364
330
1F
100
AcDbEntity
  8
Visible (ANSI)
100
AcDbLine
 10
-30.42583869824289
 20
76.72417596221501
 30
0.0
 11
-26.36583869824294
 21
76.72417596221501
 31
0.0
  0
LINE
  5
365
330
1F
100
AcDbEntity
  8
Visible (ANSI)
100
AcDbLine
 10
19.86416130175707
 20
85.10417596222239
 30
0.0
 11
-26.36583869824294
 21
85.10417596222239
 31
0.0
  0
LINE
  5
366
330
1F
100
AcDbEntity
  8
Visible (ANSI)
100
AcDbLine
 10
-26.36583869824294
 20
76.7241759622224
 30
0.0
 11
19.86416130175707
 21
76.7241759622224
 31
0.0
  0
LINE
  5
367
330
1F
100
AcDbEntity
  8
Visible (ANSI)
100
AcDbLine
 10
-27.76083869824292
 20
72.9741759622224
 30
0.0
 11
-27.76083869824292
 21
74.49917596222238
 31
0.0
  0
LINE
  5
368
330
1F
100
AcDbEntity
  8
Visible (ANSI)
100
AcDbLine
 10
-27.76083869824292
 20
74.49917596222238
 30
0.0
 11
-30.42583869824289
 21
74.49917596222238
 31
0.0
  0
LINE
  5
369
330
1F
100
AcDbEntity
  8
Visible (ANSI)
100
AcDbLine
 10
21.25916130175706
 20
88.85417596222239
 30
0.0
 11
21.25916130175706
 21
87.32917596222241
 31
0.0
  0
LINE
  5
36A
330
1F
100
AcDbEntity
  8
Visible (ANSI)
100
AcDbLine
 10
21.25916130175706
 20
87.32917596222241
 30
0.0
 11
23.92416130175714
 21
87.32917596222241
 31
0.0
  0
LINE
  5
36B
330
1F
100
AcDbEntity
  8
Visible (ANSI)
100
AcDbLine
 10
-30.42583869824289
 20
74.49917596222238
 30
0.0
 11
-30.42583869824289
 21
87.32917596222241
 31
0.0
  0
LINE
  5
36C
330
1F
100
AcDbEntity
  8
Visible (ANSI)
100
AcDbLine
 10
-30.42583869824289
 20
87.32917596222241
 30
0.0
 11
-27.76083869824292
 21
87.32917596222241
 31
0.0
  0
LINE
  5
36D
330
1F
100
AcDbEntity
  8
Visible (ANSI)
100
AcDbLine
 10
-27.76083869824292
 20
87.32917596222241
 30
0.0
 11
-27.76083869824292
 21
88.85417596222239
 31
0.0
  0
LINE
  5
36E
330
1F
100
AcDbEntity
  8
Visible (ANSI)
100
AcDbLine
 10
23.92416130175714
 20
87.32917596222241
 30
0.0
 11
23.92416130175714
 21
74.49917596222238
 31
0.0
  0
LINE
  5
36F
330
1F
100
AcDbEntity
  8
Visible (ANSI)
100
AcDbLine
 10
23.92416130175714
 20
74.49917596222238
 30
0.0
 11
21.25916130175706
 21
74.49917596222238
 31
0.0
  0
LINE
  5
370
330
1F
100
AcDbEntity
  8
Visible (ANSI)
100
AcDbLine
 10
21.25916130175706
 20
74.49917596222238
 30
0.0
 11
21.25916130175706
 21
72.9741759622224
 31
0.0
  0
LINE
  5
371
330
1F
100
AcDbEntity
  8
Visible (ANSI)
100
AcDbLine
 10
23.92416130175714
 20
85.104175962215
 30
0.0
 11
19.86416130175707
 21
85.104175962215
 31
0.0
  0
LINE
  5
372
330
1F
100
AcDbEntity
  8
Visible (ANSI)
100
AcDbLine
 10
19.86416130175707
 20
76.72417596221501
 30
0.0
 11
23.92416130175714
 21
76.72417596221501
 31
0.0
  0
LINE
  5
373
330
1F
100
AcDbEntity
  8
Visible (ANSI)
100
AcDbLine
 10
-4.840838698242965
 20
85.10417596222195
 30
0.0
 11
-4.840838698242965
 21
87.32917596222197
 31
0.0
  0
LINE
  5
374
330
1F
100
AcDbEntity
  8
Visible (ANSI)
100
AcDbLine
 10
-1.660838698242901
 20
85.10417596222195
 30
0.0
 11
-1.660838698242901
 21
87.32917596222197
 31
0.0
  0
LINE
  5
375
330
1F
100
AcDbEntity
  8
Visible (ANSI)
100
AcDbLine
 10
-1.660838698242901
 20
87.32917596222197
 30
0.0
 11
-4.840838698242965
 21
87.32917596222197
 31
0.0
  0
LINE
  5
376
330
1F
100
AcDbEntity
  8
Visible (ANSI)
100
AcDbLine
 10
-4.840838698242965
 20
76.72417596222206
 30
0.0
 11
-4.840838698242965
 21
74.49917596222192
 31
0.0
  0
LINE
  5
377
330
1F
100
AcDbEntity
  8
Visible (ANSI)
100
AcDbLine
 10
-4.840838698242965
 20
74.49917596222192
 30
0.0
 11
-1.660838698242901
 21
74.49917596222192
 31
0.0
  0
LINE
  5
378
330
1F
100
AcDbEntity
  8
Visible (ANSI)
100
AcDbLine
 10
-1.660838698242901
 20
76.72417596222206
 30
0.0
 11
-1.660838698242901
 21
74.49917596222192
 31
0.0
  0
LINE
  5
379
330
1F
100
AcDbEntity
  8
Visible (ANSI)
100
AcDbLine
 10
19.86416130175707
 20
76.7241759622224
 30
0.0
 11
19.86416130175707
 21
85.10417596222239
 31
0.0
  0
LINE
  5
37A
330
1F
100
AcDbEntity
  8
Visible (ANSI)
100
AcDbLine
 10
-26.36583869824294
 20
85.10417596222239
 30
0.0
 11
-26.36583869824294
 21
76.7241759622224
 31
0.0
  0
LINE
  5
37B
330
1F
100
AcDbEntity
  8
Visible (ANSI)
100
AcDbLine
 10
-27.76083869824292
 20
88.85417596222239
 30
0.0
 11
-31.82583869824286
 21
88.85417596222239
 31
0.0
  0
LINE
  5
37C
330
1F
100
AcDbEntity
  8
Visible (ANSI)
100
AcDbLine
 10
21.25916130175706
 20
72.9741759622224
 30
0.0
 11
25.32416130175711
 21
72.9741759622224
 31
0.0
  0
LINE
  5
37D
330
1F
100
AcDbEntity
  8
Visible (ANSI)
100
AcDbLine
 10
-31.82583869824286
 20
72.9741759622224
 30
0.0
 11
-27.76083869824292
 21
72.9741759622224
 31
0.0
  0
LINE
  5
37E
330
1F
100
AcDbEntity
  8
Visible (ANSI)
100
AcDbLine
 10
-31.82583869824286
 20
88.85417596222239
 30
0.0
 11
-31.82583869824286
 21
72.9741759622224
 31
0.0
  0
LINE
  5
37F
330
1F
100
AcDbEntity
  8
Visible (ANSI)
100
AcDbLine
 10
25.32416130175711
 20
88.85417596222239
 30
0.0
 11
21.25916130175706
 21
88.85417596222239
 31
0.0
  0
LINE
  5
380
330
1F
100
AcDbEntity
  8
Visible (ANSI)
100
AcDbLine
 10
25.32416130175711
 20
88.85417596222239
 30
0.0
 11
25.32416130175711
 21
72.9741759622224
 31
0.0
  0
DIMENSION
  5
381
330
1F
100
AcDbEntity
  8
Dimension (ANSI)
100
AcDbDimension
  2
*D7
 10
53.32416130173438
 20
39.93167797408298
 30
0.0
 11
53.32416130173438
 21
4.426677974082878
 31
0.0
 70
   160
  1
 <>[]
 71
     5
 42
2.795669291338586
  3
Default - mm (ANSI)
100
AcDbAlignedDimension
 13
-1.155838698265643
 23
-31.07832202591712
 33
0.0
 14
25.32416130173438
 24
39.93167797408299
 34
0.0
 50
90.0
100
AcDbRotatedDimension
1001
ACAD
1000
DSTYLE
1002
{
1070
   286
1070
     0
1070
   274
1070
     1
1070
   284
1070
     4
1070
   283
1070
     1
1070
   146
1040
1.0
1070
   272
1070
     2
1070
    47
1040
0.0
1070
    48
1040
0.0
1070
    72
1070
     0
1070
    71
1070
     0
1070
   289
1070
     1
1002
}
1001
ACAD_DSTYLE_DIMINSPECT
1070
   396
1000
100%
1070
   395
1000

1070
   394
1070
    33
1070
   393
1070
     0
  0
DIMENSION
  5
382
330
1F
100
AcDbEntity
  8
Dimension (ANSI)
100
AcDbDimension
  2
*D8
 10
25.32416130173438
 20
51.41573458638394
 30
0.0
 11
-3.25083869826567
 21
51.41573458638394
 31
0.0
 70
   160
  1
 <>[]
 71
     5
 42
2.249999999999999
  3
Default - mm (ANSI)
100
AcDbAlignedDimension
 13
-31.8258386982656
 23
39.93167797408299
 33
0.0
 14
25.32416130173438
 24
39.93167797408299
 34
0.0
100
AcDbRotatedDimension
1001
ACAD
1000
DSTYLE
1002
{
1070
   286
1070
     0
1070
   274
1070
     1
1070
   284
1070
     4
1070
   283
1070
     1
1070
   146
1040
1.0
1070
   272
1070
     2
1070
    47
1040
0.0
1070
    48
1040
0.0
1070
    72
1070
     0
1070
    71
1070
     0
1070
    73
1070
     0
1070
    74
1070
     0
1070
   289
1070
     1
1002
}
1001
ACAD_DSTYLE_DIMINSPECT
1070
   396
1000
100%
1070
   395
1000

1070
   394
1070
    33
1070
   393
1070
     0
  0
DIMENSION
  5
383
330
1F
100
AcDbEntity
  8
Dimension (ANSI)
100
AcDbDimension
  2
*D9
 10
37.10866782468994
 20
39.93167797408299
 30
0.0
 11
37.10866782468993
 21
6.1516779740829
 31
0.0
 70
   160
  1
 <>[]
 71
     5
 42
2.659842519685041
  3
Default - mm (ANSI)
100
AcDbAlignedDimension
 13
25.32416130173438
 23
-27.62832202591707
 33
0.0
 14
25.32416130173438
 24
39.93167797408299
 34
0.0
 50
90.0
100
AcDbRotatedDimension
1001
ACAD
1000
DSTYLE
1002
{
1070
   286
1070
     0
1070
   274
1070
     1
1070
   284
1070
     4
1070
   283
1070
     1
1070
   146
1040
1.0
1070
   272
1070
     2
1070
    47
1040
0.0
1070
    48
1040
0.0
1070
    72
1070
     0
1070
    71
1070
     0
1070
   289
1070
     1
1002
}
1001
ACAD_DSTYLE_DIMINSPECT
1070
   396
1000
100%
1070
   395
1000

1070
   394
1070
    33
1070
   393
1070
     0
  0
DIMENSION
  5
384
330
1F
100
AcDbEntity
  8
Dimension (ANSI)
100
AcDbDimension
  2
*D10
 10
36.74612283912548
 20
72.97417596222238
 30
0.0
 11
45.82609573845964
 21
97.65915762544015
 31
0.0
 70
   160
  1
 <>[]
 71
     5
 42
0.6251968503937007
  3
Default - mm (ANSI)
100
AcDbAlignedDimension
 13
25.32416130175711
 23
88.85417596222239
 33
0.0
 14
25.32416130175711
 24
72.9741759622224
 34
0.0
 50
90.0
100
AcDbRotatedDimension
1001
ACAD
1000
DSTYLE
1002
{
1070
   286
1070
     0
1070
   274
1070
     1
1070
   284
1070
     4
1070
   283
1070
     1
1070
   146
1040
1.0
1070
   272
1070
     2
1070
    47
1040
0.0
1070
    48
1040
0.0
1070
    72
1070
     0
1070
    71
1070
     0
1070
   289
1070
     1
1002
}
1001
ACAD_DSTYLE_DIMINSPECT
1070
   396
1000
100%
1070
   395
1000

1070
   394
1070
    33
1070
   393
1070
     0
  0
DIMENSION
  5
385
330
1F
100
AcDbEntity
  8
Dimension (ANSI)
100
AcDbDimension
  2
*D11
 10
87.143951561718
 20
56.85167797408283
 30
0.0
 11
62.21382570703913
 21
56.85167797408283
 31
0.0
 70
   160
  1
 <>[]
 71
     5
 42
0.3299212598425195
  3
Default - mm (ANSI)
100
AcDbAlignedDimension
 13
78.763951561718
 23
34.85167797408295
 33
0.0
 14
87.143951561718
 24
34.85167797408295
 34
0.0
 50
180.0
100
AcDbRotatedDimension
1001
ACAD
1000
DSTYLE
1002
{
1070
   286
1070
     0
1070
   274
1070
     1
1070
   284
1070
     4
1070
   283
1070
     1
1070
   146
1040
1.0
1070
   272
1070
     2
1070
    47
1040
0.0
1070
    48
1040
0.0
1070
    72
1070
     0
1070
    71
1070
     0
1070
    73
1070
     0
1070
    74
1070
     0
1070
   289
1070
     1
1002
}
1001
ACAD_DSTYLE_DIMINSPECT
1070
   396
1000
100%
1070
   395
1000

1070
   394
1070
    33
1070
   393
1070
     0
  0
MTEXT
  5
386
330
1F
100
AcDbEntity
  8
0
100
AcDbMText
 10
28.76417182153871
 20
121.9349522876785
 30
0.0
 40
9.0
 41
449.3031819116229
 71
     5
 72
     5
  1
{\fArial|b1|i0|c0|p34;CDP2-MK1\PMECHANICAL INTERLOCK}
 73
     1
 44
1.0
1001
ACAD
1000
ACAD_MTEXT_COLUMN_INFO_BEGIN
1070
    75
1070
     2
1070
    79
1070
     0
1070
    76
1070
     1
1070
    78
1070
     0
1070
    48
1040
449.3031819116229
1070
    49
1040
1.0
1070
    50
1070
     1
1040
0.0
1000
ACAD_MTEXT_COLUMN_INFO_END
  0
ENDSEC
  0
SECTION
  2
OBJECTS
  0
DICTIONARY
  5
C
330
0
100
AcDbDictionary
281
     1
  3
ACAD_CIP_PREVIOUS_PRODUCT_INFO
350
2D2
  3
ACAD_COLOR
350
73
  3
ACAD_DETAILVIEWSTYLE
350
2CA
  3
ACAD_GROUP
350
D
  3
ACAD_LAYOUT
350
1A
  3
ACAD_MATERIAL
350
72
  3
ACAD_MLEADERSTYLE
350
D7
  3
ACAD_MLINESTYLE
350
17
  3
ACAD_PLOTSETTINGS
350
19
  3
ACAD_PLOTSTYLENAME
350
E
  3
ACAD_SCALELIST
350
B6
  3
ACAD_SECTIONVIEWSTYLE
350
2C8
  3
ACAD_TABLESTYLE
350
86
  3
ACAD_VISUALSTYLE
350
99
  3
ACDB_RECOMPOSE_DATA
350
448
  3
AcDbVariableDictionary
350
66
  3
AEC_PROPERTY_SET_DEFS
350
287
  0
DICTIONARY
  5
28F
330
8
100
AcDbDictionary
280
     1
281
     1
  0
DICTIONARY
  5
1CC
330
2
100
AcDbDictionary
280
     1
281
     1
  3
ACAD_LAYERSTATES
360
1CD
  0
DICTIONARY
  5
E6
330
10
100
AcDbDictionary
280
     1
281
     1
  0
DICTIONARY
  5
15D
330
1F
100
AcDbDictionary
280
     1
281
     1
  3
ACAD_SORTENTS
360
3C9
  0
DICTIONARY
  5
283
330
1CE
100
AcDbDictionary
280
     1
281
     1
  3
ACAD_SORTENTS
360
284
  0
XRECORD
  5
2D2
102
{ACAD_REACTORS
330
C
102
}
330
C
100
AcDbXrecord
280
     1
300
ACAD_E
300
2015
300
ACAD_E_F_S
  0
DICTIONARY
  5
73
102
{ACAD_REACTORS
330
C
102
}
330
C
100
AcDbDictionary
281
     1
  0
DICTIONARY
  5
2CA
102
{ACAD_REACTORS
330
C
102
}
330
C
100
AcDbDictionary
281
     1
  3
Imperial24
350
2CB
  0
DICTIONARY
  5
D
102
{ACAD_REACTORS
330
C
102
}
330
C
100
AcDbDictionary
281
     1
  0
DICTIONARY
  5
1A
102
{ACAD_REACTORS
330
C
102
}
330
C
100
AcDbDictionary
281
     1
  3
Layout1
350
59
  3
Layout2
350
5E
  3
Model
350
22
  0
DICTIONARY
  5
72
102
{ACAD_REACTORS
330
C
102
}
330
C
100
AcDbDictionary
281
     1
  3
ByBlock
350
97
  3
ByLayer
350
96
  3
Global
350
98
  0
DICTIONARY
  5
D7
102
{ACAD_REACTORS
330
C
102
}
330
C
100
AcDbDictionary
281
     1
  3
Annotative
350
E5
  3
Standard
350
D8
  0
DICTIONARY
  5
17
102
{ACAD_REACTORS
330
C
102
}
330
C
100
AcDbDictionary
281
     1
  3
Standard
350
18
  0
DICTIONARY
  5
19
102
{ACAD_REACTORS
330
C
102
}
330
C
100
AcDbDictionary
281
     1
  0
ACDBDICTIONARYWDFLT
  5
E
102
{ACAD_REACTORS
330
C
102
}
330
C
100
AcDbDictionary
281
     1
  3
Normal
350
F
100
AcDbDictionaryWithDefault
340
F
  0
DICTIONARY
  5
B6
102
{ACAD_REACTORS
330
C
102
}
330
C
100
AcDbDictionary
281
     1
  3
A0
350
B7
  3
A1
350
124
  3
A2
350
125
  3
A3
350
126
  3
A4
350
127
  3
A5
350
128
  3
A6
350
129
  3
A7
350
12A
  3
A8
350
12B
  3
A9
350
12C
  3
B0
350
12D
  3
B1
350
12E
  3
B2
350
12F
  3
B3
350
130
  3
B4
350
131
  3
B5
350
132
  3
B6
350
133
  3
B7
350
134
  3
B8
350
135
  3
B9
350
136
  3
C0
350
137
  3
C1
350
138
  3
C2
350
139
  3
C3
350
13A
  3
C4
350
13B
  3
C5
350
13C
  3
C6
350
13D
  3
C7
350
13E
  3
C8
350
13F
  3
C9
350
140
  3
D0
350
141
  3
D1
350
142
  3
D2
350
143
  0
DICTIONARY
  5
2C8
102
{ACAD_REACTORS
330
C
102
}
330
C
100
AcDbDictionary
281
     1
  3
Imperial24
350
2C9
  0
DICTIONARY
  5
86
102
{ACAD_REACTORS
330
C
102
}
330
C
100
AcDbDictionary
281
     1
  3
Standard
350
87
  0
DICTIONARY
  5
99
102
{ACAD_REACTORS
330
C
102
}
330
C
100
AcDbDictionary
281
     1
  3
2dWireframe
350
9F
  3
3D Hidden
350
A1
  3
3dWireframe
350
A0
  3
Basic
350
9E
  3
Brighten
350
A5
  3
ColorChange
350
A9
  3
Conceptual
350
A2
  3
Dim
350
A4
  3
EdgeColorOff
350
175
  3
Facepattern
350
A8
  3
Flat
350
9A
  3
FlatWithEdges
350
9B
  3
Gouraud
350
9C
  3
GouraudWithEdges
350
9D
  3
Hidden
350
2C2
  3
JitterOff
350
173
  3
Linepattern
350
A7
  3
OverhangOff
350
174
  3
Realistic
350
A3
  3
Shaded
350
2C7
  3
Shaded with edges
350
2C6
  3
Shades of Gray
350
2C3
  3
Sketchy
350
2C4
  3
Thicken
350
A6
  3
Wireframe
350
2C1
  3
X-Ray
350
2C5
  0
XRECORD
  5
448
102
{ACAD_REACTORS
330
C
102
}
330
C
100
AcDbXrecord
280
     1
 90
        1
330
87
330
282
330
386
  0
DICTIONARY
  5
66
102
{ACAD_REACTORS
330
C
102
}
330
C
100
AcDbDictionary
281
     1
  3
CANNOSCALE
350
F0
  3
CMLEADERSTYLE
350
EF
  3
CTABLESTYLE
350
89
  3
CVIEWDETAILSTYLE
350
444
  3
CVIEWSECTIONSTYLE
350
445
  3
DIMASSOC
350
67
  3
HIDETEXT
350
6B
  3
LAYEREVAL
350
14D
  3
LAYERNOTIFY
350
14E
  3
LIGHTINGUNITS
350
2BE
  3
MSLTSCALE
350
2BD
  3
XCLIPFRAME
350
446
  0
DICTIONARY
  5
287
102
{ACAD_REACTORS
330
C
102
}
330
C
100
AcDbDictionary
281
     1
  0
DICTIONARY
  5
1CD
102
{ACAD_REACTORS
330
1CC
102
}
330
1CC
100
AcDbDictionary
281
     1
  0
SORTENTSTABLE
  5
3C9
102
{ACAD_REACTORS
330
15D
102
}
330
15D
100
AcDbSortentsTable
330
1F
331
37C
  5
37C
331
36B
  5
36B
331
35A
  5
35A
331
350
  5
350
331
33F
  5
33F
331
32E
  5
32E
331
31D
  5
31D
331
30C
  5
30C
331
2FB
  5
2FB
331
2EA
  5
2EA
331
2D8
  5
2D8
331
340
  5
340
331
37D
  5
37D
331
36C
  5
36C
331
35B
  5
35B
331
351
  5
351
331
32F
  5
32F
331
31E
  5
31E
331
30D
  5
30D
331
2FC
  5
2FC
331
2EB
  5
2EB
331
2D9
  5
2D9
331
341
  5
341
331
330
  5
330
331
37E
  5
37E
331
36D
  5
36D
331
35C
  5
35C
331
352
  5
352
331
31F
  5
31F
331
30E
  5
30E
331
2FD
  5
2FD
331
2EC
  5
2EC
331
2DA
  5
2DA
331
342
  5
342
331
331
  5
331
331
320
  5
320
331
37F
  5
37F
331
36E
  5
36E
331
35D
  5
35D
331
353
  5
353
331
30F
  5
30F
331
2FE
  5
2FE
331
2ED
  5
2ED
331
2DB
  5
2DB
331
343
  5
343
331
332
  5
332
331
321
  5
321
331
310
  5
310
331
380
  5
380
331
36F
  5
36F
331
35E
  5
35E
331
354
  5
354
331
2FF
  5
2FF
331
2EE
  5
2EE
331
2DC
  5
2DC
331
344
  5
344
331
333
  5
333
331
322
  5
322
331
311
  5
311
331
300
  5
300
331
381
  5
381
331
370
  5
370
331
35F
  5
35F
331
355
  5
355
331
2EF
  5
2EF
331
2DD
  5
2DD
331
345
  5
345
331
334
  5
334
331
323
  5
323
331
312
  5
312
331
301
  5
301
331
2F0
  5
2F0
331
382
  5
382
331
371
  5
371
331
360
  5
360
331
356
  5
356
331
2DE
  5
2DE
331
346
  5
346
331
335
  5
335
331
324
  5
324
331
313
  5
313
331
302
  5
302
331
2F1
  5
2F1
331
2E0
  5
2E0
331
383
  5
383
331
372
  5
372
331
361
  5
361
331
357
  5
357
331
2DF
  5
2DF
331
2F2
  5
2F2
331
2E1
  5
2E1
331
384
  5
384
331
373
  5
373
331
362
  5
362
331
347
  5
347
331
336
  5
336
331
325
  5
325
331
314
  5
314
331
303
  5
303
331
385
  5
385
331
374
  5
374
331
363
  5
363
331
348
  5
348
331
337
  5
337
331
326
  5
326
331
315
  5
315
331
304
  5
304
331
2F3
  5
2F3
331
2E2
  5
2E2
331
386
  5
386
331
375
  5
375
331
364
  5
364
331
349
  5
349
331
338
  5
338
331
327
  5
327
331
316
  5
316
331
305
  5
305
331
2F4
  5
2F4
331
2E3
  5
2E3
331
376
  5
376
331
365
  5
365
331
34A
  5
34A
331
339
  5
339
331
328
  5
328
331
317
  5
317
331
306
  5
306
331
2F5
  5
2F5
331
2E4
  5
2E4
331
33A
  5
33A
331
329
  5
329
331
318
  5
318
331
307
  5
307
331
2F6
  5
2F6
331
2E5
  5
2E5
331
377
  5
377
331
366
  5
366
331
34B
  5
34B
331
2D3
  5
2D3
331
378
  5
378
331
33B
  5
33B
331
32A
  5
32A
331
319
  5
319
331
308
  5
308
331
2F7
  5
2F7
331
2E6
  5
2E6
331
367
  5
367
331
34C
  5
34C
331
2D4
  5
2D4
331
379
  5
379
331
368
  5
368
331
33C
  5
33C
331
32B
  5
32B
331
31A
  5
31A
331
309
  5
309
331
2F8
  5
2F8
331
2E7
  5
2E7
331
34D
  5
34D
331
2D5
  5
2D5
331
37A
  5
37A
331
369
  5
369
331
358
  5
358
331
33D
  5
33D
331
32C
  5
32C
331
31B
  5
31B
331
30A
  5
30A
331
2F9
  5
2F9
331
2E8
  5
2E8
331
34E
  5
34E
331
2D6
  5
2D6
331
37B
  5
37B
331
36A
  5
36A
331
359
  5
359
331
33E
  5
33E
331
32D
  5
32D
331
31C
  5
31C
331
30B
  5
30B
331
2FA
  5
2FA
331
2E9
  5
2E9
331
34F
  5
34F
331
2D7
  5
2D7
  0
SORTENTSTABLE
  5
284
102
{ACAD_REACTORS
330
283
102
}
330
283
100
AcDbSortentsTable
330
1CE
  0
ACDBDETAILVIEWSTYLE
  5
2CB
102
{ACAD_XDICTIONARY
360
485
102
}
102
{ACAD_REACTORS
330
2CA
102
}
330
2CA
100
AcDbModelDocViewStyle
 70
     0
  3
Imperial24
290
     0
100
AcDbDetailViewStyle
 70
     0
 71
     0
 90
        3
 71
     1
340
11
 62
   256
 40
0.24
340
0
 62
   256
 40
0.24
300

 40
0.36
280
     3
 71
     2
340
16
 90
       25
 62
   256
 71
     3
340
11
 62
   256
 40
0.24
 90
        1
 40
0.75
 90
        1
300
%<\AcVar ViewType \f "%tc1">% %<\AcVar ViewDetailId>%\PSCALE %<\AcVar ViewScale \f "%sn">%
 71
     4
340
16
 90
       25
 62
   256
340
16
 90
       25
 62
   256
280
     0
  0
LAYOUT
  5
59
102
{ACAD_REACTORS
330
1A
102
}
330
1A
100
AcDbPlotSettings
  1

  2
None
  4

  6

 40
0.0
 41
0.0
 42
0.0
 43
0.0
 44
0.0
 45
0.0
 46
0.0
 47
0.0
 48
0.0
 49
0.0
140
0.0
141
0.0
142
1.0
143
1.0
 70
   688
 72
     0
 73
     0
 74
     5
  7

 75
    16
147
1.0
 76
     0
 77
     2
 78
   300
148
0.0
149
0.0
100
AcDbLayout
  1
Layout1
 70
     1
 71
     1
 10
0.0
 20
0.0
 11
12.0
 21
9.0
 12
0.0
 22
0.0
 32
0.0
 14
0.0
 24
0.0
 34
0.0
 15
0.0
 25
0.0
 35
0.0
146
0.0
 13
0.0
 23
0.0
 33
0.0
 16
1.0
 26
0.0
 36
0.0
 17
0.0
 27
1.0
 37
0.0
 76
     0
330
58
  0
LAYOUT
  5
5E
102
{ACAD_REACTORS
330
1A
102
}
330
1A
100
AcDbPlotSettings
  1

  2
None
  4

  6

 40
0.0
 41
0.0
 42
0.0
 43
0.0
 44
0.0
 45
0.0
 46
0.0
 47
0.0
 48
0.0
 49
0.0
140
0.0
141
0.0
142
1.0
143
1.0
 70
   688
 72
     0
 73
     0
 74
     5
  7

 75
    16
147
1.0
 76
     0
 77
     2
 78
   300
148
0.0
149
0.0
100
AcDbLayout
  1
Layout2
 70
     1
 71
     2
 10
0.0
 20
0.0
 11
12.0
 21
9.0
 12
0.0
 22
0.0
 32
0.0
 14
0.0
 24
0.0
 34
0.0
 15
0.0
 25
0.0
 35
0.0
146
0.0
 13
0.0
 23
0.0
 33
0.0
 16
1.0
 26
0.0
 36
0.0
 17
0.0
 27
1.0
 37
0.0
 76
     0
330
5D
  0
LAYOUT
  5
22
102
{ACAD_REACTORS
330
1A
102
}
330
1A
100
AcDbPlotSettings
  1

  2
none_device
  4
ANSI_A_(8.50_x_11.00_Inches)
  6

 40
6.349999904632568
 41
19.04999923706055
 42
6.350006103515625
 43
19.04998779296875
 44
215.8999938964844
 45
279.3999938964844
 46
0.0
 47
0.0
 48
0.0
 49
0.0
140
0.0
141
0.0
142
1.0
143
2.584895464708373
 70
 11952
 72
     0
 73
     1
 74
     0
  7

 75
     0
147
0.3868628397755418
 76
     0
 77
     2
 78
   300
148
0.0
149
0.0
100
AcDbLayout
  1
Model
 70
     1
 71
     0
 10
0.0
 20
0.0
 11
12.0
 21
9.0
 12
0.0
 22
0.0
 32
0.0
 14
0.0
 24
0.0
 34
0.0
 15
0.0
 25
0.0
 35
0.0
146
0.0
 13
0.0
 23
0.0
 33
0.0
 16
1.0
 26
0.0
 36
0.0
 17
0.0
 27
1.0
 37
0.0
 76
     0
330
1F
331
94
  0
MATERIAL
  5
97
102
{ACAD_XDICTIONARY
360
44C
102
}
102
{ACAD_REACTORS
330
72
102
}
330
72
100
AcDbMaterial
  1
ByBlock
  0
MATERIAL
  5
96
102
{ACAD_XDICTIONARY
360
44A
102
}
102
{ACAD_REACTORS
330
72
102
}
330
72
100
AcDbMaterial
  1
ByLayer
  0
MATERIAL
  5
98
102
{ACAD_XDICTIONARY
360
110
102
}
102
{ACAD_REACTORS
330
72
102
}
330
72
100
AcDbMaterial
  1
Global
 43
0.0208000000566244
 43
0.0
 43
0.0
 43
0.0
 43
0.0
 43
0.0208000000566244
 43
0.0
 43
0.0
 43
0.0
 43
0.0
 43
1.0
 43
0.0
 43
0.0
 43
0.0
 43
0.0
 43
1.0
 49
0.0208000000566244
 49
0.0
 49
0.0
 49
0.0
 49
0.0
 49
0.0208000000566244
 49
0.0
 49
0.0
 49
0.0
 49
0.0
 49
1.0
 49
0.0
 49
0.0
 49
0.0
 49
0.0
 49
1.0
142
0.0208000000566244
142
0.0
142
0.0
142
0.0
142
0.0
142
0.0208000000566244
142
0.0
142
0.0
142
0.0
142
0.0
142
1.0
142
0.0
142
0.0
142
0.0
142
0.0
142
1.0
144
0.0208000000566244
144
0.0
144
0.0
144
0.0
144
0.0
144
0.0208000000566244
144
0.0
144
0.0
144
0.0
144
0.0
144
1.0
144
0.0
144
0.0
144
0.0
144
0.0
144
1.0
1001
ACAD
1070
    -1
1070
     3
1070
     0
1000

1071
        0
1070
     0
  0
MLEADERSTYLE
  5
E5
102
{ACAD_REACTORS
330
D7
102
}
330
D7
100
AcDbMLeaderStyle
170
     2
171
     1
172
     0
 90
        2
 40
0.0
 41
0.0
173
     1
 91
-1056964608
340
14
 92
       -2
290
     1
 42
0.09
291
     1
 43
0.36
  3
Standard
 44
0.18
300

342
11
174
     1
178
     1
175
     1
176
     0
 93
-1056964608
 45
0.18
292
     0
297
     0
 46
0.18
 94
-1056964608
 47
1.0
 49
1.0
140
1.0
293
     1
141
0.0
294
     1
177
     0
142
1.0
295
     0
296
     1
143
0.125
1001
ACAD_MLEADERVER
1070
     2
  0
MLEADERSTYLE
  5
D8
102
{ACAD_REACTORS
330
D7
102
}
330
D7
100
AcDbMLeaderStyle
170
     2
171
     1
172
     0
 90
        2
 40
0.0
 41
0.0
173
     1
 91
-1056964608
340
14
 92
       -2
290
     1
 42
0.09
291
     1
 43
0.36
  3
Standard
 44
0.18
300

342
11
174
     1
178
     1
175
     1
176
     0
 93
-1056964608
 45
0.18
292
     0
297
     0
 46
0.18
 94
-1056964608
 47
1.0
 49
1.0
140
1.0
293
     1
141
0.0
294
     1
177
     0
142
1.0
295
     0
296
     0
143
0.125
1001
ACAD_MLEADERVER
1070
     2
  0
MLINESTYLE
  5
18
102
{ACAD_REACTORS
330
17
102
}
330
17
100
AcDbMlineStyle
  2
STANDARD
 70
     0
  3

 62
   256
 51
90.0
 52
90.0
 71
     2
 49
0.5
 62
   256
  6
BYLAYER
 49
-0.5
 62
   256
  6
BYLAYER
  0
ACDBPLACEHOLDER
  5
F
102
{ACAD_REACTORS
330
E
102
}
330
E
  0
SCALE
  5
B7
102
{ACAD_REACTORS
330
B6
102
}
330
B6
100
AcDbScale
 70
     0
300
1:1
140
1.0
141
1.0
290
     1
  0
SCALE
  5
124
102
{ACAD_REACTORS
330
B6
102
}
330
B6
100
AcDbScale
 70
     0
300
1:2
140
1.0
141
2.0
290
     0
  0
SCALE
  5
125
102
{ACAD_REACTORS
330
B6
102
}
330
B6
100
AcDbScale
 70
     0
300
1:4
140
1.0
141
4.0
290
     0
  0
SCALE
  5
126
102
{ACAD_REACTORS
330
B6
102
}
330
B6
100
AcDbScale
 70
     0
300
1:5
140
1.0
141
5.0
290
     0
  0
SCALE
  5
127
102
{ACAD_REACTORS
330
B6
102
}
330
B6
100
AcDbScale
 70
     0
300
1:8
140
1.0
141
8.0
290
     0
  0
SCALE
  5
128
102
{ACAD_REACTORS
330
B6
102
}
330
B6
100
AcDbScale
 70
     0
300
1:10
140
1.0
141
10.0
290
     0
  0
SCALE
  5
129
102
{ACAD_REACTORS
330
B6
102
}
330
B6
100
AcDbScale
 70
     0
300
1:16
140
1.0
141
16.0
290
     0
  0
SCALE
  5
12A
102
{ACAD_REACTORS
330
B6
102
}
330
B6
100
AcDbScale
 70
     0
300
1:20
140
1.0
141
20.0
290
     0
  0
SCALE
  5
12B
102
{ACAD_REACTORS
330
B6
102
}
330
B6
100
AcDbScale
 70
     0
300
1:30
140
1.0
141
30.0
290
     0
  0
SCALE
  5
12C
102
{ACAD_REACTORS
330
B6
102
}
330
B6
100
AcDbScale
 70
     0
300
1:40
140
1.0
141
40.0
290
     0
  0
SCALE
  5
12D
102
{ACAD_REACTORS
330
B6
102
}
330
B6
100
AcDbScale
 70
     0
300
1:50
140
1.0
141
50.0
290
     0
  0
SCALE
  5
12E
102
{ACAD_REACTORS
330
B6
102
}
330
B6
100
AcDbScale
 70
     0
300
1:100
140
1.0
141
100.0
290
     0
  0
SCALE
  5
12F
102
{ACAD_REACTORS
330
B6
102
}
330
B6
100
AcDbScale
 70
     0
300
2:1
140
2.0
141
1.0
290
     0
  0
SCALE
  5
130
102
{ACAD_REACTORS
330
B6
102
}
330
B6
100
AcDbScale
 70
     0
300
4:1
140
4.0
141
1.0
290
     0
  0
SCALE
  5
131
102
{ACAD_REACTORS
330
B6
102
}
330
B6
100
AcDbScale
 70
     0
300
8:1
140
8.0
141
1.0
290
     0
  0
SCALE
  5
132
102
{ACAD_REACTORS
330
B6
102
}
330
B6
100
AcDbScale
 70
     0
300
10:1
140
10.0
141
1.0
290
     0
  0
SCALE
  5
133
102
{ACAD_REACTORS
330
B6
102
}
330
B6
100
AcDbScale
 70
     0
300
100:1
140
100.0
141
1.0
290
     0
  0
SCALE
  5
134
102
{ACAD_REACTORS
330
B6
102
}
330
B6
100
AcDbScale
 70
     0
300
1/128" = 1'-0"
140
0.0078125
141
12.0
290
     0
  0
SCALE
  5
135
102
{ACAD_REACTORS
330
B6
102
}
330
B6
100
AcDbScale
 70
     0
300
1/64" = 1'-0"
140
0.015625
141
12.0
290
     0
  0
SCALE
  5
136
102
{ACAD_REACTORS
330
B6
102
}
330
B6
100
AcDbScale
 70
     0
300
1/32" = 1'-0"
140
0.03125
141
12.0
290
     0
  0
SCALE
  5
137
102
{ACAD_REACTORS
330
B6
102
}
330
B6
100
AcDbScale
 70
     0
300
1/16" = 1'-0"
140
0.0625
141
12.0
290
     0
  0
SCALE
  5
138
102
{ACAD_REACTORS
330
B6
102
}
330
B6
100
AcDbScale
 70
     0
300
3/32" = 1'-0"
140
0.09375
141
12.0
290
     0
  0
SCALE
  5
139
102
{ACAD_REACTORS
330
B6
102
}
330
B6
100
AcDbScale
 70
     0
300
1/8" = 1'-0"
140
0.125
141
12.0
290
     0
  0
SCALE
  5
13A
102
{ACAD_REACTORS
330
B6
102
}
330
B6
100
AcDbScale
 70
     0
300
3/16" = 1'-0"
140
0.1875
141
12.0
290
     0
  0
SCALE
  5
13B
102
{ACAD_REACTORS
330
B6
102
}
330
B6
100
AcDbScale
 70
     0
300
1/4" = 1'-0"
140
0.25
141
12.0
290
     0
  0
SCALE
  5
13C
102
{ACAD_REACTORS
330
B6
102
}
330
B6
100
AcDbScale
 70
     0
300
3/8" = 1'-0"
140
0.375
141
12.0
290
     0
  0
SCALE
  5
13D
102
{ACAD_REACTORS
330
B6
102
}
330
B6
100
AcDbScale
 70
     0
300
1/2" = 1'-0"
140
0.5
141
12.0
290
     0
  0
SCALE
  5
13E
102
{ACAD_REACTORS
330
B6
102
}
330
B6
100
AcDbScale
 70
     0
300
3/4" = 1'-0"
140
0.75
141
12.0
290
     0
  0
SCALE
  5
13F
102
{ACAD_REACTORS
330
B6
102
}
330
B6
100
AcDbScale
 70
     0
300
1" = 1'-0"
140
1.0
141
12.0
290
     0
  0
SCALE
  5
140
102
{ACAD_REACTORS
330
B6
102
}
330
B6
100
AcDbScale
 70
     0
300
1-1/2" = 1'-0"
140
1.5
141
12.0
290
     0
  0
SCALE
  5
141
102
{ACAD_REACTORS
330
B6
102
}
330
B6
100
AcDbScale
 70
     0
300
3" = 1'-0"
140
3.0
141
12.0
290
     0
  0
SCALE
  5
142
102
{ACAD_REACTORS
330
B6
102
}
330
B6
100
AcDbScale
 70
     0
300
6" = 1'-0"
140
6.0
141
12.0
290
     0
  0
SCALE
  5
143
102
{ACAD_REACTORS
330
B6
102
}
330
B6
100
AcDbScale
 70
     0
300
1'-0" = 1'-0"
140
12.0
141
12.0
290
     0
  0
ACDBSECTIONVIEWSTYLE
  5
2C9
102
{ACAD_XDICTIONARY
360
483
102
}
102
{ACAD_REACTORS
330
2C8
102
}
330
2C8
100
AcDbModelDocViewStyle
 70
     0
  3
Imperial24
290
     0
100
AcDbSectionViewStyle
 70
     0
 71
     0
 90
       78
 71
     1
340
11
 62
   256
 40
0.24
340
0
340
0
 62
   256
 40
0.24
300
I, O, Q, S, X, Z
 40
0.48
 90
        3
 40
0.18
 90
        1
 71
     2
340
16
 90
       25
 62
   256
340
16
 90
       50
 62
   256
 40
0.24
 40
0.0
 40
0.24
 71
     3
340
11
 62
   256
 40
0.24
 90
        1
 40
0.75
 90
        1
300
%<\AcVar ViewType \f "%tc1">% %<\AcVar ViewSectionStartId>%-%<\AcVar ViewSectionEndId>%\PSCALE %<\AcVar ViewScale \f "%sn">%
 71
     4
 62
   256
 62
   257
300
ANSI31
 40
1.0
 90
        0
290
     0
290
     0
 90
        6
 40
0.0
 40
1.570796326794896
 40
0.2617993877991494
 40
1.308996938995747
 40
-0.2617993877991494
 40
1.832595714594046
  0
TABLESTYLE
  5
87
102
{ACAD_XDICTIONARY
360
104
102
}
102
{ACAD_REACTORS
330
86
102
}
330
86
100
AcDbTableStyle
  3
Standard
 70
     0
 71
     0
 40
0.06
 41
0.06
280
     0
281
     0
  7
Standard
140
0.18
170
     2
 62
     0
 63
     7
283
     0
274
    -2
284
     1
 64
     0
275
    -2
285
     1
 65
     0
276
    -2
286
     1
 66
     0
277
    -2
287
     1
 67
     0
278
    -2
288
     1
 68
     0
279
    -2
289
     1
 69
     0
  7
Standard
140
0.25
170
     5
 62
     0
 63
     7
283
     0
274
    -2
284
     1
 64
     0
275
    -2
285
     1
 65
     0
276
    -2
286
     1
 66
     0
277
    -2
287
     1
 67
     0
278
    -2
288
     1
 68
     0
279
    -2
289
     1
 69
     0
  7
Standard
140
0.18
170
     5
 62
     0
 63
     7
283
     0
274
    -2
284
     1
 64
     0
275
    -2
285
     1
 65
     0
276
    -2
286
     1
 66
     0
277
    -2
287
     1
 67
     0
278
    -2
288
     1
 68
     0
279
    -2
289
     1
 69
     0
  0
VISUALSTYLE
  5
9F
102
{ACAD_XDICTIONARY
360
459
102
}
102
{ACAD_REACTORS
330
99
102
}
330
99
100
AcDbVisualStyle
  2
2dWireframe
 70
     4
 71
     0
 72
     2
 73
     1
 90
        0
 40
-0.6
 41
-30.0
 62
     5
 63
     7
421
 16777215
 74
     1
 91
        4
 64
     7
 65
   257
 75
     1
175
     1
 42
1.0
 92
        0
 66
   257
 43
1.0
 76
     1
 77
     6
 78
     2
 67
     7
 79
     5
170
     0
171
     0
290
     0
174
     0
 93
        1
 44
0.0
173
     0
291
     0
 45
0.0
1001
ACAD
1000
AcDbSavedByObjectVersion
1070
     0
  0
VISUALSTYLE
  5
A1
102
{ACAD_XDICTIONARY
360
45D
102
}
102
{ACAD_REACTORS
330
99
102
}
330
99
100
AcDbVisualStyle
  2
3D Hidden
 70
     6
 71
     1
 72
     2
 73
     2
 90
        0
 40
-0.6
 41
-30.0
 62
     5
 63
     7
421
 16777215
 74
     2
 91
        2
 64
     7
 65
   257
 75
     2
175
     1
 42
40.0
 92
        0
 66
   257
 43
1.0
 76
     1
 77
     6
 78
     2
 67
     7
 79
     3
170
     0
171
     0
290
     0
174
     0
 93
        1
 44
0.0
173
     0
291
     0
 45
0.0
1001
ACAD
1000
AcDbSavedByObjectVersion
1070
     0
  0
VISUALSTYLE
  5
A0
102
{ACAD_XDICTIONARY
360
45B
102
}
102
{ACAD_REACTORS
330
99
102
}
330
99
100
AcDbVisualStyle
  2
3dWireframe
 70
     5
 71
     0
 72
     2
 73
     1
 90
        0
 40
-0.6
 41
-30.0
 62
     5
 63
     7
421
 16777215
 74
     1
 91
        4
 64
     7
 65
   257
 75
     1
175
     1
 42
1.0
 92
        0
 66
   257
 43
1.0
 76
     1
 77
     6
 78
     2
 67
     7
 79
     5
170
     0
171
     0
290
     0
174
     0
 93
        1
 44
0.0
173
     0
291
     0
 45
0.0
1001
ACAD
1000
AcDbSavedByObjectVersion
1070
     0
  0
VISUALSTYLE
  5
9E
102
{ACAD_XDICTIONARY
360
457
102
}
102
{ACAD_REACTORS
330
99
102
}
330
99
100
AcDbVisualStyle
  2
Basic
 70
     7
 71
     1
 72
     0
 73
     1
 90
        0
 40
-0.6
 41
-30.0
 62
     5
 63
     7
421
 16777215
 74
     0
 91
        4
 64
     7
 65
   257
 75
     1
175
     1
 42
1.0
 92
        8
 66
     7
 43
1.0
 76
     1
 77
     6
 78
     2
 67
     7
 79
     5
170
     0
171
     0
290
     0
174
     0
 93
        1
 44
0.0
173
     0
291
     1
 45
0.0
1001
ACAD
1000
AcDbSavedByObjectVersion
1070
     0
  0
VISUALSTYLE
  5
A5
102
{ACAD_XDICTIONARY
360
465
102
}
102
{ACAD_REACTORS
330
99
102
}
330
99
100
AcDbVisualStyle
  2
Brighten
 70
    12
 71
     2
 72
     2
 73
     1
 90
        0
 40
-0.6
 41
-30.0
 62
     5
 63
     7
421
 16777215
 74
     1
 91
        4
 64
     7
 65
   257
 75
     1
175
     1
 42
1.0
 92
        8
 66
     7
 43
1.0
 76
     1
 77
     6
 78
     2
 67
     7
 79
     5
170
     0
171
     0
290
     0
174
     0
 93
        1
 44
50.0
173
     0
291
     1
 45
0.0
1001
ACAD
1000
AcDbSavedByObjectVersion
1070
     0
  0
VISUALSTYLE
  5
A9
102
{ACAD_XDICTIONARY
360
46D
102
}
102
{ACAD_REACTORS
330
99
102
}
330
99
100
AcDbVisualStyle
  2
ColorChange
 70
    16
 71
     2
 72
     2
 73
     3
 90
        0
 40
-0.6
 41
-30.0
 62
     5
 63
     8
421
  8421504
 74
     1
 91
        4
 64
     7
 65
   257
 75
     1
175
     1
 42
1.0
 92
        8
 66
     8
424
  8421504
 43
1.0
 76
     1
 77
     6
 78
     2
 67
     7
 79
     5
170
     0
171
     0
290
     0
174
     0
 93
        1
 44
0.0
173
     0
291
     1
 45
0.0
1001
ACAD
1000
AcDbSavedByObjectVersion
1070
     0
  0
VISUALSTYLE
  5
A2
102
{ACAD_XDICTIONARY
360
45F
102
}
102
{ACAD_REACTORS
330
99
102
}
330
99
100
AcDbVisualStyle
  2
Conceptual
 70
     9
 71
     3
 72
     2
 73
     1
 90
        0
 40
-0.6
 41
-30.0
 62
     5
 63
     7
421
 16777215
 74
     2
 91
        2
 64
     7
 65
   257
 75
     1
175
     1
 42
40.0
 92
        8
 66
     7
 43
1.0
 76
     1
 77
     6
 78
     2
 67
     7
 79
     3
170
     0
171
     0
290
     0
174
     0
 93
        1
 44
0.0
173
     0
291
     0
 45
0.0
1001
ACAD
1000
AcDbSavedByObjectVersion
1070
     0
  0
VISUALSTYLE
  5
A4
102
{ACAD_XDICTIONARY
360
463
102
}
102
{ACAD_REACTORS
330
99
102
}
330
99
100
AcDbVisualStyle
  2
Dim
 70
    11
 71
     2
 72
     2
 73
     1
 90
        0
 40
-0.6
 41
-30.0
 62
     5
 63
     7
421
 16777215
 74
     1
 91
        4
 64
     7
 65
   257
 75
     1
175
     1
 42
1.0
 92
        8
 66
     7
 43
1.0
 76
     1
 77
     6
 78
     2
 67
     7
 79
     5
170
     0
171
     0
290
     0
174
     0
 93
        1
 44
-50.0
173
     0
291
     1
 45
0.0
1001
ACAD
1000
AcDbSavedByObjectVersion
1070
     0
  0
VISUALSTYLE
  5
175
102
{ACAD_XDICTIONARY
360
473
102
}
102
{ACAD_REACTORS
330
99
102
}
330
99
100
AcDbVisualStyle
  2
EdgeColorOff
 70
    22
 71
     2
 72
     2
 73
     0
 90
        0
 40
-0.6
 41
-30.0
 62
     5
 63
     7
421
 16777215
 74
     1
 91
        4
 64
     7
 65
   257
 75
     1
175
     1
 42
1.0
 92
        8
 66
     7
 43
1.0
 76
     1
 77
     6
 78
     2
 67
     7
 79
     5
170
     0
171
     0
290
     0
174
     0
 93
        1
 44
0.0
173
     0
291
     1
 45
0.0
1001
ACAD
1000
AcDbSavedByObjectVersion
1070
     0
  0
VISUALSTYLE
  5
A8
102
{ACAD_XDICTIONARY
360
46B
102
}
102
{ACAD_REACTORS
330
99
102
}
330
99
100
AcDbVisualStyle
  2
Facepattern
 70
    15
 71
     2
 72
     2
 73
     1
 90
        0
 40
-0.6
 41
-30.0
 62
     5
 63
     7
421
 16777215
 74
     1
 91
        4
 64
     7
 65
   257
 75
     1
175
     1
 42
1.0
 92
        8
 66
     7
 43
1.0
 76
     1
 77
     6
 78
     2
 67
     7
 79
     5
170
     0
171
     0
290
     0
174
     0
 93
        1
 44
0.0
173
     0
291
     1
 45
0.0
1001
ACAD
1000
AcDbSavedByObjectVersion
1070
     0
  0
VISUALSTYLE
  5
9A
102
{ACAD_XDICTIONARY
360
44F
102
}
102
{ACAD_REACTORS
330
99
102
}
330
99
100
AcDbVisualStyle
  2
Flat
 70
     0
 71
     2
 72
     1
 73
     1
 90
        2
 40
-0.6
 41
30.0
 62
     5
 63
     7
421
 16777215
 74
     0
 91
        4
 64
     7
 65
   257
 75
     1
175
     1
 42
1.0
 92
        8
 66
     7
 43
1.0
 76
     1
 77
     6
 78
     2
 67
     7
 79
     5
170
     0
171
     0
290
     0
174
     0
 93
        1
 44
0.0
173
     0
291
     1
 45
0.0
1001
ACAD
1000
AcDbSavedByObjectVersion
1070
     0
  0
VISUALSTYLE
  5
9B
102
{ACAD_XDICTIONARY
360
451
102
}
102
{ACAD_REACTORS
330
99
102
}
330
99
100
AcDbVisualStyle
  2
FlatWithEdges
 70
     1
 71
     2
 72
     1
 73
     1
 90
        2
 40
-0.6
 41
30.0
 62
     5
 63
     7
421
 16777215
 74
     1
 91
        4
 64
     7
 65
   257
 75
     1
175
     1
 42
1.0
 92
        0
 66
   257
 43
1.0
 76
     1
 77
     6
 78
     2
 67
     7
 79
     5
170
     0
171
     0
290
     0
174
     0
 93
        1
 44
0.0
173
     0
291
     1
 45
0.0
1001
ACAD
1000
AcDbSavedByObjectVersion
1070
     0
  0
VISUALSTYLE
  5
9C
102
{ACAD_XDICTIONARY
360
453
102
}
102
{ACAD_REACTORS
330
99
102
}
330
99
100
AcDbVisualStyle
  2
Gouraud
 70
     2
 71
     2
 72
     2
 73
     1
 90
        2
 40
-0.6
 41
30.0
 62
     5
 63
     7
421
 16777215
 74
     0
 91
        4
 64
     7
 65
   257
 75
     1
175
     1
 42
1.0
 92
        0
 66
     7
 43
1.0
 76
     1
 77
     6
 78
     2
 67
     7
 79
     5
170
     0
171
     0
290
     0
174
     0
 93
        1
 44
0.0
173
     0
291
     1
 45
0.0
1001
ACAD
1000
AcDbSavedByObjectVersion
1070
     0
  0
VISUALSTYLE
  5
9D
102
{ACAD_XDICTIONARY
360
455
102
}
102
{ACAD_REACTORS
330
99
102
}
330
99
100
AcDbVisualStyle
  2
GouraudWithEdges
 70
     3
 71
     2
 72
     2
 73
     1
 90
        2
 40
-0.6
 41
30.0
 62
     5
 63
     7
421
 16777215
 74
     1
 91
        4
 64
     7
 65
   257
 75
     1
175
     1
 42
1.0
 92
        0
 66
   257
 43
1.0
 76
     1
 77
     6
 78
     2
 67
     7
 79
     5
170
     0
171
     0
290
     0
174
     0
 93
        1
 44
0.0
173
     0
291
     1
 45
0.0
1001
ACAD
1000
AcDbSavedByObjectVersion
1070
     0
  0
VISUALSTYLE
  5
2C2
102
{ACAD_XDICTIONARY
360
477
102
}
102
{ACAD_REACTORS
330
99
102
}
330
99
100
AcDbVisualStyle
  2
Hidden
 70
     6
 71
     1
 72
     2
 73
     2
 90
        0
 40
-0.6
 41
-30.0
 62
     5
 63
     7
421
 16777215
 74
     2
 91
        2
 64
     7
 65
   257
 75
     2
175
     1
 42
40.0
 92
        0
 66
   257
 43
1.0
 76
     1
 77
     6
 78
     2
 67
     7
 79
     3
170
     0
171
     0
290
     0
174
     0
 93
        1
 44
0.0
173
     0
291
     0
 45
0.0
1001
ACAD
1000
AcDbSavedByObjectVersion
1070
     0
  0
VISUALSTYLE
  5
173
102
{ACAD_XDICTIONARY
360
46F
102
}
102
{ACAD_REACTORS
330
99
102
}
330
99
100
AcDbVisualStyle
  2
JitterOff
 70
    20
 71
     2
 72
     2
 73
     0
 90
        0
 40
-0.6
 41
-30.0
 62
     5
 63
     7
421
 16777215
 74
     1
 91
        4
 64
     7
 65
   257
 75
     1
175
     1
 42
1.0
 92
       10
 66
     7
 43
1.0
 76
     1
 77
     6
 78
     2
 67
     7
 79
     5
170
     0
171
     0
290
     0
174
     0
 93
        1
 44
0.0
173
     0
291
     1
 45
0.0
1001
ACAD
1000
AcDbSavedByObjectVersion
1070
     0
  0
VISUALSTYLE
  5
A7
102
{ACAD_XDICTIONARY
360
469
102
}
102
{ACAD_REACTORS
330
99
102
}
330
99
100
AcDbVisualStyle
  2
Linepattern
 70
    14
 71
     2
 72
     2
 73
     1
 90
        0
 40
-0.6
 41
-30.0
 62
     5
 63
     7
421
 16777215
 74
     1
 91
        4
 64
     7
 65
   257
 75
     7
175
     7
 42
1.0
 92
        8
 66
     7
 43
1.0
 76
     1
 77
     6
 78
     2
 67
     7
 79
     5
170
     0
171
     0
290
     0
174
     0
 93
        1
 44
0.0
173
     0
291
     1
 45
0.0
1001
ACAD
1000
AcDbSavedByObjectVersion
1070
     0
  0
VISUALSTYLE
  5
174
102
{ACAD_XDICTIONARY
360
471
102
}
102
{ACAD_REACTORS
330
99
102
}
330
99
100
AcDbVisualStyle
  2
OverhangOff
 70
    21
 71
     2
 72
     2
 73
     0
 90
        0
 40
-0.6
 41
-30.0
 62
     5
 63
     7
421
 16777215
 74
     1
 91
        4
 64
     7
 65
   257
 75
     1
175
     1
 42
1.0
 92
        9
 66
     7
 43
1.0
 76
     1
 77
     6
 78
     2
 67
     7
 79
     5
170
     0
171
     0
290
     0
174
     0
 93
        1
 44
0.0
173
     0
291
     1
 45
0.0
1001
ACAD
1000
AcDbSavedByObjectVersion
1070
     0
  0
VISUALSTYLE
  5
A3
102
{ACAD_XDICTIONARY
360
461
102
}
102
{ACAD_REACTORS
330
99
102
}
330
99
100
AcDbVisualStyle
  2
Realistic
 70
     8
 71
     2
 72
     2
 73
     1
 90
        0
 40
-0.6
 41
-30.0
 62
     5
 63
     7
421
 16777215
 74
     1
 91
        0
 64
     7
 65
   257
 75
     1
175
     1
 42
1.0
 92
        8
 66
     8
424
  7895160
 43
1.0
 76
     1
 77
     6
 78
     2
 67
     7
 79
     5
170
     0
171
     0
290
     0
174
     0
 93
       13
 44
0.0
173
     0
291
     0
 45
0.0
1001
ACAD
1000
AcDbSavedByObjectVersion
1070
     0
  0
VISUALSTYLE
  5
2C7
102
{ACAD_XDICTIONARY
360
481
102
}
102
{ACAD_REACTORS
330
99
102
}
330
99
100
AcDbVisualStyle
  2
Shaded
 70
    27
 71
     2
 72
     2
 73
     1
 90
        2
 40
-0.6
 41
30.0
 62
     5
 63
     7
421
 16777215
 74
     0
 91
        4
 64
     7
 65
   257
 75
     1
175
     1
 42
1.0
 92
        8
 66
   257
 43
1.0
 76
     1
 77
     6
 78
     2
 67
     8
425
  7895160
 79
     3
170
     0
171
     0
290
     0
174
     0
 93
        5
 44
0.0
173
     0
291
     0
 45
0.0
1001
ACAD
1000
AcDbSavedByObjectVersion
1070
     0
  0
VISUALSTYLE
  5
2C6
102
{ACAD_XDICTIONARY
360
47F
102
}
102
{ACAD_REACTORS
330
99
102
}
330
99
100
AcDbVisualStyle
  2
Shaded with edges
 70
    26
 71
     2
 72
     2
 73
     1
 90
        2
 40
-0.6
 41
30.0
 62
     5
 63
     7
421
 16777215
 74
     1
 91
       10
 64
     7
 65
   257
 75
     2
175
     1
 42
1.0
 92
        8
 66
   257
 43
1.0
 76
     1
 77
     6
 78
     2
 67
     7
 79
     3
170
     0
171
     0
290
     0
174
     0
 93
        5
 44
0.0
173
     0
291
     0
 45
0.0
1001
ACAD
1000
AcDbSavedByObjectVersion
1070
     0
  0
VISUALSTYLE
  5
2C3
102
{ACAD_XDICTIONARY
360
479
102
}
102
{ACAD_REACTORS
330
99
102
}
330
99
100
AcDbVisualStyle
  2
Shades of Gray
 70
    23
 71
     2
 72
     2
 73
     3
 90
        0
 40
-0.6
 41
-30.0
 62
     5
 63
     7
421
 16777215
 74
     2
 91
        2
 64
     7
 65
     7
 75
     1
175
     1
 42
40.0
 92
        8
 66
     7
 43
1.0
 76
     1
 77
     6
 78
     2
 67
     7
 79
     3
170
     0
171
     0
290
     0
174
     0
 93
        1
 44
0.0
173
     0
291
     0
 45
0.0
1001
ACAD
1000
AcDbSavedByObjectVersion
1070
     0
  0
VISUALSTYLE
  5
2C4
102
{ACAD_XDICTIONARY
360
47B
102
}
102
{ACAD_REACTORS
330
99
102
}
330
99
100
AcDbVisualStyle
  2
Sketchy
 70
    24
 71
     1
 72
     2
 73
     2
 90
        0
 40
-0.6
 41
-30.0
 62
     5
 63
     7
421
 16777215
 74
     2
 91
        2
 64
     7
 65
     7
 75
     1
175
     1
 42
40.0
 92
       11
 66
     7
 43
1.0
 76
     1
 77
     6
 78
     2
 67
     7
 79
     6
170
     0
171
     0
290
     0
174
     0
 93
        1
 44
0.0
173
     0
291
     0
 45
0.0
1001
ACAD
1000
AcDbSavedByObjectVersion
1070
     0
  0
VISUALSTYLE
  5
A6
102
{ACAD_XDICTIONARY
360
467
102
}
102
{ACAD_REACTORS
330
99
102
}
330
99
100
AcDbVisualStyle
  2
Thicken
 70
    13
 71
     2
 72
     2
 73
     1
 90
        0
 40
-0.6
 41
-30.0
 62
     5
 63
     7
421
 16777215
 74
     1
 91
        4
 64
     7
 65
   257
 75
     1
175
     1
 42
1.0
 92
       12
 66
     7
 43
1.0
 76
     1
 77
     6
 78
     2
 67
     7
 79
     5
170
     0
171
     0
290
     0
174
     0
 93
        1
 44
0.0
173
     0
291
     1
 45
0.0
1001
ACAD
1000
AcDbSavedByObjectVersion
1070
     0
  0
VISUALSTYLE
  5
2C1
102
{ACAD_XDICTIONARY
360
475
102
}
102
{ACAD_REACTORS
330
99
102
}
330
99
100
AcDbVisualStyle
  2
Wireframe
 70
     5
 71
     0
 72
     2
 73
     0
 90
        0
 40
-0.6
 41
-30.0
 62
     5
 63
     7
421
 16777215
 74
     1
 91
        4
 64
     7
 65
   257
 75
     1
175
     1
 42
1.0
 92
        0
 66
   257
 43
1.0
 76
     1
 77
     6
 78
     2
 67
     7
 79
     3
170
     0
171
     0
290
     0
174
     0
 93
        1
 44
0.0
173
     0
291
     0
 45
0.0
1001
ACAD
1000
AcDbSavedByObjectVersion
1070
     0
  0
VISUALSTYLE
  5
2C5
102
{ACAD_XDICTIONARY
360
47D
102
}
102
{ACAD_REACTORS
330
99
102
}
330
99
100
AcDbVisualStyle
  2
X-Ray
 70
    25
 71
     2
 72
     2
 73
     1
 90
        1
 40
0.5
 41
-30.0
 62
     5
 63
     7
421
 16777215
 74
     1
 91
        0
 64
     7
 65
   257
 75
     1
175
     1
 42
1.0
 92
        8
 66
     7
 43
1.0
 76
     1
 77
     6
 78
     2
 67
     7
 79
     3
170
     0
171
     0
290
     0
174
     0
 93
       13
 44
0.0
173
     0
291
     0
 45
0.0
1001
ACAD
1000
AcDbSavedByObjectVersion
1070
     0
  0
DICTIONARYVAR
  5
F0
102
{ACAD_REACTORS
330
66
102
}
330
66
100
DictionaryVariables
280
     0
  1
1:1
  0
DICTIONARYVAR
  5
EF
102
{ACAD_REACTORS
330
66
102
}
330
66
100
DictionaryVariables
280
     0
  1
STANDARD
  0
DICTIONARYVAR
  5
89
102
{ACAD_REACTORS
330
66
102
}
330
66
100
DictionaryVariables
280
     0
  1
STANDARD
  0
DICTIONARYVAR
  5
444
102
{ACAD_REACTORS
330
66
102
}
330
66
100
DictionaryVariables
280
     0
  1
Imperial24
  0
DICTIONARYVAR
  5
445
102
{ACAD_REACTORS
330
66
102
}
330
66
100
DictionaryVariables
280
     0
  1
Imperial24
  0
DICTIONARYVAR
  5
67
102
{ACAD_REACTORS
330
66
102
}
330
66
100
DictionaryVariables
280
     0
  1
2
  0
DICTIONARYVAR
  5
6B
102
{ACAD_REACTORS
330
66
102
}
330
66
100
DictionaryVariables
280
     0
  1
1
  0
DICTIONARYVAR
  5
14D
102
{ACAD_REACTORS
330
66
102
}
330
66
100
DictionaryVariables
280
     0
  1
0
  0
DICTIONARYVAR
  5
14E
102
{ACAD_REACTORS
330
66
102
}
330
66
100
DictionaryVariables
280
     0
  1
0
  0
DICTIONARYVAR
  5
2BE
102
{ACAD_REACTORS
330
66
102
}
330
66
100
DictionaryVariables
280
     0
  1
2
  0
DICTIONARYVAR
  5
2BD
102
{ACAD_REACTORS
330
66
102
}
330
66
100
DictionaryVariables
280
     0
  1
1
  0
DICTIONARYVAR
  5
446
102
{ACAD_REACTORS
330
66
102
}
330
66
100
DictionaryVariables
280
     0
  1
2
  0
DICTIONARY
  5
485
330
2CB
100
AcDbDictionary
280
     1
281
     1
  3
ACAD_XREC_ROUNDTRIP
360
486
  0
DICTIONARY
  5
44C
330
97
100
AcDbDictionary
280
     1
281
     1
  3
ACAD_XREC_ROUNDTRIP
360
44D
  0
DICTIONARY
  5
44A
330
96
100
AcDbDictionary
280
     1
281
     1
  3
ACAD_XREC_ROUNDTRIP
360
44B
  0
DICTIONARY
  5
110
330
98
100
AcDbDictionary
280
     1
281
     1
  3
ACAD_XREC_ROUNDTRIP
360
44E
  3
BUMPTILE
360
112
  3
DIFFUSETILE
360
111
  3
OPACITYTILE
360
113
  3
REFLECTIONTILE
360
114
  0
DICTIONARY
  5
483
330
2C9
100
AcDbDictionary
280
     1
281
     1
  3
ACAD_XREC_ROUNDTRIP
360
484
  0
DICTIONARY
  5
104
330
87
100
AcDbDictionary
280
     1
281
     1
  3
ACAD_ROUNDTRIP_2008_TABLESTYLE_CELLSTYLEMAP
360
447
  3
ACAD_XREC_ROUNDTRIP
360
449
  0
DICTIONARY
  5
459
330
9F
100
AcDbDictionary
280
     1
281
     1
  3
ACAD_XREC_ROUNDTRIP
360
45A
  0
DICTIONARY
  5
45D
330
A1
100
AcDbDictionary
280
     1
281
     1
  3
ACAD_XREC_ROUNDTRIP
360
45E
  0
DICTIONARY
  5
45B
330
A0
100
AcDbDictionary
280
     1
281
     1
  3
ACAD_XREC_ROUNDTRIP
360
45C
  0
DICTIONARY
  5
457
330
9E
100
AcDbDictionary
280
     1
281
     1
  3
ACAD_XREC_ROUNDTRIP
360
458
  0
DICTIONARY
  5
465
330
A5
100
AcDbDictionary
280
     1
281
     1
  3
ACAD_XREC_ROUNDTRIP
360
466
  0
DICTIONARY
  5
46D
330
A9
100
AcDbDictionary
280
     1
281
     1
  3
ACAD_XREC_ROUNDTRIP
360
46E
  0
DICTIONARY
  5
45F
330
A2
100
AcDbDictionary
280
     1
281
     1
  3
ACAD_XREC_ROUNDTRIP
360
460
  0
DICTIONARY
  5
463
330
A4
100
AcDbDictionary
280
     1
281
     1
  3
ACAD_XREC_ROUNDTRIP
360
464
  0
DICTIONARY
  5
473
330
175
100
AcDbDictionary
280
     1
281
     1
  3
ACAD_XREC_ROUNDTRIP
360
474
  0
DICTIONARY
  5
46B
330
A8
100
AcDbDictionary
280
     1
281
     1
  3
ACAD_XREC_ROUNDTRIP
360
46C
  0
DICTIONARY
  5
44F
330
9A
100
AcDbDictionary
280
     1
281
     1
  3
ACAD_XREC_ROUNDTRIP
360
450
  0
DICTIONARY
  5
451
330
9B
100
AcDbDictionary
280
     1
281
     1
  3
ACAD_XREC_ROUNDTRIP
360
452
  0
DICTIONARY
  5
453
330
9C
100
AcDbDictionary
280
     1
281
     1
  3
ACAD_XREC_ROUNDTRIP
360
454
  0
DICTIONARY
  5
455
330
9D
100
AcDbDictionary
280
     1
281
     1
  3
ACAD_XREC_ROUNDTRIP
360
456
  0
DICTIONARY
  5
477
330
2C2
100
AcDbDictionary
280
     1
281
     1
  3
ACAD_XREC_ROUNDTRIP
360
478
  0
DICTIONARY
  5
46F
330
173
100
AcDbDictionary
280
     1
281
     1
  3
ACAD_XREC_ROUNDTRIP
360
470
  0
DICTIONARY
  5
469
330
A7
100
AcDbDictionary
280
     1
281
     1
  3
ACAD_XREC_ROUNDTRIP
360
46A
  0
DICTIONARY
  5
471
330
174
100
AcDbDictionary
280
     1
281
     1
  3
ACAD_XREC_ROUNDTRIP
360
472
  0
DICTIONARY
  5
461
330
A3
100
AcDbDictionary
280
     1
281
     1
  3
ACAD_XREC_ROUNDTRIP
360
462
  0
DICTIONARY
  5
481
330
2C7
100
AcDbDictionary
280
     1
281
     1
  3
ACAD_XREC_ROUNDTRIP
360
482
  0
DICTIONARY
  5
47F
330
2C6
100
AcDbDictionary
280
     1
281
     1
  3
ACAD_XREC_ROUNDTRIP
360
480
  0
DICTIONARY
  5
479
330
2C3
100
AcDbDictionary
280
     1
281
     1
  3
ACAD_XREC_ROUNDTRIP
360
47A
  0
DICTIONARY
  5
47B
330
2C4
100
AcDbDictionary
280
     1
281
     1
  3
ACAD_XREC_ROUNDTRIP
360
47C
  0
DICTIONARY
  5
467
330
A6
100
AcDbDictionary
280
     1
281
     1
  3
ACAD_XREC_ROUNDTRIP
360
468
  0
DICTIONARY
  5
475
330
2C1
100
AcDbDictionary
280
     1
281
     1
  3
ACAD_XREC_ROUNDTRIP
360
476
  0
DICTIONARY
  5
47D
330
2C5
100
AcDbDictionary
280
     1
281
     1
  3
ACAD_XREC_ROUNDTRIP
360
47E
  0
XRECORD
  5
486
102
{ACAD_REACTORS
330
485
102
}
330
485
100
AcDbXrecord
280
     1
102
DISPLAYNAME
  1
Imperial24
102
FLAGS
 90
        0
  0
XRECORD
  5
44D
102
{ACAD_REACTORS
330
44C
102
}
330
44C
100
AcDbXrecord
280
     1
102
MATERIAL
148
0.0
149
0.0
149
0.0
 93
        0
 94
       63
282
     0
 72
     1
 77
     1
171
     1
175
     1
179
     1
273
     0
  0
XRECORD
  5
44B
102
{ACAD_REACTORS
330
44A
102
}
330
44A
100
AcDbXrecord
280
     1
102
MATERIAL
148
0.0
149
0.0
149
0.0
 93
        0
 94
       63
282
     0
 72
     1
 77
     1
171
     1
175
     1
179
     1
273
     0
  0
XRECORD
  5
44E
102
{ACAD_REACTORS
330
110
102
}
330
110
100
AcDbXrecord
280
     1
102
MATERIAL
148
0.0
149
0.0
149
0.0
 93
        0
 94
       63
282
     0
 72
     1
 77
     1
171
     1
175
     1
179
     1
273
     0
  0
XRECORD
  5
112
102
{ACAD_REACTORS
330
110
102
}
330
110
100
AcDbXrecord
280
     1
270
     1
271
     1
  0
XRECORD
  5
111
102
{ACAD_REACTORS
330
110
102
}
330
110
100
AcDbXrecord
280
     1
270
     1
271
     1
  0
XRECORD
  5
113
102
{ACAD_REACTORS
330
110
102
}
330
110
100
AcDbXrecord
280
     1
270
     1
271
     1
  0
XRECORD
  5
114
102
{ACAD_REACTORS
330
110
102
}
330
110
100
AcDbXrecord
280
     1
270
     1
271
     1
  0
XRECORD
  5
484
102
{ACAD_REACTORS
330
483
102
}
330
483
100
AcDbXrecord
280
     1
102
DISPLAYNAME
  1
Imperial24
102
FLAGS
 90
        0
  0
CELLSTYLEMAP
  5
447
102
{ACAD_REACTORS
330
104
102
}
330
104
100
AcDbCellStyleMap
 90
        3
300
CELLSTYLE
  1
TABLEFORMAT_BEGIN
 90
        5
170
     1
 91
        0
 92
    32768
 62
   257
 93
        1
300
CONTENTFORMAT
  1
CONTENTFORMAT_BEGIN
 90
        0
 91
        0
 92
      512
 93
        0
300

 40
0.0
140
1.0
 94
        5
 62
     0
340
11
144
0.25
309
CONTENTFORMAT_END
171
     1
301
MARGIN
  1
CELLMARGIN_BEGIN
 40
0.06
 40
0.06
 40
0.06
 40
0.06
 40
0.18
 40
0.18
309
CELLMARGIN_END
 94
        6
 95
        1
302
GRIDFORMAT
  1
GRIDFORMAT_BEGIN
 90
        0
 91
        1
 62
     0
 92
       -2
340
0
 93
        0
 40
0.045
309
GRIDFORMAT_END
 95
        2
302
GRIDFORMAT
  1
GRIDFORMAT_BEGIN
 90
        0
 91
        1
 62
     0
 92
       -2
340
0
 93
        0
 40
0.045
309
GRIDFORMAT_END
 95
        4
302
GRIDFORMAT
  1
GRIDFORMAT_BEGIN
 90
        0
 91
        1
 62
     0
 92
       -2
340
0
 93
        0
 40
0.045
309
GRIDFORMAT_END
 95
        8
302
GRIDFORMAT
  1
GRIDFORMAT_BEGIN
 90
        0
 91
        1
 62
     0
 92
       -2
340
0
 93
        0
 40
0.045
309
GRIDFORMAT_END
 95
       16
302
GRIDFORMAT
  1
GRIDFORMAT_BEGIN
 90
        0
 91
        1
 62
     0
 92
       -2
340
0
 93
        0
 40
0.045
309
GRIDFORMAT_END
 95
       32
302
GRIDFORMAT
  1
GRIDFORMAT_BEGIN
 90
        0
 91
        1
 62
     0
 92
       -2
340
0
 93
        0
 40
0.045
309
GRIDFORMAT_END
309
TABLEFORMAT_END
  1
CELLSTYLE_BEGIN
 90
        1
 91
        1
300
_TITLE
309
CELLSTYLE_END
300
CELLSTYLE
  1
TABLEFORMAT_BEGIN
 90
        5
170
     1
 91
        0
 92
        0
 62
   257
 93
        1
300
CONTENTFORMAT
  1
CONTENTFORMAT_BEGIN
 90
        0
 91
        0
 92
      512
 93
        0
300

 40
0.0
140
1.0
 94
        5
 62
     0
340
11
144
0.18
309
CONTENTFORMAT_END
171
     1
301
MARGIN
  1
CELLMARGIN_BEGIN
 40
0.06
 40
0.06
 40
0.06
 40
0.06
 40
0.18
 40
0.18
309
CELLMARGIN_END
 94
        6
 95
        1
302
GRIDFORMAT
  1
GRIDFORMAT_BEGIN
 90
        0
 91
        1
 62
     0
 92
       -2
340
0
 93
        0
 40
0.045
309
GRIDFORMAT_END
 95
        2
302
GRIDFORMAT
  1
GRIDFORMAT_BEGIN
 90
        0
 91
        1
 62
     0
 92
       -2
340
0
 93
        0
 40
0.045
309
GRIDFORMAT_END
 95
        4
302
GRIDFORMAT
  1
GRIDFORMAT_BEGIN
 90
        0
 91
        1
 62
     0
 92
       -2
340
0
 93
        0
 40
0.045
309
GRIDFORMAT_END
 95
        8
302
GRIDFORMAT
  1
GRIDFORMAT_BEGIN
 90
        0
 91
        1
 62
     0
 92
       -2
340
0
 93
        0
 40
0.045
309
GRIDFORMAT_END
 95
       16
302
GRIDFORMAT
  1
GRIDFORMAT_BEGIN
 90
        0
 91
        1
 62
     0
 92
       -2
340
0
 93
        0
 40
0.045
309
GRIDFORMAT_END
 95
       32
302
GRIDFORMAT
  1
GRIDFORMAT_BEGIN
 90
        0
 91
        1
 62
     0
 92
       -2
340
0
 93
        0
 40
0.045
309
GRIDFORMAT_END
309
TABLEFORMAT_END
  1
CELLSTYLE_BEGIN
 90
        2
 91
        1
300
_HEADER
309
CELLSTYLE_END
300
CELLSTYLE
  1
TABLEFORMAT_BEGIN
 90
        5
170
     1
 91
        0
 92
        0
 62
   257
 93
        1
300
CONTENTFORMAT
  1
CONTENTFORMAT_BEGIN
 90
        0
 91
        0
 92
      512
 93
        0
300

 40
0.0
140
1.0
 94
        2
 62
     0
340
11
144
0.18
309
CONTENTFORMAT_END
171
     1
301
MARGIN
  1
CELLMARGIN_BEGIN
 40
0.06
 40
0.06
 40
0.06
 40
0.06
 40
0.18
 40
0.18
309
CELLMARGIN_END
 94
        6
 95
        1
302
GRIDFORMAT
  1
GRIDFORMAT_BEGIN
 90
        0
 91
        1
 62
     0
 92
       -2
340
0
 93
        0
 40
0.045
309
GRIDFORMAT_END
 95
        2
302
GRIDFORMAT
  1
GRIDFORMAT_BEGIN
 90
        0
 91
        1
 62
     0
 92
       -2
340
0
 93
        0
 40
0.045
309
GRIDFORMAT_END
 95
        4
302
GRIDFORMAT
  1
GRIDFORMAT_BEGIN
 90
        0
 91
        1
 62
     0
 92
       -2
340
0
 93
        0
 40
0.045
309
GRIDFORMAT_END
 95
        8
302
GRIDFORMAT
  1
GRIDFORMAT_BEGIN
 90
        0
 91
        1
 62
     0
 92
       -2
340
0
 93
        0
 40
0.045
309
GRIDFORMAT_END
 95
       16
302
GRIDFORMAT
  1
GRIDFORMAT_BEGIN
 90
        0
 91
        1
 62
     0
 92
       -2
340
0
 93
        0
 40
0.045
309
GRIDFORMAT_END
 95
       32
302
GRIDFORMAT
  1
GRIDFORMAT_BEGIN
 90
        0
 91
        1
 62
     0
 92
       -2
340
0
 93
        0
 40
0.045
309
GRIDFORMAT_END
309
TABLEFORMAT_END
  1
CELLSTYLE_BEGIN
 90
        3
 91
        2
300
_DATA
309
CELLSTYLE_END
  0
XRECORD
  5
449
102
{ACAD_REACTORS
330
104
102
}
330
104
100
AcDbXrecord
280
     1
102
ACAD_ROUNDTRIP_PRE2007_TABLESTYLE
 90
      512
 91
        0
  1

 92
      512
 93
        0
  2

 94
      512
 95
        0
  3

  0
XRECORD
  5
45A
102
{ACAD_REACTORS
330
459
102
}
330
459
100
AcDbXrecord
280
     1
102
RTVSPost2010Prop28
280
     1
102
RTVSPost2010PropOp28
 70
     1
102
RTVSPost2010Prop29
280
     1
102
RTVSPost2010PropOp29
 70
     1
102
RTVSPost2010Prop30
280
     0
102
RTVSPost2010PropOp30
 70
     1
102
RTVSPost2010Prop31
280
     0
102
RTVSPost2010PropOp31
 70
     1
102
RTVSPost2010Prop32
280
     0
102
RTVSPost2010PropOp32
 70
     1
102
RTVSPost2010Prop33
280
     0
102
RTVSPost2010PropOp33
 70
     1
102
RTVSPost2010Prop34
280
     0
102
RTVSPost2010PropOp34
 70
     1
102
RTVSPost2010Prop35
280
     0
102
RTVSPost2010PropOp35
 70
     1
102
RTVSPost2010Prop36
280
     0
102
RTVSPost2010PropOp36
 70
     1
102
RTVSPost2010Prop37
 90
       50
102
RTVSPost2010PropOp37
 70
     1
102
RTVSPost2010Prop38
140
0.0
102
RTVSPost2010PropOp38
 70
     1
102
RTVSPost2010Prop39
140
1.0
102
RTVSPost2010PropOp39
 70
     1
102
RTVSPost2010Prop40
 90
        0
102
RTVSPost2010PropOp40
 70
     1
102
RTVSPost2010Prop41ColorIndex
 90
       18
102
RTVSPost2010Prop41ColorRGB
 90
        0
102
RTVSPost2010PropOp41
 70
     1
102
RTVSPost2010Prop42
 90
       50
102
RTVSPost2010PropOp42
 70
     1
102
RTVSPost2010Prop43
 90
        3
102
RTVSPost2010PropOp43
 70
     1
102
RTVSPost2010Prop44ColorIndex
 90
        5
102
RTVSPost2010Prop44ColorRGB
 90
      255
102
RTVSPost2010PropOp44
 70
     1
102
RTVSPost2010Prop45
280
     0
102
RTVSPost2010PropOp45
 70
     1
102
RTVSPost2010Prop46
 90
       50
102
RTVSPost2010PropOp46
 70
     1
102
RTVSPost2010Prop47
 90
       50
102
RTVSPost2010PropOp47
 70
     1
102
RTVSPost2010Prop48
 90
       50
102
RTVSPost2010PropOp48
 70
     1
102
RTVSPost2010Prop49
280
     0
102
RTVSPost2010PropOp49
 70
     1
102
RTVSPost2010Prop50
 90
       50
102
RTVSPost2010PropOp50
 70
     1
102
RTVSPost2010Prop51ColorIndex
 90
      256
102
RTVSPost2010Prop51ColorRGB
 90
-16777216
102
RTVSPost2010PropOp51
 70
     0
102
RTVSPost2010Prop52
140
1.0
102
RTVSPost2010PropOp52
 70
     0
102
RTVSPost2010Prop53
 90
        2
102
RTVSPost2010PropOp53
 70
     1
102
RTVSPost2010Prop54
  1
strokes_ogs.tif
102
RTVSPost2010PropOp54
 70
     1
102
RTVSPost2010Prop55
280
     0
102
RTVSPost2010PropOp55
 70
     1
102
RTVSPost2010Prop56
140
1.0
102
RTVSPost2010PropOp56
 70
     1
102
RTVSPost2010Prop57
140
1.0
102
RTVSPost2010PropOp57
 70
     1
102
RTVSPropertyOp0
 70
     1
102
RTVSPropertyOp1
 70
     1
102
RTVSPropertyOp2
 70
     1
102
RTVSPropertyOp3
 70
     1
102
RTVSPropertyOp4
 70
     1
102
RTVSPropertyOp5
 70
     1
102
RTVSPropertyOp6
 70
     1
102
RTVSPropertyOp7
 70
     1
102
RTVSPropertyOp8
 70
     1
102
RTVSPropertyOp9
 70
     1
102
RTVSPropertyOp10
 70
     1
102
RTVSPropertyOp11
 70
     1
102
RTVSPropertyOp12
 70
     1
102
RTVSPropertyOp13
 70
     1
102
RTVSPropertyOp14
 70
     1
102
RTVSPropertyOp15
 70
     1
102
RTVSPropertyOp16
 70
     1
102
RTVSPropertyOp17
 70
     1
102
RTVSPropertyOp18
 70
     1
102
RTVSPropertyOp19
 70
     1
102
RTVSPropertyOp20
 70
     1
102
RTVSPropertyOp21
 70
     1
102
RTVSPropertyOp22
 70
     1
102
RTVSPropertyOp23
 70
     1
102
RTVSPropertyOp24
 70
     1
102
RTVSPropertyOp25
 70
     1
102
RTVSPropertyOp26
 70
     1
102
RTVSPropertyOp27
 70
     1
102
RTVSPropertyOp28
 70
     1
102
RTVSPropertyOp29
 70
     1
102
RTVSPropertyOp30
 70
     1
102
RTVSPropertyOp31
 70
     1
102
RTVSPropertyOp32
 70
     1
102
RTVSPropertyOp33
 70
     1
102
RTVSPropertyOp34
 70
     1
102
RTVSPropertyOp35
 70
     1
102
RTVSPropertyOp36
 70
     1
102
RTVSPropertyOp37
 70
     1
102
RTVSPropertyOp38
 70
     1
102
RTVSPropertyOp39
 70
     1
102
RTVSPropertyOp40
 70
     1
102
RTVSPropertyOp41
 70
     1
102
RTVSPropertyOp42
 70
     1
102
RTVSPropertyOp43
 70
     1
102
RTVSPropertyOp44
 70
     1
102
RTVSPropertyOp45
 70
     1
102
RTVSPropertyOp46
 70
     1
102
RTVSPropertyOp47
 70
     1
102
RTVSPropertyOp48
 70
     1
102
RTVSPropertyOp49
 70
     1
102
RTVSPropertyOp50
 70
     1
102
RTVSPropertyOp51
 70
     0
102
RTVSPropertyOp52
 70
     0
102
RTVSPropertyOp53
 70
     1
102
RTVSPropertyOp54
 70
     1
102
RTVSPropertyOp55
 70
     1
102
RTVSPropertyOp56
 70
     1
102
RTVSPropertyOp57
 70
     1
102
RTVSPropertyOp58
 70
     1
102
RTVSPropertyOp59
 70
     1
102
RTVSPropertyOp60
 70
     1
102
RTVSPropertyOp61
 70
     1
102
RTVSPropertyOp62
 70
     1
  0
XRECORD
  5
45E
102
{ACAD_REACTORS
330
45D
102
}
330
45D
100
AcDbXrecord
280
     1
102
RTVSPost2010Prop28
280
     0
102
RTVSPost2010PropOp28
 70
     1
102
RTVSPost2010Prop29
280
     1
102
RTVSPost2010PropOp29
 70
     1
102
RTVSPost2010Prop30
280
     1
102
RTVSPost2010PropOp30
 70
     1
102
RTVSPost2010Prop31
280
     0
102
RTVSPost2010PropOp31
 70
     1
102
RTVSPost2010Prop32
280
     0
102
RTVSPost2010PropOp32
 70
     1
102
RTVSPost2010Prop33
280
     0
102
RTVSPost2010PropOp33
 70
     1
102
RTVSPost2010Prop34
280
     0
102
RTVSPost2010PropOp34
 70
     1
102
RTVSPost2010Prop35
280
     0
102
RTVSPost2010PropOp35
 70
     1
102
RTVSPost2010Prop36
280
     0
102
RTVSPost2010PropOp36
 70
     1
102
RTVSPost2010Prop37
 90
       50
102
RTVSPost2010PropOp37
 70
     1
102
RTVSPost2010Prop38
140
0.0
102
RTVSPost2010PropOp38
 70
     1
102
RTVSPost2010Prop39
140
1.0
102
RTVSPost2010PropOp39
 70
     1
102
RTVSPost2010Prop40
 90
        0
102
RTVSPost2010PropOp40
 70
     1
102
RTVSPost2010Prop41ColorIndex
 90
       18
102
RTVSPost2010Prop41ColorRGB
 90
        0
102
RTVSPost2010PropOp41
 70
     1
102
RTVSPost2010Prop42
 90
       50
102
RTVSPost2010PropOp42
 70
     1
102
RTVSPost2010Prop43
 90
        3
102
RTVSPost2010PropOp43
 70
     1
102
RTVSPost2010Prop44ColorIndex
 90
        5
102
RTVSPost2010Prop44ColorRGB
 90
      255
102
RTVSPost2010PropOp44
 70
     1
102
RTVSPost2010Prop45
280
     0
102
RTVSPost2010PropOp45
 70
     1
102
RTVSPost2010Prop46
 90
       50
102
RTVSPost2010PropOp46
 70
     1
102
RTVSPost2010Prop47
 90
       50
102
RTVSPost2010PropOp47
 70
     1
102
RTVSPost2010Prop48
 90
       50
102
RTVSPost2010PropOp48
 70
     1
102
RTVSPost2010Prop49
280
     0
102
RTVSPost2010PropOp49
 70
     1
102
RTVSPost2010Prop50
 90
       50
102
RTVSPost2010PropOp50
 70
     1
102
RTVSPost2010Prop51ColorIndex
 90
      256
102
RTVSPost2010Prop51ColorRGB
 90
-16777216
102
RTVSPost2010PropOp51
 70
     0
102
RTVSPost2010Prop52
140
1.0
102
RTVSPost2010PropOp52
 70
     0
102
RTVSPost2010Prop53
 90
        2
102
RTVSPost2010PropOp53
 70
     1
102
RTVSPost2010Prop54
  1
strokes_ogs.tif
102
RTVSPost2010PropOp54
 70
     1
102
RTVSPost2010Prop55
280
     0
102
RTVSPost2010PropOp55
 70
     1
102
RTVSPost2010Prop56
140
1.0
102
RTVSPost2010PropOp56
 70
     1
102
RTVSPost2010Prop57
140
1.0
102
RTVSPost2010PropOp57
 70
     1
102
RTVSPropertyOp0
 70
     1
102
RTVSPropertyOp1
 70
     1
102
RTVSPropertyOp2
 70
     1
102
RTVSPropertyOp3
 70
     1
102
RTVSPropertyOp4
 70
     1
102
RTVSPropertyOp5
 70
     1
102
RTVSPropertyOp6
 70
     1
102
RTVSPropertyOp7
 70
     1
102
RTVSPropertyOp8
 70
     1
102
RTVSPropertyOp9
 70
     1
102
RTVSPropertyOp10
 70
     1
102
RTVSPropertyOp11
 70
     1
102
RTVSPropertyOp12
 70
     1
102
RTVSPropertyOp13
 70
     1
102
RTVSPropertyOp14
 70
     1
102
RTVSPropertyOp15
 70
     1
102
RTVSPropertyOp16
 70
     1
102
RTVSPropertyOp17
 70
     1
102
RTVSPropertyOp18
 70
     1
102
RTVSPropertyOp19
 70
     1
102
RTVSPropertyOp20
 70
     1
102
RTVSPropertyOp21
 70
     1
102
RTVSPropertyOp22
 70
     1
102
RTVSPropertyOp23
 70
     1
102
RTVSPropertyOp24
 70
     1
102
RTVSPropertyOp25
 70
     1
102
RTVSPropertyOp26
 70
     1
102
RTVSPropertyOp27
 70
     1
102
RTVSPropertyOp28
 70
     1
102
RTVSPropertyOp29
 70
     1
102
RTVSPropertyOp30
 70
     1
102
RTVSPropertyOp31
 70
     1
102
RTVSPropertyOp32
 70
     1
102
RTVSPropertyOp33
 70
     1
102
RTVSPropertyOp34
 70
     1
102
RTVSPropertyOp35
 70
     1
102
RTVSPropertyOp36
 70
     1
102
RTVSPropertyOp37
 70
     1
102
RTVSPropertyOp38
 70
     1
102
RTVSPropertyOp39
 70
     1
102
RTVSPropertyOp40
 70
     1
102
RTVSPropertyOp41
 70
     1
102
RTVSPropertyOp42
 70
     1
102
RTVSPropertyOp43
 70
     1
102
RTVSPropertyOp44
 70
     1
102
RTVSPropertyOp45
 70
     1
102
RTVSPropertyOp46
 70
     1
102
RTVSPropertyOp47
 70
     1
102
RTVSPropertyOp48
 70
     1
102
RTVSPropertyOp49
 70
     1
102
RTVSPropertyOp50
 70
     1
102
RTVSPropertyOp51
 70
     0
102
RTVSPropertyOp52
 70
     0
102
RTVSPropertyOp53
 70
     1
102
RTVSPropertyOp54
 70
     1
102
RTVSPropertyOp55
 70
     1
102
RTVSPropertyOp56
 70
     1
102
RTVSPropertyOp57
 70
     1
102
RTVSPropertyOp58
 70
     1
102
RTVSPropertyOp59
 70
     1
102
RTVSPropertyOp60
 70
     1
102
RTVSPropertyOp61
 70
     1
102
RTVSPropertyOp62
 70
     1
  0
XRECORD
  5
45C
102
{ACAD_REACTORS
330
45B
102
}
330
45B
100
AcDbXrecord
280
     1
102
RTVSPost2010Prop28
280
     0
102
RTVSPost2010PropOp28
 70
     1
102
RTVSPost2010Prop29
280
     1
102
RTVSPost2010PropOp29
 70
     1
102
RTVSPost2010Prop30
280
     1
102
RTVSPost2010PropOp30
 70
     1
102
RTVSPost2010Prop31
280
     0
102
RTVSPost2010PropOp31
 70
     1
102
RTVSPost2010Prop32
280
     0
102
RTVSPost2010PropOp32
 70
     1
102
RTVSPost2010Prop33
280
     0
102
RTVSPost2010PropOp33
 70
     1
102
RTVSPost2010Prop34
280
     0
102
RTVSPost2010PropOp34
 70
     1
102
RTVSPost2010Prop35
280
     0
102
RTVSPost2010PropOp35
 70
     1
102
RTVSPost2010Prop36
280
     0
102
RTVSPost2010PropOp36
 70
     1
102
RTVSPost2010Prop37
 90
       50
102
RTVSPost2010PropOp37
 70
     1
102
RTVSPost2010Prop38
140
0.0
102
RTVSPost2010PropOp38
 70
     1
102
RTVSPost2010Prop39
140
1.0
102
RTVSPost2010PropOp39
 70
     1
102
RTVSPost2010Prop40
 90
        0
102
RTVSPost2010PropOp40
 70
     1
102
RTVSPost2010Prop41ColorIndex
 90
       18
102
RTVSPost2010Prop41ColorRGB
 90
        0
102
RTVSPost2010PropOp41
 70
     1
102
RTVSPost2010Prop42
 90
       50
102
RTVSPost2010PropOp42
 70
     1
102
RTVSPost2010Prop43
 90
        3
102
RTVSPost2010PropOp43
 70
     1
102
RTVSPost2010Prop44ColorIndex
 90
        5
102
RTVSPost2010Prop44ColorRGB
 90
      255
102
RTVSPost2010PropOp44
 70
     1
102
RTVSPost2010Prop45
280
     0
102
RTVSPost2010PropOp45
 70
     1
102
RTVSPost2010Prop46
 90
       50
102
RTVSPost2010PropOp46
 70
     1
102
RTVSPost2010Prop47
 90
       50
102
RTVSPost2010PropOp47
 70
     1
102
RTVSPost2010Prop48
 90
       50
102
RTVSPost2010PropOp48
 70
     1
102
RTVSPost2010Prop49
280
     0
102
RTVSPost2010PropOp49
 70
     1
102
RTVSPost2010Prop50
 90
       50
102
RTVSPost2010PropOp50
 70
     1
102
RTVSPost2010Prop51ColorIndex
 90
      256
102
RTVSPost2010Prop51ColorRGB
 90
-16777216
102
RTVSPost2010PropOp51
 70
     0
102
RTVSPost2010Prop52
140
1.0
102
RTVSPost2010PropOp52
 70
     0
102
RTVSPost2010Prop53
 90
        2
102
RTVSPost2010PropOp53
 70
     1
102
RTVSPost2010Prop54
  1
strokes_ogs.tif
102
RTVSPost2010PropOp54
 70
     1
102
RTVSPost2010Prop55
280
     0
102
RTVSPost2010PropOp55
 70
     1
102
RTVSPost2010Prop56
140
1.0
102
RTVSPost2010PropOp56
 70
     1
102
RTVSPost2010Prop57
140
1.0
102
RTVSPost2010PropOp57
 70
     1
102
RTVSPropertyOp0
 70
     1
102
RTVSPropertyOp1
 70
     1
102
RTVSPropertyOp2
 70
     1
102
RTVSPropertyOp3
 70
     1
102
RTVSPropertyOp4
 70
     1
102
RTVSPropertyOp5
 70
     1
102
RTVSPropertyOp6
 70
     1
102
RTVSPropertyOp7
 70
     1
102
RTVSPropertyOp8
 70
     1
102
RTVSPropertyOp9
 70
     1
102
RTVSPropertyOp10
 70
     1
102
RTVSPropertyOp11
 70
     1
102
RTVSPropertyOp12
 70
     1
102
RTVSPropertyOp13
 70
     1
102
RTVSPropertyOp14
 70
     1
102
RTVSPropertyOp15
 70
     1
102
RTVSPropertyOp16
 70
     1
102
RTVSPropertyOp17
 70
     1
102
RTVSPropertyOp18
 70
     1
102
RTVSPropertyOp19
 70
     1
102
RTVSPropertyOp20
 70
     1
102
RTVSPropertyOp21
 70
     1
102
RTVSPropertyOp22
 70
     1
102
RTVSPropertyOp23
 70
     1
102
RTVSPropertyOp24
 70
     1
102
RTVSPropertyOp25
 70
     1
102
RTVSPropertyOp26
 70
     1
102
RTVSPropertyOp27
 70
     1
102
RTVSPropertyOp28
 70
     1
102
RTVSPropertyOp29
 70
     1
102
RTVSPropertyOp30
 70
     1
102
RTVSPropertyOp31
 70
     1
102
RTVSPropertyOp32
 70
     1
102
RTVSPropertyOp33
 70
     1
102
RTVSPropertyOp34
 70
     1
102
RTVSPropertyOp35
 70
     1
102
RTVSPropertyOp36
 70
     1
102
RTVSPropertyOp37
 70
     1
102
RTVSPropertyOp38
 70
     1
102
RTVSPropertyOp39
 70
     1
102
RTVSPropertyOp40
 70
     1
102
RTVSPropertyOp41
 70
     1
102
RTVSPropertyOp42
 70
     1
102
RTVSPropertyOp43
 70
     1
102
RTVSPropertyOp44
 70
     1
102
RTVSPropertyOp45
 70
     1
102
RTVSPropertyOp46
 70
     1
102
RTVSPropertyOp47
 70
     1
102
RTVSPropertyOp48
 70
     1
102
RTVSPropertyOp49
 70
     1
102
RTVSPropertyOp50
 70
     1
102
RTVSPropertyOp51
 70
     0
102
RTVSPropertyOp52
 70
     0
102
RTVSPropertyOp53
 70
     1
102
RTVSPropertyOp54
 70
     1
102
RTVSPropertyOp55
 70
     1
102
RTVSPropertyOp56
 70
     1
102
RTVSPropertyOp57
 70
     1
102
RTVSPropertyOp58
 70
     1
102
RTVSPropertyOp59
 70
     1
102
RTVSPropertyOp60
 70
     1
102
RTVSPropertyOp61
 70
     1
102
RTVSPropertyOp62
 70
     1
  0
XRECORD
  5
458
102
{ACAD_REACTORS
330
457
102
}
330
457
100
AcDbXrecord
280
     1
102
RTVSPost2010Prop28
280
     0
102
RTVSPost2010PropOp28
 70
     1
102
RTVSPost2010Prop29
280
     1
102
RTVSPost2010PropOp29
 70
     1
102
RTVSPost2010Prop30
280
     1
102
RTVSPost2010PropOp30
 70
     1
102
RTVSPost2010Prop31
280
     0
102
RTVSPost2010PropOp31
 70
     1
102
RTVSPost2010Prop32
280
     0
102
RTVSPost2010PropOp32
 70
     1
102
RTVSPost2010Prop33
280
     0
102
RTVSPost2010PropOp33
 70
     1
102
RTVSPost2010Prop34
280
     0
102
RTVSPost2010PropOp34
 70
     1
102
RTVSPost2010Prop35
280
     0
102
RTVSPost2010PropOp35
 70
     1
102
RTVSPost2010Prop36
280
     0
102
RTVSPost2010PropOp36
 70
     1
102
RTVSPost2010Prop37
 90
       50
102
RTVSPost2010PropOp37
 70
     1
102
RTVSPost2010Prop38
140
0.0
102
RTVSPost2010PropOp38
 70
     1
102
RTVSPost2010Prop39
140
1.0
102
RTVSPost2010PropOp39
 70
     1
102
RTVSPost2010Prop40
 90
        0
102
RTVSPost2010PropOp40
 70
     1
102
RTVSPost2010Prop41ColorIndex
 90
       18
102
RTVSPost2010Prop41ColorRGB
 90
        0
102
RTVSPost2010PropOp41
 70
     1
102
RTVSPost2010Prop42
 90
       50
102
RTVSPost2010PropOp42
 70
     1
102
RTVSPost2010Prop43
 90
        3
102
RTVSPost2010PropOp43
 70
     1
102
RTVSPost2010Prop44ColorIndex
 90
        5
102
RTVSPost2010Prop44ColorRGB
 90
      255
102
RTVSPost2010PropOp44
 70
     1
102
RTVSPost2010Prop45
280
     0
102
RTVSPost2010PropOp45
 70
     1
102
RTVSPost2010Prop46
 90
       50
102
RTVSPost2010PropOp46
 70
     1
102
RTVSPost2010Prop47
 90
       50
102
RTVSPost2010PropOp47
 70
     1
102
RTVSPost2010Prop48
 90
       50
102
RTVSPost2010PropOp48
 70
     1
102
RTVSPost2010Prop49
280
     0
102
RTVSPost2010PropOp49
 70
     1
102
RTVSPost2010Prop50
 90
       50
102
RTVSPost2010PropOp50
 70
     1
102
RTVSPost2010Prop51ColorIndex
 90
      256
102
RTVSPost2010Prop51ColorRGB
 90
-16777216
102
RTVSPost2010PropOp51
 70
     0
102
RTVSPost2010Prop52
140
1.0
102
RTVSPost2010PropOp52
 70
     0
102
RTVSPost2010Prop53
 90
        2
102
RTVSPost2010PropOp53
 70
     1
102
RTVSPost2010Prop54
  1
strokes_ogs.tif
102
RTVSPost2010PropOp54
 70
     1
102
RTVSPost2010Prop55
280
     0
102
RTVSPost2010PropOp55
 70
     1
102
RTVSPost2010Prop56
140
1.0
102
RTVSPost2010PropOp56
 70
     1
102
RTVSPost2010Prop57
140
1.0
102
RTVSPost2010PropOp57
 70
     1
102
RTVSPropertyOp0
 70
     1
102
RTVSPropertyOp1
 70
     1
102
RTVSPropertyOp2
 70
     1
102
RTVSPropertyOp3
 70
     1
102
RTVSPropertyOp4
 70
     1
102
RTVSPropertyOp5
 70
     1
102
RTVSPropertyOp6
 70
     1
102
RTVSPropertyOp7
 70
     1
102
RTVSPropertyOp8
 70
     1
102
RTVSPropertyOp9
 70
     1
102
RTVSPropertyOp10
 70
     1
102
RTVSPropertyOp11
 70
     1
102
RTVSPropertyOp12
 70
     1
102
RTVSPropertyOp13
 70
     1
102
RTVSPropertyOp14
 70
     1
102
RTVSPropertyOp15
 70
     1
102
RTVSPropertyOp16
 70
     1
102
RTVSPropertyOp17
 70
     1
102
RTVSPropertyOp18
 70
     1
102
RTVSPropertyOp19
 70
     1
102
RTVSPropertyOp20
 70
     1
102
RTVSPropertyOp21
 70
     1
102
RTVSPropertyOp22
 70
     1
102
RTVSPropertyOp23
 70
     1
102
RTVSPropertyOp24
 70
     1
102
RTVSPropertyOp25
 70
     1
102
RTVSPropertyOp26
 70
     1
102
RTVSPropertyOp27
 70
     1
102
RTVSPropertyOp28
 70
     1
102
RTVSPropertyOp29
 70
     1
102
RTVSPropertyOp30
 70
     1
102
RTVSPropertyOp31
 70
     1
102
RTVSPropertyOp32
 70
     1
102
RTVSPropertyOp33
 70
     1
102
RTVSPropertyOp34
 70
     1
102
RTVSPropertyOp35
 70
     1
102
RTVSPropertyOp36
 70
     1
102
RTVSPropertyOp37
 70
     1
102
RTVSPropertyOp38
 70
     1
102
RTVSPropertyOp39
 70
     1
102
RTVSPropertyOp40
 70
     1
102
RTVSPropertyOp41
 70
     1
102
RTVSPropertyOp42
 70
     1
102
RTVSPropertyOp43
 70
     1
102
RTVSPropertyOp44
 70
     1
102
RTVSPropertyOp45
 70
     1
102
RTVSPropertyOp46
 70
     1
102
RTVSPropertyOp47
 70
     1
102
RTVSPropertyOp48
 70
     1
102
RTVSPropertyOp49
 70
     1
102
RTVSPropertyOp50
 70
     1
102
RTVSPropertyOp51
 70
     0
102
RTVSPropertyOp52
 70
     0
102
RTVSPropertyOp53
 70
     1
102
RTVSPropertyOp54
 70
     1
102
RTVSPropertyOp55
 70
     1
102
RTVSPropertyOp56
 70
     1
102
RTVSPropertyOp57
 70
     1
102
RTVSPropertyOp58
 70
     1
102
RTVSPropertyOp59
 70
     1
102
RTVSPropertyOp60
 70
     1
102
RTVSPropertyOp61
 70
     1
102
RTVSPropertyOp62
 70
     1
  0
XRECORD
  5
466
102
{ACAD_REACTORS
330
465
102
}
330
465
100
AcDbXrecord
280
     1
102
RTVSPost2010Prop28
280
     0
102
RTVSPost2010PropOp28
 70
     1
102
RTVSPost2010Prop29
280
     1
102
RTVSPost2010PropOp29
 70
     1
102
RTVSPost2010Prop30
280
     1
102
RTVSPost2010PropOp30
 70
     1
102
RTVSPost2010Prop31
280
     0
102
RTVSPost2010PropOp31
 70
     1
102
RTVSPost2010Prop32
280
     0
102
RTVSPost2010PropOp32
 70
     1
102
RTVSPost2010Prop33
280
     0
102
RTVSPost2010PropOp33
 70
     1
102
RTVSPost2010Prop34
280
     0
102
RTVSPost2010PropOp34
 70
     1
102
RTVSPost2010Prop35
280
     0
102
RTVSPost2010PropOp35
 70
     1
102
RTVSPost2010Prop36
280
     0
102
RTVSPost2010PropOp36
 70
     1
102
RTVSPost2010Prop37
 90
       50
102
RTVSPost2010PropOp37
 70
     1
102
RTVSPost2010Prop38
140
0.0
102
RTVSPost2010PropOp38
 70
     1
102
RTVSPost2010Prop39
140
1.0
102
RTVSPost2010PropOp39
 70
     1
102
RTVSPost2010Prop40
 90
        0
102
RTVSPost2010PropOp40
 70
     1
102
RTVSPost2010Prop41ColorIndex
 90
       18
102
RTVSPost2010Prop41ColorRGB
 90
        0
102
RTVSPost2010PropOp41
 70
     1
102
RTVSPost2010Prop42
 90
       50
102
RTVSPost2010PropOp42
 70
     1
102
RTVSPost2010Prop43
 90
        3
102
RTVSPost2010PropOp43
 70
     1
102
RTVSPost2010Prop44ColorIndex
 90
        5
102
RTVSPost2010Prop44ColorRGB
 90
      255
102
RTVSPost2010PropOp44
 70
     1
102
RTVSPost2010Prop45
280
     0
102
RTVSPost2010PropOp45
 70
     1
102
RTVSPost2010Prop46
 90
       50
102
RTVSPost2010PropOp46
 70
     1
102
RTVSPost2010Prop47
 90
       50
102
RTVSPost2010PropOp47
 70
     1
102
RTVSPost2010Prop48
 90
       50
102
RTVSPost2010PropOp48
 70
     1
102
RTVSPost2010Prop49
280
     0
102
RTVSPost2010PropOp49
 70
     1
102
RTVSPost2010Prop50
 90
       50
102
RTVSPost2010PropOp50
 70
     1
102
RTVSPost2010Prop51ColorIndex
 90
      256
102
RTVSPost2010Prop51ColorRGB
 90
-16777216
102
RTVSPost2010PropOp51
 70
     0
102
RTVSPost2010Prop52
140
1.0
102
RTVSPost2010PropOp52
 70
     0
102
RTVSPost2010Prop53
 90
        2
102
RTVSPost2010PropOp53
 70
     1
102
RTVSPost2010Prop54
  1
strokes_ogs.tif
102
RTVSPost2010PropOp54
 70
     1
102
RTVSPost2010Prop55
280
     0
102
RTVSPost2010PropOp55
 70
     1
102
RTVSPost2010Prop56
140
1.0
102
RTVSPost2010PropOp56
 70
     1
102
RTVSPost2010Prop57
140
1.0
102
RTVSPost2010PropOp57
 70
     1
102
RTVSPropertyOp0
 70
     1
102
RTVSPropertyOp1
 70
     1
102
RTVSPropertyOp2
 70
     1
102
RTVSPropertyOp3
 70
     1
102
RTVSPropertyOp4
 70
     1
102
RTVSPropertyOp5
 70
     1
102
RTVSPropertyOp6
 70
     1
102
RTVSPropertyOp7
 70
     1
102
RTVSPropertyOp8
 70
     1
102
RTVSPropertyOp9
 70
     1
102
RTVSPropertyOp10
 70
     1
102
RTVSPropertyOp11
 70
     1
102
RTVSPropertyOp12
 70
     1
102
RTVSPropertyOp13
 70
     1
102
RTVSPropertyOp14
 70
     1
102
RTVSPropertyOp15
 70
     1
102
RTVSPropertyOp16
 70
     1
102
RTVSPropertyOp17
 70
     1
102
RTVSPropertyOp18
 70
     1
102
RTVSPropertyOp19
 70
     1
102
RTVSPropertyOp20
 70
     1
102
RTVSPropertyOp21
 70
     1
102
RTVSPropertyOp22
 70
     1
102
RTVSPropertyOp23
 70
     1
102
RTVSPropertyOp24
 70
     1
102
RTVSPropertyOp25
 70
     1
102
RTVSPropertyOp26
 70
     1
102
RTVSPropertyOp27
 70
     1
102
RTVSPropertyOp28
 70
     1
102
RTVSPropertyOp29
 70
     1
102
RTVSPropertyOp30
 70
     1
102
RTVSPropertyOp31
 70
     1
102
RTVSPropertyOp32
 70
     1
102
RTVSPropertyOp33
 70
     1
102
RTVSPropertyOp34
 70
     1
102
RTVSPropertyOp35
 70
     1
102
RTVSPropertyOp36
 70
     1
102
RTVSPropertyOp37
 70
     1
102
RTVSPropertyOp38
 70
     1
102
RTVSPropertyOp39
 70
     1
102
RTVSPropertyOp40
 70
     1
102
RTVSPropertyOp41
 70
     1
102
RTVSPropertyOp42
 70
     1
102
RTVSPropertyOp43
 70
     1
102
RTVSPropertyOp44
 70
     1
102
RTVSPropertyOp45
 70
     1
102
RTVSPropertyOp46
 70
     1
102
RTVSPropertyOp47
 70
     1
102
RTVSPropertyOp48
 70
     1
102
RTVSPropertyOp49
 70
     1
102
RTVSPropertyOp50
 70
     1
102
RTVSPropertyOp51
 70
     0
102
RTVSPropertyOp52
 70
     0
102
RTVSPropertyOp53
 70
     1
102
RTVSPropertyOp54
 70
     1
102
RTVSPropertyOp55
 70
     1
102
RTVSPropertyOp56
 70
     1
102
RTVSPropertyOp57
 70
     1
102
RTVSPropertyOp58
 70
     1
102
RTVSPropertyOp59
 70
     1
102
RTVSPropertyOp60
 70
     1
102
RTVSPropertyOp61
 70
     1
102
RTVSPropertyOp62
 70
     1
  0
XRECORD
  5
46E
102
{ACAD_REACTORS
330
46D
102
}
330
46D
100
AcDbXrecord
280
     1
102
RTVSPost2010Prop28
280
     0
102
RTVSPost2010PropOp28
 70
     1
102
RTVSPost2010Prop29
280
     1
102
RTVSPost2010PropOp29
 70
     1
102
RTVSPost2010Prop30
280
     1
102
RTVSPost2010PropOp30
 70
     1
102
RTVSPost2010Prop31
280
     0
102
RTVSPost2010PropOp31
 70
     1
102
RTVSPost2010Prop32
280
     0
102
RTVSPost2010PropOp32
 70
     1
102
RTVSPost2010Prop33
280
     0
102
RTVSPost2010PropOp33
 70
     1
102
RTVSPost2010Prop34
280
     0
102
RTVSPost2010PropOp34
 70
     1
102
RTVSPost2010Prop35
280
     0
102
RTVSPost2010PropOp35
 70
     1
102
RTVSPost2010Prop36
280
     0
102
RTVSPost2010PropOp36
 70
     1
102
RTVSPost2010Prop37
 90
       50
102
RTVSPost2010PropOp37
 70
     1
102
RTVSPost2010Prop38
140
0.0
102
RTVSPost2010PropOp38
 70
     1
102
RTVSPost2010Prop39
140
1.0
102
RTVSPost2010PropOp39
 70
     1
102
RTVSPost2010Prop40
 90
        0
102
RTVSPost2010PropOp40
 70
     1
102
RTVSPost2010Prop41ColorIndex
 90
       18
102
RTVSPost2010Prop41ColorRGB
 90
        0
102
RTVSPost2010PropOp41
 70
     1
102
RTVSPost2010Prop42
 90
       50
102
RTVSPost2010PropOp42
 70
     1
102
RTVSPost2010Prop43
 90
        3
102
RTVSPost2010PropOp43
 70
     1
102
RTVSPost2010Prop44ColorIndex
 90
        5
102
RTVSPost2010Prop44ColorRGB
 90
      255
102
RTVSPost2010PropOp44
 70
     1
102
RTVSPost2010Prop45
280
     0
102
RTVSPost2010PropOp45
 70
     1
102
RTVSPost2010Prop46
 90
       50
102
RTVSPost2010PropOp46
 70
     1
102
RTVSPost2010Prop47
 90
       50
102
RTVSPost2010PropOp47
 70
     1
102
RTVSPost2010Prop48
 90
       50
102
RTVSPost2010PropOp48
 70
     1
102
RTVSPost2010Prop49
280
     0
102
RTVSPost2010PropOp49
 70
     1
102
RTVSPost2010Prop50
 90
       50
102
RTVSPost2010PropOp50
 70
     1
102
RTVSPost2010Prop51ColorIndex
 90
      256
102
RTVSPost2010Prop51ColorRGB
 90
-16777216
102
RTVSPost2010PropOp51
 70
     0
102
RTVSPost2010Prop52
140
1.0
102
RTVSPost2010PropOp52
 70
     0
102
RTVSPost2010Prop53
 90
        2
102
RTVSPost2010PropOp53
 70
     1
102
RTVSPost2010Prop54
  1
strokes_ogs.tif
102
RTVSPost2010PropOp54
 70
     1
102
RTVSPost2010Prop55
280
     0
102
RTVSPost2010PropOp55
 70
     1
102
RTVSPost2010Prop56
140
1.0
102
RTVSPost2010PropOp56
 70
     1
102
RTVSPost2010Prop57
140
1.0
102
RTVSPost2010PropOp57
 70
     1
102
RTVSPropertyOp0
 70
     1
102
RTVSPropertyOp1
 70
     1
102
RTVSPropertyOp2
 70
     1
102
RTVSPropertyOp3
 70
     1
102
RTVSPropertyOp4
 70
     1
102
RTVSPropertyOp5
 70
     1
102
RTVSPropertyOp6
 70
     1
102
RTVSPropertyOp7
 70
     1
102
RTVSPropertyOp8
 70
     1
102
RTVSPropertyOp9
 70
     1
102
RTVSPropertyOp10
 70
     1
102
RTVSPropertyOp11
 70
     1
102
RTVSPropertyOp12
 70
     1
102
RTVSPropertyOp13
 70
     1
102
RTVSPropertyOp14
 70
     1
102
RTVSPropertyOp15
 70
     1
102
RTVSPropertyOp16
 70
     1
102
RTVSPropertyOp17
 70
     1
102
RTVSPropertyOp18
 70
     1
102
RTVSPropertyOp19
 70
     1
102
RTVSPropertyOp20
 70
     1
102
RTVSPropertyOp21
 70
     1
102
RTVSPropertyOp22
 70
     1
102
RTVSPropertyOp23
 70
     1
102
RTVSPropertyOp24
 70
     1
102
RTVSPropertyOp25
 70
     1
102
RTVSPropertyOp26
 70
     1
102
RTVSPropertyOp27
 70
     1
102
RTVSPropertyOp28
 70
     1
102
RTVSPropertyOp29
 70
     1
102
RTVSPropertyOp30
 70
     1
102
RTVSPropertyOp31
 70
     1
102
RTVSPropertyOp32
 70
     1
102
RTVSPropertyOp33
 70
     1
102
RTVSPropertyOp34
 70
     1
102
RTVSPropertyOp35
 70
     1
102
RTVSPropertyOp36
 70
     1
102
RTVSPropertyOp37
 70
     1
102
RTVSPropertyOp38
 70
     1
102
RTVSPropertyOp39
 70
     1
102
RTVSPropertyOp40
 70
     1
102
RTVSPropertyOp41
 70
     1
102
RTVSPropertyOp42
 70
     1
102
RTVSPropertyOp43
 70
     1
102
RTVSPropertyOp44
 70
     1
102
RTVSPropertyOp45
 70
     1
102
RTVSPropertyOp46
 70
     1
102
RTVSPropertyOp47
 70
     1
102
RTVSPropertyOp48
 70
     1
102
RTVSPropertyOp49
 70
     1
102
RTVSPropertyOp50
 70
     1
102
RTVSPropertyOp51
 70
     0
102
RTVSPropertyOp52
 70
     0
102
RTVSPropertyOp53
 70
     1
102
RTVSPropertyOp54
 70
     1
102
RTVSPropertyOp55
 70
     1
102
RTVSPropertyOp56
 70
     1
102
RTVSPropertyOp57
 70
     1
102
RTVSPropertyOp58
 70
     1
102
RTVSPropertyOp59
 70
     1
102
RTVSPropertyOp60
 70
     1
102
RTVSPropertyOp61
 70
     1
102
RTVSPropertyOp62
 70
     1
  0
XRECORD
  5
460
102
{ACAD_REACTORS
330
45F
102
}
330
45F
100
AcDbXrecord
280
     1
102
RTVSPost2010Prop28
280
     0
102
RTVSPost2010PropOp28
 70
     1
102
RTVSPost2010Prop29
280
     1
102
RTVSPost2010PropOp29
 70
     1
102
RTVSPost2010Prop30
280
     1
102
RTVSPost2010PropOp30
 70
     1
102
RTVSPost2010Prop31
280
     0
102
RTVSPost2010PropOp31
 70
     1
102
RTVSPost2010Prop32
280
     0
102
RTVSPost2010PropOp32
 70
     1
102
RTVSPost2010Prop33
280
     0
102
RTVSPost2010PropOp33
 70
     1
102
RTVSPost2010Prop34
280
     0
102
RTVSPost2010PropOp34
 70
     1
102
RTVSPost2010Prop35
280
     0
102
RTVSPost2010PropOp35
 70
     1
102
RTVSPost2010Prop36
280
     0
102
RTVSPost2010PropOp36
 70
     1
102
RTVSPost2010Prop37
 90
       50
102
RTVSPost2010PropOp37
 70
     1
102
RTVSPost2010Prop38
140
0.0
102
RTVSPost2010PropOp38
 70
     1
102
RTVSPost2010Prop39
140
1.0
102
RTVSPost2010PropOp39
 70
     1
102
RTVSPost2010Prop40
 90
        0
102
RTVSPost2010PropOp40
 70
     1
102
RTVSPost2010Prop41ColorIndex
 90
       18
102
RTVSPost2010Prop41ColorRGB
 90
        0
102
RTVSPost2010PropOp41
 70
     1
102
RTVSPost2010Prop42
 90
       50
102
RTVSPost2010PropOp42
 70
     1
102
RTVSPost2010Prop43
 90
        3
102
RTVSPost2010PropOp43
 70
     1
102
RTVSPost2010Prop44ColorIndex
 90
        5
102
RTVSPost2010Prop44ColorRGB
 90
      255
102
RTVSPost2010PropOp44
 70
     1
102
RTVSPost2010Prop45
280
     0
102
RTVSPost2010PropOp45
 70
     1
102
RTVSPost2010Prop46
 90
       50
102
RTVSPost2010PropOp46
 70
     1
102
RTVSPost2010Prop47
 90
       50
102
RTVSPost2010PropOp47
 70
     1
102
RTVSPost2010Prop48
 90
       50
102
RTVSPost2010PropOp48
 70
     1
102
RTVSPost2010Prop49
280
     0
102
RTVSPost2010PropOp49
 70
     1
102
RTVSPost2010Prop50
 90
       50
102
RTVSPost2010PropOp50
 70
     1
102
RTVSPost2010Prop51ColorIndex
 90
      256
102
RTVSPost2010Prop51ColorRGB
 90
-16777216
102
RTVSPost2010PropOp51
 70
     0
102
RTVSPost2010Prop52
140
1.0
102
RTVSPost2010PropOp52
 70
     0
102
RTVSPost2010Prop53
 90
        2
102
RTVSPost2010PropOp53
 70
     1
102
RTVSPost2010Prop54
  1
strokes_ogs.tif
102
RTVSPost2010PropOp54
 70
     1
102
RTVSPost2010Prop55
280
     0
102
RTVSPost2010PropOp55
 70
     1
102
RTVSPost2010Prop56
140
1.0
102
RTVSPost2010PropOp56
 70
     1
102
RTVSPost2010Prop57
140
1.0
102
RTVSPost2010PropOp57
 70
     1
102
RTVSPropertyOp0
 70
     1
102
RTVSPropertyOp1
 70
     1
102
RTVSPropertyOp2
 70
     1
102
RTVSPropertyOp3
 70
     1
102
RTVSPropertyOp4
 70
     1
102
RTVSPropertyOp5
 70
     1
102
RTVSPropertyOp6
 70
     1
102
RTVSPropertyOp7
 70
     1
102
RTVSPropertyOp8
 70
     1
102
RTVSPropertyOp9
 70
     1
102
RTVSPropertyOp10
 70
     1
102
RTVSPropertyOp11
 70
     1
102
RTVSPropertyOp12
 70
     1
102
RTVSPropertyOp13
 70
     1
102
RTVSPropertyOp14
 70
     1
102
RTVSPropertyOp15
 70
     1
102
RTVSPropertyOp16
 70
     1
102
RTVSPropertyOp17
 70
     1
102
RTVSPropertyOp18
 70
     1
102
RTVSPropertyOp19
 70
     1
102
RTVSPropertyOp20
 70
     1
102
RTVSPropertyOp21
 70
     1
102
RTVSPropertyOp22
 70
     1
102
RTVSPropertyOp23
 70
     1
102
RTVSPropertyOp24
 70
     1
102
RTVSPropertyOp25
 70
     1
102
RTVSPropertyOp26
 70
     1
102
RTVSPropertyOp27
 70
     1
102
RTVSPropertyOp28
 70
     1
102
RTVSPropertyOp29
 70
     1
102
RTVSPropertyOp30
 70
     1
102
RTVSPropertyOp31
 70
     1
102
RTVSPropertyOp32
 70
     1
102
RTVSPropertyOp33
 70
     1
102
RTVSPropertyOp34
 70
     1
102
RTVSPropertyOp35
 70
     1
102
RTVSPropertyOp36
 70
     1
102
RTVSPropertyOp37
 70
     1
102
RTVSPropertyOp38
 70
     1
102
RTVSPropertyOp39
 70
     1
102
RTVSPropertyOp40
 70
     1
102
RTVSPropertyOp41
 70
     1
102
RTVSPropertyOp42
 70
     1
102
RTVSPropertyOp43
 70
     1
102
RTVSPropertyOp44
 70
     1
102
RTVSPropertyOp45
 70
     1
102
RTVSPropertyOp46
 70
     1
102
RTVSPropertyOp47
 70
     1
102
RTVSPropertyOp48
 70
     1
102
RTVSPropertyOp49
 70
     1
102
RTVSPropertyOp50
 70
     1
102
RTVSPropertyOp51
 70
     0
102
RTVSPropertyOp52
 70
     0
102
RTVSPropertyOp53
 70
     1
102
RTVSPropertyOp54
 70
     1
102
RTVSPropertyOp55
 70
     1
102
RTVSPropertyOp56
 70
     1
102
RTVSPropertyOp57
 70
     1
102
RTVSPropertyOp58
 70
     1
102
RTVSPropertyOp59
 70
     1
102
RTVSPropertyOp60
 70
     1
102
RTVSPropertyOp61
 70
     1
102
RTVSPropertyOp62
 70
     1
  0
XRECORD
  5
464
102
{ACAD_REACTORS
330
463
102
}
330
463
100
AcDbXrecord
280
     1
102
RTVSPost2010Prop28
280
     0
102
RTVSPost2010PropOp28
 70
     1
102
RTVSPost2010Prop29
280
     1
102
RTVSPost2010PropOp29
 70
     1
102
RTVSPost2010Prop30
280
     1
102
RTVSPost2010PropOp30
 70
     1
102
RTVSPost2010Prop31
280
     0
102
RTVSPost2010PropOp31
 70
     1
102
RTVSPost2010Prop32
280
     0
102
RTVSPost2010PropOp32
 70
     1
102
RTVSPost2010Prop33
280
     0
102
RTVSPost2010PropOp33
 70
     1
102
RTVSPost2010Prop34
280
     0
102
RTVSPost2010PropOp34
 70
     1
102
RTVSPost2010Prop35
280
     0
102
RTVSPost2010PropOp35
 70
     1
102
RTVSPost2010Prop36
280
     0
102
RTVSPost2010PropOp36
 70
     1
102
RTVSPost2010Prop37
 90
       50
102
RTVSPost2010PropOp37
 70
     1
102
RTVSPost2010Prop38
140
0.0
102
RTVSPost2010PropOp38
 70
     1
102
RTVSPost2010Prop39
140
1.0
102
RTVSPost2010PropOp39
 70
     1
102
RTVSPost2010Prop40
 90
        0
102
RTVSPost2010PropOp40
 70
     1
102
RTVSPost2010Prop41ColorIndex
 90
       18
102
RTVSPost2010Prop41ColorRGB
 90
        0
102
RTVSPost2010PropOp41
 70
     1
102
RTVSPost2010Prop42
 90
       50
102
RTVSPost2010PropOp42
 70
     1
102
RTVSPost2010Prop43
 90
        3
102
RTVSPost2010PropOp43
 70
     1
102
RTVSPost2010Prop44ColorIndex
 90
        5
102
RTVSPost2010Prop44ColorRGB
 90
      255
102
RTVSPost2010PropOp44
 70
     1
102
RTVSPost2010Prop45
280
     0
102
RTVSPost2010PropOp45
 70
     1
102
RTVSPost2010Prop46
 90
       50
102
RTVSPost2010PropOp46
 70
     1
102
RTVSPost2010Prop47
 90
       50
102
RTVSPost2010PropOp47
 70
     1
102
RTVSPost2010Prop48
 90
       50
102
RTVSPost2010PropOp48
 70
     1
102
RTVSPost2010Prop49
280
     0
102
RTVSPost2010PropOp49
 70
     1
102
RTVSPost2010Prop50
 90
       50
102
RTVSPost2010PropOp50
 70
     1
102
RTVSPost2010Prop51ColorIndex
 90
      256
102
RTVSPost2010Prop51ColorRGB
 90
-16777216
102
RTVSPost2010PropOp51
 70
     0
102
RTVSPost2010Prop52
140
1.0
102
RTVSPost2010PropOp52
 70
     0
102
RTVSPost2010Prop53
 90
        2
102
RTVSPost2010PropOp53
 70
     1
102
RTVSPost2010Prop54
  1
strokes_ogs.tif
102
RTVSPost2010PropOp54
 70
     1
102
RTVSPost2010Prop55
280
     0
102
RTVSPost2010PropOp55
 70
     1
102
RTVSPost2010Prop56
140
1.0
102
RTVSPost2010PropOp56
 70
     1
102
RTVSPost2010Prop57
140
1.0
102
RTVSPost2010PropOp57
 70
     1
102
RTVSPropertyOp0
 70
     1
102
RTVSPropertyOp1
 70
     1
102
RTVSPropertyOp2
 70
     1
102
RTVSPropertyOp3
 70
     1
102
RTVSPropertyOp4
 70
     1
102
RTVSPropertyOp5
 70
     1
102
RTVSPropertyOp6
 70
     1
102
RTVSPropertyOp7
 70
     1
102
RTVSPropertyOp8
 70
     1
102
RTVSPropertyOp9
 70
     1
102
RTVSPropertyOp10
 70
     1
102
RTVSPropertyOp11
 70
     1
102
RTVSPropertyOp12
 70
     1
102
RTVSPropertyOp13
 70
     1
102
RTVSPropertyOp14
 70
     1
102
RTVSPropertyOp15
 70
     1
102
RTVSPropertyOp16
 70
     1
102
RTVSPropertyOp17
 70
     1
102
RTVSPropertyOp18
 70
     1
102
RTVSPropertyOp19
 70
     1
102
RTVSPropertyOp20
 70
     1
102
RTVSPropertyOp21
 70
     1
102
RTVSPropertyOp22
 70
     1
102
RTVSPropertyOp23
 70
     1
102
RTVSPropertyOp24
 70
     1
102
RTVSPropertyOp25
 70
     1
102
RTVSPropertyOp26
 70
     1
102
RTVSPropertyOp27
 70
     1
102
RTVSPropertyOp28
 70
     1
102
RTVSPropertyOp29
 70
     1
102
RTVSPropertyOp30
 70
     1
102
RTVSPropertyOp31
 70
     1
102
RTVSPropertyOp32
 70
     1
102
RTVSPropertyOp33
 70
     1
102
RTVSPropertyOp34
 70
     1
102
RTVSPropertyOp35
 70
     1
102
RTVSPropertyOp36
 70
     1
102
RTVSPropertyOp37
 70
     1
102
RTVSPropertyOp38
 70
     1
102
RTVSPropertyOp39
 70
     1
102
RTVSPropertyOp40
 70
     1
102
RTVSPropertyOp41
 70
     1
102
RTVSPropertyOp42
 70
     1
102
RTVSPropertyOp43
 70
     1
102
RTVSPropertyOp44
 70
     1
102
RTVSPropertyOp45
 70
     1
102
RTVSPropertyOp46
 70
     1
102
RTVSPropertyOp47
 70
     1
102
RTVSPropertyOp48
 70
     1
102
RTVSPropertyOp49
 70
     1
102
RTVSPropertyOp50
 70
     1
102
RTVSPropertyOp51
 70
     0
102
RTVSPropertyOp52
 70
     0
102
RTVSPropertyOp53
 70
     1
102
RTVSPropertyOp54
 70
     1
102
RTVSPropertyOp55
 70
     1
102
RTVSPropertyOp56
 70
     1
102
RTVSPropertyOp57
 70
     1
102
RTVSPropertyOp58
 70
     1
102
RTVSPropertyOp59
 70
     1
102
RTVSPropertyOp60
 70
     1
102
RTVSPropertyOp61
 70
     1
102
RTVSPropertyOp62
 70
     1
  0
XRECORD
  5
474
102
{ACAD_REACTORS
330
473
102
}
330
473
100
AcDbXrecord
280
     1
102
RTVSPost2010Prop28
280
     0
102
RTVSPost2010PropOp28
 70
     1
102
RTVSPost2010Prop29
280
     1
102
RTVSPost2010PropOp29
 70
     1
102
RTVSPost2010Prop30
280
     1
102
RTVSPost2010PropOp30
 70
     1
102
RTVSPost2010Prop31
280
     0
102
RTVSPost2010PropOp31
 70
     1
102
RTVSPost2010Prop32
280
     0
102
RTVSPost2010PropOp32
 70
     1
102
RTVSPost2010Prop33
280
     0
102
RTVSPost2010PropOp33
 70
     1
102
RTVSPost2010Prop34
280
     0
102
RTVSPost2010PropOp34
 70
     1
102
RTVSPost2010Prop35
280
     0
102
RTVSPost2010PropOp35
 70
     1
102
RTVSPost2010Prop36
280
     0
102
RTVSPost2010PropOp36
 70
     1
102
RTVSPost2010Prop37
 90
       50
102
RTVSPost2010PropOp37
 70
     1
102
RTVSPost2010Prop38
140
0.0
102
RTVSPost2010PropOp38
 70
     1
102
RTVSPost2010Prop39
140
1.0
102
RTVSPost2010PropOp39
 70
     1
102
RTVSPost2010Prop40
 90
        0
102
RTVSPost2010PropOp40
 70
     1
102
RTVSPost2010Prop41ColorIndex
 90
       18
102
RTVSPost2010Prop41ColorRGB
 90
        0
102
RTVSPost2010PropOp41
 70
     1
102
RTVSPost2010Prop42
 90
       50
102
RTVSPost2010PropOp42
 70
     1
102
RTVSPost2010Prop43
 90
        3
102
RTVSPost2010PropOp43
 70
     1
102
RTVSPost2010Prop44ColorIndex
 90
        5
102
RTVSPost2010Prop44ColorRGB
 90
      255
102
RTVSPost2010PropOp44
 70
     1
102
RTVSPost2010Prop45
280
     0
102
RTVSPost2010PropOp45
 70
     1
102
RTVSPost2010Prop46
 90
       50
102
RTVSPost2010PropOp46
 70
     1
102
RTVSPost2010Prop47
 90
       50
102
RTVSPost2010PropOp47
 70
     1
102
RTVSPost2010Prop48
 90
       50
102
RTVSPost2010PropOp48
 70
     1
102
RTVSPost2010Prop49
280
     0
102
RTVSPost2010PropOp49
 70
     1
102
RTVSPost2010Prop50
 90
       50
102
RTVSPost2010PropOp50
 70
     1
102
RTVSPost2010Prop51ColorIndex
 90
      256
102
RTVSPost2010Prop51ColorRGB
 90
-16777216
102
RTVSPost2010PropOp51
 70
     0
102
RTVSPost2010Prop52
140
1.0
102
RTVSPost2010PropOp52
 70
     0
102
RTVSPost2010Prop53
 90
        2
102
RTVSPost2010PropOp53
 70
     1
102
RTVSPost2010Prop54
  1
strokes_ogs.tif
102
RTVSPost2010PropOp54
 70
     1
102
RTVSPost2010Prop55
280
     0
102
RTVSPost2010PropOp55
 70
     1
102
RTVSPost2010Prop56
140
1.0
102
RTVSPost2010PropOp56
 70
     1
102
RTVSPost2010Prop57
140
1.0
102
RTVSPost2010PropOp57
 70
     1
102
RTVSPropertyOp0
 70
     0
102
RTVSPropertyOp1
 70
     0
102
RTVSPropertyOp2
 70
     0
102
RTVSPropertyOp3
 70
     0
102
RTVSPropertyOp4
 70
     0
102
RTVSPropertyOp5
 70
     0
102
RTVSPropertyOp6
 70
     0
102
RTVSPropertyOp7
 70
     0
102
RTVSPropertyOp8
 70
     0
102
RTVSPropertyOp9
 70
     0
102
RTVSPropertyOp10
 70
     0
102
RTVSPropertyOp11
 70
     0
102
RTVSPropertyOp12
 70
     0
102
RTVSPropertyOp13
 70
     0
102
RTVSPropertyOp14
 70
     2
102
RTVSPropertyOp15
 70
     0
102
RTVSPropertyOp16
 70
     0
102
RTVSPropertyOp17
 70
     0
102
RTVSPropertyOp18
 70
     0
102
RTVSPropertyOp19
 70
     0
102
RTVSPropertyOp20
 70
     0
102
RTVSPropertyOp21
 70
     0
102
RTVSPropertyOp22
 70
     0
102
RTVSPropertyOp23
 70
     0
102
RTVSPropertyOp24
 70
     0
102
RTVSPropertyOp25
 70
     0
102
RTVSPropertyOp26
 70
     0
102
RTVSPropertyOp27
 70
     0
102
RTVSPropertyOp28
 70
     1
102
RTVSPropertyOp29
 70
     1
102
RTVSPropertyOp30
 70
     1
102
RTVSPropertyOp31
 70
     1
102
RTVSPropertyOp32
 70
     1
102
RTVSPropertyOp33
 70
     1
102
RTVSPropertyOp34
 70
     1
102
RTVSPropertyOp35
 70
     1
102
RTVSPropertyOp36
 70
     1
102
RTVSPropertyOp37
 70
     1
102
RTVSPropertyOp38
 70
     1
102
RTVSPropertyOp39
 70
     1
102
RTVSPropertyOp40
 70
     1
102
RTVSPropertyOp41
 70
     1
102
RTVSPropertyOp42
 70
     1
102
RTVSPropertyOp43
 70
     1
102
RTVSPropertyOp44
 70
     1
102
RTVSPropertyOp45
 70
     1
102
RTVSPropertyOp46
 70
     1
102
RTVSPropertyOp47
 70
     1
102
RTVSPropertyOp48
 70
     1
102
RTVSPropertyOp49
 70
     1
102
RTVSPropertyOp50
 70
     1
102
RTVSPropertyOp51
 70
     0
102
RTVSPropertyOp52
 70
     0
102
RTVSPropertyOp53
 70
     1
102
RTVSPropertyOp54
 70
     1
102
RTVSPropertyOp55
 70
     1
102
RTVSPropertyOp56
 70
     1
102
RTVSPropertyOp57
 70
     1
102
RTVSPropertyOp58
 70
     1
102
RTVSPropertyOp59
 70
     1
102
RTVSPropertyOp60
 70
     1
102
RTVSPropertyOp61
 70
     1
102
RTVSPropertyOp62
 70
     1
  0
XRECORD
  5
46C
102
{ACAD_REACTORS
330
46B
102
}
330
46B
100
AcDbXrecord
280
     1
102
RTVSPost2010Prop28
280
     0
102
RTVSPost2010PropOp28
 70
     1
102
RTVSPost2010Prop29
280
     1
102
RTVSPost2010PropOp29
 70
     1
102
RTVSPost2010Prop30
280
     1
102
RTVSPost2010PropOp30
 70
     1
102
RTVSPost2010Prop31
280
     0
102
RTVSPost2010PropOp31
 70
     1
102
RTVSPost2010Prop32
280
     0
102
RTVSPost2010PropOp32
 70
     1
102
RTVSPost2010Prop33
280
     0
102
RTVSPost2010PropOp33
 70
     1
102
RTVSPost2010Prop34
280
     0
102
RTVSPost2010PropOp34
 70
     1
102
RTVSPost2010Prop35
280
     0
102
RTVSPost2010PropOp35
 70
     1
102
RTVSPost2010Prop36
280
     0
102
RTVSPost2010PropOp36
 70
     1
102
RTVSPost2010Prop37
 90
       50
102
RTVSPost2010PropOp37
 70
     1
102
RTVSPost2010Prop38
140
0.0
102
RTVSPost2010PropOp38
 70
     1
102
RTVSPost2010Prop39
140
1.0
102
RTVSPost2010PropOp39
 70
     1
102
RTVSPost2010Prop40
 90
        0
102
RTVSPost2010PropOp40
 70
     1
102
RTVSPost2010Prop41ColorIndex
 90
       18
102
RTVSPost2010Prop41ColorRGB
 90
        0
102
RTVSPost2010PropOp41
 70
     1
102
RTVSPost2010Prop42
 90
       50
102
RTVSPost2010PropOp42
 70
     1
102
RTVSPost2010Prop43
 90
        3
102
RTVSPost2010PropOp43
 70
     1
102
RTVSPost2010Prop44ColorIndex
 90
        5
102
RTVSPost2010Prop44ColorRGB
 90
      255
102
RTVSPost2010PropOp44
 70
     1
102
RTVSPost2010Prop45
280
     0
102
RTVSPost2010PropOp45
 70
     1
102
RTVSPost2010Prop46
 90
       50
102
RTVSPost2010PropOp46
 70
     1
102
RTVSPost2010Prop47
 90
       50
102
RTVSPost2010PropOp47
 70
     1
102
RTVSPost2010Prop48
 90
       50
102
RTVSPost2010PropOp48
 70
     1
102
RTVSPost2010Prop49
280
     0
102
RTVSPost2010PropOp49
 70
     1
102
RTVSPost2010Prop50
 90
       50
102
RTVSPost2010PropOp50
 70
     1
102
RTVSPost2010Prop51ColorIndex
 90
      256
102
RTVSPost2010Prop51ColorRGB
 90
-16777216
102
RTVSPost2010PropOp51
 70
     0
102
RTVSPost2010Prop52
140
1.0
102
RTVSPost2010PropOp52
 70
     0
102
RTVSPost2010Prop53
 90
        2
102
RTVSPost2010PropOp53
 70
     1
102
RTVSPost2010Prop54
  1
strokes_ogs.tif
102
RTVSPost2010PropOp54
 70
     1
102
RTVSPost2010Prop55
280
     0
102
RTVSPost2010PropOp55
 70
     1
102
RTVSPost2010Prop56
140
1.0
102
RTVSPost2010PropOp56
 70
     1
102
RTVSPost2010Prop57
140
1.0
102
RTVSPost2010PropOp57
 70
     1
102
RTVSPropertyOp0
 70
     1
102
RTVSPropertyOp1
 70
     1
102
RTVSPropertyOp2
 70
     1
102
RTVSPropertyOp3
 70
     1
102
RTVSPropertyOp4
 70
     1
102
RTVSPropertyOp5
 70
     1
102
RTVSPropertyOp6
 70
     1
102
RTVSPropertyOp7
 70
     1
102
RTVSPropertyOp8
 70
     1
102
RTVSPropertyOp9
 70
     1
102
RTVSPropertyOp10
 70
     1
102
RTVSPropertyOp11
 70
     1
102
RTVSPropertyOp12
 70
     1
102
RTVSPropertyOp13
 70
     1
102
RTVSPropertyOp14
 70
     1
102
RTVSPropertyOp15
 70
     1
102
RTVSPropertyOp16
 70
     1
102
RTVSPropertyOp17
 70
     1
102
RTVSPropertyOp18
 70
     1
102
RTVSPropertyOp19
 70
     1
102
RTVSPropertyOp20
 70
     1
102
RTVSPropertyOp21
 70
     1
102
RTVSPropertyOp22
 70
     1
102
RTVSPropertyOp23
 70
     1
102
RTVSPropertyOp24
 70
     1
102
RTVSPropertyOp25
 70
     1
102
RTVSPropertyOp26
 70
     1
102
RTVSPropertyOp27
 70
     1
102
RTVSPropertyOp28
 70
     1
102
RTVSPropertyOp29
 70
     1
102
RTVSPropertyOp30
 70
     1
102
RTVSPropertyOp31
 70
     1
102
RTVSPropertyOp32
 70
     1
102
RTVSPropertyOp33
 70
     1
102
RTVSPropertyOp34
 70
     1
102
RTVSPropertyOp35
 70
     1
102
RTVSPropertyOp36
 70
     1
102
RTVSPropertyOp37
 70
     1
102
RTVSPropertyOp38
 70
     1
102
RTVSPropertyOp39
 70
     1
102
RTVSPropertyOp40
 70
     1
102
RTVSPropertyOp41
 70
     1
102
RTVSPropertyOp42
 70
     1
102
RTVSPropertyOp43
 70
     1
102
RTVSPropertyOp44
 70
     1
102
RTVSPropertyOp45
 70
     1
102
RTVSPropertyOp46
 70
     1
102
RTVSPropertyOp47
 70
     1
102
RTVSPropertyOp48
 70
     1
102
RTVSPropertyOp49
 70
     1
102
RTVSPropertyOp50
 70
     1
102
RTVSPropertyOp51
 70
     0
102
RTVSPropertyOp52
 70
     0
102
RTVSPropertyOp53
 70
     1
102
RTVSPropertyOp54
 70
     1
102
RTVSPropertyOp55
 70
     1
102
RTVSPropertyOp56
 70
     1
102
RTVSPropertyOp57
 70
     1
102
RTVSPropertyOp58
 70
     1
102
RTVSPropertyOp59
 70
     1
102
RTVSPropertyOp60
 70
     1
102
RTVSPropertyOp61
 70
     1
102
RTVSPropertyOp62
 70
     1
  0
XRECORD
  5
450
102
{ACAD_REACTORS
330
44F
102
}
330
44F
100
AcDbXrecord
280
     1
102
RTVSPost2010Prop28
280
     0
102
RTVSPost2010PropOp28
 70
     1
102
RTVSPost2010Prop29
280
     1
102
RTVSPost2010PropOp29
 70
     1
102
RTVSPost2010Prop30
280
     1
102
RTVSPost2010PropOp30
 70
     1
102
RTVSPost2010Prop31
280
     0
102
RTVSPost2010PropOp31
 70
     1
102
RTVSPost2010Prop32
280
     0
102
RTVSPost2010PropOp32
 70
     1
102
RTVSPost2010Prop33
280
     0
102
RTVSPost2010PropOp33
 70
     1
102
RTVSPost2010Prop34
280
     0
102
RTVSPost2010PropOp34
 70
     1
102
RTVSPost2010Prop35
280
     0
102
RTVSPost2010PropOp35
 70
     1
102
RTVSPost2010Prop36
280
     0
102
RTVSPost2010PropOp36
 70
     1
102
RTVSPost2010Prop37
 90
       50
102
RTVSPost2010PropOp37
 70
     1
102
RTVSPost2010Prop38
140
0.0
102
RTVSPost2010PropOp38
 70
     1
102
RTVSPost2010Prop39
140
1.0
102
RTVSPost2010PropOp39
 70
     1
102
RTVSPost2010Prop40
 90
        0
102
RTVSPost2010PropOp40
 70
     1
102
RTVSPost2010Prop41ColorIndex
 90
       18
102
RTVSPost2010Prop41ColorRGB
 90
        0
102
RTVSPost2010PropOp41
 70
     1
102
RTVSPost2010Prop42
 90
       50
102
RTVSPost2010PropOp42
 70
     1
102
RTVSPost2010Prop43
 90
        3
102
RTVSPost2010PropOp43
 70
     1
102
RTVSPost2010Prop44ColorIndex
 90
        5
102
RTVSPost2010Prop44ColorRGB
 90
      255
102
RTVSPost2010PropOp44
 70
     1
102
RTVSPost2010Prop45
280
     0
102
RTVSPost2010PropOp45
 70
     1
102
RTVSPost2010Prop46
 90
       50
102
RTVSPost2010PropOp46
 70
     1
102
RTVSPost2010Prop47
 90
       50
102
RTVSPost2010PropOp47
 70
     1
102
RTVSPost2010Prop48
 90
       50
102
RTVSPost2010PropOp48
 70
     1
102
RTVSPost2010Prop49
280
     0
102
RTVSPost2010PropOp49
 70
     1
102
RTVSPost2010Prop50
 90
       50
102
RTVSPost2010PropOp50
 70
     1
102
RTVSPost2010Prop51ColorIndex
 90
      256
102
RTVSPost2010Prop51ColorRGB
 90
-16777216
102
RTVSPost2010PropOp51
 70
     0
102
RTVSPost2010Prop52
140
1.0
102
RTVSPost2010PropOp52
 70
     0
102
RTVSPost2010Prop53
 90
        2
102
RTVSPost2010PropOp53
 70
     1
102
RTVSPost2010Prop54
  1
strokes_ogs.tif
102
RTVSPost2010PropOp54
 70
     1
102
RTVSPost2010Prop55
280
     0
102
RTVSPost2010PropOp55
 70
     1
102
RTVSPost2010Prop56
140
1.0
102
RTVSPost2010PropOp56
 70
     1
102
RTVSPost2010Prop57
140
1.0
102
RTVSPost2010PropOp57
 70
     1
102
RTVSPropertyOp0
 70
     1
102
RTVSPropertyOp1
 70
     1
102
RTVSPropertyOp2
 70
     1
102
RTVSPropertyOp3
 70
     1
102
RTVSPropertyOp4
 70
     1
102
RTVSPropertyOp5
 70
     1
102
RTVSPropertyOp6
 70
     1
102
RTVSPropertyOp7
 70
     1
102
RTVSPropertyOp8
 70
     1
102
RTVSPropertyOp9
 70
     1
102
RTVSPropertyOp10
 70
     1
102
RTVSPropertyOp11
 70
     1
102
RTVSPropertyOp12
 70
     1
102
RTVSPropertyOp13
 70
     1
102
RTVSPropertyOp14
 70
     1
102
RTVSPropertyOp15
 70
     1
102
RTVSPropertyOp16
 70
     1
102
RTVSPropertyOp17
 70
     1
102
RTVSPropertyOp18
 70
     1
102
RTVSPropertyOp19
 70
     1
102
RTVSPropertyOp20
 70
     1
102
RTVSPropertyOp21
 70
     1
102
RTVSPropertyOp22
 70
     1
102
RTVSPropertyOp23
 70
     1
102
RTVSPropertyOp24
 70
     1
102
RTVSPropertyOp25
 70
     1
102
RTVSPropertyOp26
 70
     1
102
RTVSPropertyOp27
 70
     1
102
RTVSPropertyOp28
 70
     1
102
RTVSPropertyOp29
 70
     1
102
RTVSPropertyOp30
 70
     1
102
RTVSPropertyOp31
 70
     1
102
RTVSPropertyOp32
 70
     1
102
RTVSPropertyOp33
 70
     1
102
RTVSPropertyOp34
 70
     1
102
RTVSPropertyOp35
 70
     1
102
RTVSPropertyOp36
 70
     1
102
RTVSPropertyOp37
 70
     1
102
RTVSPropertyOp38
 70
     1
102
RTVSPropertyOp39
 70
     1
102
RTVSPropertyOp40
 70
     1
102
RTVSPropertyOp41
 70
     1
102
RTVSPropertyOp42
 70
     1
102
RTVSPropertyOp43
 70
     1
102
RTVSPropertyOp44
 70
     1
102
RTVSPropertyOp45
 70
     1
102
RTVSPropertyOp46
 70
     1
102
RTVSPropertyOp47
 70
     1
102
RTVSPropertyOp48
 70
     1
102
RTVSPropertyOp49
 70
     1
102
RTVSPropertyOp50
 70
     1
102
RTVSPropertyOp51
 70
     0
102
RTVSPropertyOp52
 70
     0
102
RTVSPropertyOp53
 70
     1
102
RTVSPropertyOp54
 70
     1
102
RTVSPropertyOp55
 70
     1
102
RTVSPropertyOp56
 70
     1
102
RTVSPropertyOp57
 70
     1
102
RTVSPropertyOp58
 70
     1
102
RTVSPropertyOp59
 70
     1
102
RTVSPropertyOp60
 70
     1
102
RTVSPropertyOp61
 70
     1
102
RTVSPropertyOp62
 70
     1
  0
XRECORD
  5
452
102
{ACAD_REACTORS
330
451
102
}
330
451
100
AcDbXrecord
280
     1
102
RTVSPost2010Prop28
280
     0
102
RTVSPost2010PropOp28
 70
     1
102
RTVSPost2010Prop29
280
     1
102
RTVSPost2010PropOp29
 70
     1
102
RTVSPost2010Prop30
280
     1
102
RTVSPost2010PropOp30
 70
     1
102
RTVSPost2010Prop31
280
     0
102
RTVSPost2010PropOp31
 70
     1
102
RTVSPost2010Prop32
280
     0
102
RTVSPost2010PropOp32
 70
     1
102
RTVSPost2010Prop33
280
     0
102
RTVSPost2010PropOp33
 70
     1
102
RTVSPost2010Prop34
280
     0
102
RTVSPost2010PropOp34
 70
     1
102
RTVSPost2010Prop35
280
     0
102
RTVSPost2010PropOp35
 70
     1
102
RTVSPost2010Prop36
280
     0
102
RTVSPost2010PropOp36
 70
     1
102
RTVSPost2010Prop37
 90
       50
102
RTVSPost2010PropOp37
 70
     1
102
RTVSPost2010Prop38
140
0.0
102
RTVSPost2010PropOp38
 70
     1
102
RTVSPost2010Prop39
140
1.0
102
RTVSPost2010PropOp39
 70
     1
102
RTVSPost2010Prop40
 90
        0
102
RTVSPost2010PropOp40
 70
     1
102
RTVSPost2010Prop41ColorIndex
 90
       18
102
RTVSPost2010Prop41ColorRGB
 90
        0
102
RTVSPost2010PropOp41
 70
     1
102
RTVSPost2010Prop42
 90
       50
102
RTVSPost2010PropOp42
 70
     1
102
RTVSPost2010Prop43
 90
        3
102
RTVSPost2010PropOp43
 70
     1
102
RTVSPost2010Prop44ColorIndex
 90
        5
102
RTVSPost2010Prop44ColorRGB
 90
      255
102
RTVSPost2010PropOp44
 70
     1
102
RTVSPost2010Prop45
280
     0
102
RTVSPost2010PropOp45
 70
     1
102
RTVSPost2010Prop46
 90
       50
102
RTVSPost2010PropOp46
 70
     1
102
RTVSPost2010Prop47
 90
       50
102
RTVSPost2010PropOp47
 70
     1
102
RTVSPost2010Prop48
 90
       50
102
RTVSPost2010PropOp48
 70
     1
102
RTVSPost2010Prop49
280
     0
102
RTVSPost2010PropOp49
 70
     1
102
RTVSPost2010Prop50
 90
       50
102
RTVSPost2010PropOp50
 70
     1
102
RTVSPost2010Prop51ColorIndex
 90
      256
102
RTVSPost2010Prop51ColorRGB
 90
-16777216
102
RTVSPost2010PropOp51
 70
     0
102
RTVSPost2010Prop52
140
1.0
102
RTVSPost2010PropOp52
 70
     0
102
RTVSPost2010Prop53
 90
        2
102
RTVSPost2010PropOp53
 70
     1
102
RTVSPost2010Prop54
  1
strokes_ogs.tif
102
RTVSPost2010PropOp54
 70
     1
102
RTVSPost2010Prop55
280
     0
102
RTVSPost2010PropOp55
 70
     1
102
RTVSPost2010Prop56
140
1.0
102
RTVSPost2010PropOp56
 70
     1
102
RTVSPost2010Prop57
140
1.0
102
RTVSPost2010PropOp57
 70
     1
102
RTVSPropertyOp0
 70
     1
102
RTVSPropertyOp1
 70
     1
102
RTVSPropertyOp2
 70
     1
102
RTVSPropertyOp3
 70
     1
102
RTVSPropertyOp4
 70
     1
102
RTVSPropertyOp5
 70
     1
102
RTVSPropertyOp6
 70
     1
102
RTVSPropertyOp7
 70
     1
102
RTVSPropertyOp8
 70
     1
102
RTVSPropertyOp9
 70
     1
102
RTVSPropertyOp10
 70
     1
102
RTVSPropertyOp11
 70
     1
102
RTVSPropertyOp12
 70
     1
102
RTVSPropertyOp13
 70
     1
102
RTVSPropertyOp14
 70
     1
102
RTVSPropertyOp15
 70
     1
102
RTVSPropertyOp16
 70
     1
102
RTVSPropertyOp17
 70
     1
102
RTVSPropertyOp18
 70
     1
102
RTVSPropertyOp19
 70
     1
102
RTVSPropertyOp20
 70
     1
102
RTVSPropertyOp21
 70
     1
102
RTVSPropertyOp22
 70
     1
102
RTVSPropertyOp23
 70
     1
102
RTVSPropertyOp24
 70
     1
102
RTVSPropertyOp25
 70
     1
102
RTVSPropertyOp26
 70
     1
102
RTVSPropertyOp27
 70
     1
102
RTVSPropertyOp28
 70
     1
102
RTVSPropertyOp29
 70
     1
102
RTVSPropertyOp30
 70
     1
102
RTVSPropertyOp31
 70
     1
102
RTVSPropertyOp32
 70
     1
102
RTVSPropertyOp33
 70
     1
102
RTVSPropertyOp34
 70
     1
102
RTVSPropertyOp35
 70
     1
102
RTVSPropertyOp36
 70
     1
102
RTVSPropertyOp37
 70
     1
102
RTVSPropertyOp38
 70
     1
102
RTVSPropertyOp39
 70
     1
102
RTVSPropertyOp40
 70
     1
102
RTVSPropertyOp41
 70
     1
102
RTVSPropertyOp42
 70
     1
102
RTVSPropertyOp43
 70
     1
102
RTVSPropertyOp44
 70
     1
102
RTVSPropertyOp45
 70
     1
102
RTVSPropertyOp46
 70
     1
102
RTVSPropertyOp47
 70
     1
102
RTVSPropertyOp48
 70
     1
102
RTVSPropertyOp49
 70
     1
102
RTVSPropertyOp50
 70
     1
102
RTVSPropertyOp51
 70
     0
102
RTVSPropertyOp52
 70
     0
102
RTVSPropertyOp53
 70
     1
102
RTVSPropertyOp54
 70
     1
102
RTVSPropertyOp55
 70
     1
102
RTVSPropertyOp56
 70
     1
102
RTVSPropertyOp57
 70
     1
102
RTVSPropertyOp58
 70
     1
102
RTVSPropertyOp59
 70
     1
102
RTVSPropertyOp60
 70
     1
102
RTVSPropertyOp61
 70
     1
102
RTVSPropertyOp62
 70
     1
  0
XRECORD
  5
454
102
{ACAD_REACTORS
330
453
102
}
330
453
100
AcDbXrecord
280
     1
102
RTVSPost2010Prop28
280
     0
102
RTVSPost2010PropOp28
 70
     1
102
RTVSPost2010Prop29
280
     1
102
RTVSPost2010PropOp29
 70
     1
102
RTVSPost2010Prop30
280
     1
102
RTVSPost2010PropOp30
 70
     1
102
RTVSPost2010Prop31
280
     0
102
RTVSPost2010PropOp31
 70
     1
102
RTVSPost2010Prop32
280
     0
102
RTVSPost2010PropOp32
 70
     1
102
RTVSPost2010Prop33
280
     0
102
RTVSPost2010PropOp33
 70
     1
102
RTVSPost2010Prop34
280
     0
102
RTVSPost2010PropOp34
 70
     1
102
RTVSPost2010Prop35
280
     0
102
RTVSPost2010PropOp35
 70
     1
102
RTVSPost2010Prop36
280
     0
102
RTVSPost2010PropOp36
 70
     1
102
RTVSPost2010Prop37
 90
       50
102
RTVSPost2010PropOp37
 70
     1
102
RTVSPost2010Prop38
140
0.0
102
RTVSPost2010PropOp38
 70
     1
102
RTVSPost2010Prop39
140
1.0
102
RTVSPost2010PropOp39
 70
     1
102
RTVSPost2010Prop40
 90
        0
102
RTVSPost2010PropOp40
 70
     1
102
RTVSPost2010Prop41ColorIndex
 90
       18
102
RTVSPost2010Prop41ColorRGB
 90
        0
102
RTVSPost2010PropOp41
 70
     1
102
RTVSPost2010Prop42
 90
       50
102
RTVSPost2010PropOp42
 70
     1
102
RTVSPost2010Prop43
 90
        3
102
RTVSPost2010PropOp43
 70
     1
102
RTVSPost2010Prop44ColorIndex
 90
        5
102
RTVSPost2010Prop44ColorRGB
 90
      255
102
RTVSPost2010PropOp44
 70
     1
102
RTVSPost2010Prop45
280
     0
102
RTVSPost2010PropOp45
 70
     1
102
RTVSPost2010Prop46
 90
       50
102
RTVSPost2010PropOp46
 70
     1
102
RTVSPost2010Prop47
 90
       50
102
RTVSPost2010PropOp47
 70
     1
102
RTVSPost2010Prop48
 90
       50
102
RTVSPost2010PropOp48
 70
     1
102
RTVSPost2010Prop49
280
     0
102
RTVSPost2010PropOp49
 70
     1
102
RTVSPost2010Prop50
 90
       50
102
RTVSPost2010PropOp50
 70
     1
102
RTVSPost2010Prop51ColorIndex
 90
      256
102
RTVSPost2010Prop51ColorRGB
 90
-16777216
102
RTVSPost2010PropOp51
 70
     0
102
RTVSPost2010Prop52
140
1.0
102
RTVSPost2010PropOp52
 70
     0
102
RTVSPost2010Prop53
 90
        2
102
RTVSPost2010PropOp53
 70
     1
102
RTVSPost2010Prop54
  1
strokes_ogs.tif
102
RTVSPost2010PropOp54
 70
     1
102
RTVSPost2010Prop55
280
     0
102
RTVSPost2010PropOp55
 70
     1
102
RTVSPost2010Prop56
140
1.0
102
RTVSPost2010PropOp56
 70
     1
102
RTVSPost2010Prop57
140
1.0
102
RTVSPost2010PropOp57
 70
     1
102
RTVSPropertyOp0
 70
     1
102
RTVSPropertyOp1
 70
     1
102
RTVSPropertyOp2
 70
     1
102
RTVSPropertyOp3
 70
     1
102
RTVSPropertyOp4
 70
     1
102
RTVSPropertyOp5
 70
     1
102
RTVSPropertyOp6
 70
     1
102
RTVSPropertyOp7
 70
     1
102
RTVSPropertyOp8
 70
     1
102
RTVSPropertyOp9
 70
     1
102
RTVSPropertyOp10
 70
     1
102
RTVSPropertyOp11
 70
     1
102
RTVSPropertyOp12
 70
     1
102
RTVSPropertyOp13
 70
     1
102
RTVSPropertyOp14
 70
     1
102
RTVSPropertyOp15
 70
     1
102
RTVSPropertyOp16
 70
     1
102
RTVSPropertyOp17
 70
     1
102
RTVSPropertyOp18
 70
     1
102
RTVSPropertyOp19
 70
     1
102
RTVSPropertyOp20
 70
     1
102
RTVSPropertyOp21
 70
     1
102
RTVSPropertyOp22
 70
     1
102
RTVSPropertyOp23
 70
     1
102
RTVSPropertyOp24
 70
     1
102
RTVSPropertyOp25
 70
     1
102
RTVSPropertyOp26
 70
     1
102
RTVSPropertyOp27
 70
     1
102
RTVSPropertyOp28
 70
     1
102
RTVSPropertyOp29
 70
     1
102
RTVSPropertyOp30
 70
     1
102
RTVSPropertyOp31
 70
     1
102
RTVSPropertyOp32
 70
     1
102
RTVSPropertyOp33
 70
     1
102
RTVSPropertyOp34
 70
     1
102
RTVSPropertyOp35
 70
     1
102
RTVSPropertyOp36
 70
     1
102
RTVSPropertyOp37
 70
     1
102
RTVSPropertyOp38
 70
     1
102
RTVSPropertyOp39
 70
     1
102
RTVSPropertyOp40
 70
     1
102
RTVSPropertyOp41
 70
     1
102
RTVSPropertyOp42
 70
     1
102
RTVSPropertyOp43
 70
     1
102
RTVSPropertyOp44
 70
     1
102
RTVSPropertyOp45
 70
     1
102
RTVSPropertyOp46
 70
     1
102
RTVSPropertyOp47
 70
     1
102
RTVSPropertyOp48
 70
     1
102
RTVSPropertyOp49
 70
     1
102
RTVSPropertyOp50
 70
     1
102
RTVSPropertyOp51
 70
     0
102
RTVSPropertyOp52
 70
     0
102
RTVSPropertyOp53
 70
     1
102
RTVSPropertyOp54
 70
     1
102
RTVSPropertyOp55
 70
     1
102
RTVSPropertyOp56
 70
     1
102
RTVSPropertyOp57
 70
     1
102
RTVSPropertyOp58
 70
     1
102
RTVSPropertyOp59
 70
     1
102
RTVSPropertyOp60
 70
     1
102
RTVSPropertyOp61
 70
     1
102
RTVSPropertyOp62
 70
     1
  0
XRECORD
  5
456
102
{ACAD_REACTORS
330
455
102
}
330
455
100
AcDbXrecord
280
     1
102
RTVSPost2010Prop28
280
     0
102
RTVSPost2010PropOp28
 70
     1
102
RTVSPost2010Prop29
280
     1
102
RTVSPost2010PropOp29
 70
     1
102
RTVSPost2010Prop30
280
     1
102
RTVSPost2010PropOp30
 70
     1
102
RTVSPost2010Prop31
280
     0
102
RTVSPost2010PropOp31
 70
     1
102
RTVSPost2010Prop32
280
     0
102
RTVSPost2010PropOp32
 70
     1
102
RTVSPost2010Prop33
280
     0
102
RTVSPost2010PropOp33
 70
     1
102
RTVSPost2010Prop34
280
     0
102
RTVSPost2010PropOp34
 70
     1
102
RTVSPost2010Prop35
280
     0
102
RTVSPost2010PropOp35
 70
     1
102
RTVSPost2010Prop36
280
     0
102
RTVSPost2010PropOp36
 70
     1
102
RTVSPost2010Prop37
 90
       50
102
RTVSPost2010PropOp37
 70
     1
102
RTVSPost2010Prop38
140
0.0
102
RTVSPost2010PropOp38
 70
     1
102
RTVSPost2010Prop39
140
1.0
102
RTVSPost2010PropOp39
 70
     1
102
RTVSPost2010Prop40
 90
        0
102
RTVSPost2010PropOp40
 70
     1
102
RTVSPost2010Prop41ColorIndex
 90
       18
102
RTVSPost2010Prop41ColorRGB
 90
        0
102
RTVSPost2010PropOp41
 70
     1
102
RTVSPost2010Prop42
 90
       50
102
RTVSPost2010PropOp42
 70
     1
102
RTVSPost2010Prop43
 90
        3
102
RTVSPost2010PropOp43
 70
     1
102
RTVSPost2010Prop44ColorIndex
 90
        5
102
RTVSPost2010Prop44ColorRGB
 90
      255
102
RTVSPost2010PropOp44
 70
     1
102
RTVSPost2010Prop45
280
     0
102
RTVSPost2010PropOp45
 70
     1
102
RTVSPost2010Prop46
 90
       50
102
RTVSPost2010PropOp46
 70
     1
102
RTVSPost2010Prop47
 90
       50
102
RTVSPost2010PropOp47
 70
     1
102
RTVSPost2010Prop48
 90
       50
102
RTVSPost2010PropOp48
 70
     1
102
RTVSPost2010Prop49
280
     0
102
RTVSPost2010PropOp49
 70
     1
102
RTVSPost2010Prop50
 90
       50
102
RTVSPost2010PropOp50
 70
     1
102
RTVSPost2010Prop51ColorIndex
 90
      256
102
RTVSPost2010Prop51ColorRGB
 90
-16777216
102
RTVSPost2010PropOp51
 70
     0
102
RTVSPost2010Prop52
140
1.0
102
RTVSPost2010PropOp52
 70
     0
102
RTVSPost2010Prop53
 90
        2
102
RTVSPost2010PropOp53
 70
     1
102
RTVSPost2010Prop54
  1
strokes_ogs.tif
102
RTVSPost2010PropOp54
 70
     1
102
RTVSPost2010Prop55
280
     0
102
RTVSPost2010PropOp55
 70
     1
102
RTVSPost2010Prop56
140
1.0
102
RTVSPost2010PropOp56
 70
     1
102
RTVSPost2010Prop57
140
1.0
102
RTVSPost2010PropOp57
 70
     1
102
RTVSPropertyOp0
 70
     1
102
RTVSPropertyOp1
 70
     1
102
RTVSPropertyOp2
 70
     1
102
RTVSPropertyOp3
 70
     1
102
RTVSPropertyOp4
 70
     1
102
RTVSPropertyOp5
 70
     1
102
RTVSPropertyOp6
 70
     1
102
RTVSPropertyOp7
 70
     1
102
RTVSPropertyOp8
 70
     1
102
RTVSPropertyOp9
 70
     1
102
RTVSPropertyOp10
 70
     1
102
RTVSPropertyOp11
 70
     1
102
RTVSPropertyOp12
 70
     1
102
RTVSPropertyOp13
 70
     1
102
RTVSPropertyOp14
 70
     1
102
RTVSPropertyOp15
 70
     1
102
RTVSPropertyOp16
 70
     1
102
RTVSPropertyOp17
 70
     1
102
RTVSPropertyOp18
 70
     1
102
RTVSPropertyOp19
 70
     1
102
RTVSPropertyOp20
 70
     1
102
RTVSPropertyOp21
 70
     1
102
RTVSPropertyOp22
 70
     1
102
RTVSPropertyOp23
 70
     1
102
RTVSPropertyOp24
 70
     1
102
RTVSPropertyOp25
 70
     1
102
RTVSPropertyOp26
 70
     1
102
RTVSPropertyOp27
 70
     1
102
RTVSPropertyOp28
 70
     1
102
RTVSPropertyOp29
 70
     1
102
RTVSPropertyOp30
 70
     1
102
RTVSPropertyOp31
 70
     1
102
RTVSPropertyOp32
 70
     1
102
RTVSPropertyOp33
 70
     1
102
RTVSPropertyOp34
 70
     1
102
RTVSPropertyOp35
 70
     1
102
RTVSPropertyOp36
 70
     1
102
RTVSPropertyOp37
 70
     1
102
RTVSPropertyOp38
 70
     1
102
RTVSPropertyOp39
 70
     1
102
RTVSPropertyOp40
 70
     1
102
RTVSPropertyOp41
 70
     1
102
RTVSPropertyOp42
 70
     1
102
RTVSPropertyOp43
 70
     1
102
RTVSPropertyOp44
 70
     1
102
RTVSPropertyOp45
 70
     1
102
RTVSPropertyOp46
 70
     1
102
RTVSPropertyOp47
 70
     1
102
RTVSPropertyOp48
 70
     1
102
RTVSPropertyOp49
 70
     1
102
RTVSPropertyOp50
 70
     1
102
RTVSPropertyOp51
 70
     0
102
RTVSPropertyOp52
 70
     0
102
RTVSPropertyOp53
 70
     1
102
RTVSPropertyOp54
 70
     1
102
RTVSPropertyOp55
 70
     1
102
RTVSPropertyOp56
 70
     1
102
RTVSPropertyOp57
 70
     1
102
RTVSPropertyOp58
 70
     1
102
RTVSPropertyOp59
 70
     1
102
RTVSPropertyOp60
 70
     1
102
RTVSPropertyOp61
 70
     1
102
RTVSPropertyOp62
 70
     1
  0
XRECORD
  5
478
102
{ACAD_REACTORS
330
477
102
}
330
477
100
AcDbXrecord
280
     1
102
RTVSPost2010Prop28
280
     0
102
RTVSPost2010PropOp28
 70
     1
102
RTVSPost2010Prop29
280
     1
102
RTVSPost2010PropOp29
 70
     1
102
RTVSPost2010Prop30
280
     1
102
RTVSPost2010PropOp30
 70
     1
102
RTVSPost2010Prop31
280
     0
102
RTVSPost2010PropOp31
 70
     1
102
RTVSPost2010Prop32
280
     0
102
RTVSPost2010PropOp32
 70
     1
102
RTVSPost2010Prop33
280
     0
102
RTVSPost2010PropOp33
 70
     1
102
RTVSPost2010Prop34
280
     0
102
RTVSPost2010PropOp34
 70
     1
102
RTVSPost2010Prop35
280
     0
102
RTVSPost2010PropOp35
 70
     1
102
RTVSPost2010Prop36
280
     0
102
RTVSPost2010PropOp36
 70
     1
102
RTVSPost2010Prop37
 90
       50
102
RTVSPost2010PropOp37
 70
     1
102
RTVSPost2010Prop38
140
0.0
102
RTVSPost2010PropOp38
 70
     1
102
RTVSPost2010Prop39
140
1.0
102
RTVSPost2010PropOp39
 70
     1
102
RTVSPost2010Prop40
 90
        0
102
RTVSPost2010PropOp40
 70
     1
102
RTVSPost2010Prop41ColorIndex
 90
       18
102
RTVSPost2010Prop41ColorRGB
 90
        0
102
RTVSPost2010PropOp41
 70
     1
102
RTVSPost2010Prop42
 90
       50
102
RTVSPost2010PropOp42
 70
     1
102
RTVSPost2010Prop43
 90
        3
102
RTVSPost2010PropOp43
 70
     1
102
RTVSPost2010Prop44ColorIndex
 90
        5
102
RTVSPost2010Prop44ColorRGB
 90
      255
102
RTVSPost2010PropOp44
 70
     1
102
RTVSPost2010Prop45
280
     0
102
RTVSPost2010PropOp45
 70
     1
102
RTVSPost2010Prop46
 90
       50
102
RTVSPost2010PropOp46
 70
     1
102
RTVSPost2010Prop47
 90
       50
102
RTVSPost2010PropOp47
 70
     1
102
RTVSPost2010Prop48
 90
       50
102
RTVSPost2010PropOp48
 70
     1
102
RTVSPost2010Prop49
280
     0
102
RTVSPost2010PropOp49
 70
     1
102
RTVSPost2010Prop50
 90
       50
102
RTVSPost2010PropOp50
 70
     1
102
RTVSPost2010Prop51ColorIndex
 90
      256
102
RTVSPost2010Prop51ColorRGB
 90
-16777216
102
RTVSPost2010PropOp51
 70
     0
102
RTVSPost2010Prop52
140
1.0
102
RTVSPost2010PropOp52
 70
     0
102
RTVSPost2010Prop53
 90
        2
102
RTVSPost2010PropOp53
 70
     1
102
RTVSPost2010Prop54
  1
strokes_ogs.tif
102
RTVSPost2010PropOp54
 70
     1
102
RTVSPost2010Prop55
280
     0
102
RTVSPost2010PropOp55
 70
     1
102
RTVSPost2010Prop56
140
1.0
102
RTVSPost2010PropOp56
 70
     1
102
RTVSPost2010Prop57
140
1.0
102
RTVSPost2010PropOp57
 70
     1
102
RTVSPropertyOp0
 70
     1
102
RTVSPropertyOp1
 70
     1
102
RTVSPropertyOp2
 70
     1
102
RTVSPropertyOp3
 70
     1
102
RTVSPropertyOp4
 70
     1
102
RTVSPropertyOp5
 70
     1
102
RTVSPropertyOp6
 70
     1
102
RTVSPropertyOp7
 70
     1
102
RTVSPropertyOp8
 70
     1
102
RTVSPropertyOp9
 70
     1
102
RTVSPropertyOp10
 70
     1
102
RTVSPropertyOp11
 70
     1
102
RTVSPropertyOp12
 70
     1
102
RTVSPropertyOp13
 70
     1
102
RTVSPropertyOp14
 70
     1
102
RTVSPropertyOp15
 70
     1
102
RTVSPropertyOp16
 70
     1
102
RTVSPropertyOp17
 70
     1
102
RTVSPropertyOp18
 70
     1
102
RTVSPropertyOp19
 70
     1
102
RTVSPropertyOp20
 70
     1
102
RTVSPropertyOp21
 70
     1
102
RTVSPropertyOp22
 70
     1
102
RTVSPropertyOp23
 70
     1
102
RTVSPropertyOp24
 70
     1
102
RTVSPropertyOp25
 70
     1
102
RTVSPropertyOp26
 70
     1
102
RTVSPropertyOp27
 70
     1
102
RTVSPropertyOp28
 70
     1
102
RTVSPropertyOp29
 70
     1
102
RTVSPropertyOp30
 70
     1
102
RTVSPropertyOp31
 70
     1
102
RTVSPropertyOp32
 70
     1
102
RTVSPropertyOp33
 70
     1
102
RTVSPropertyOp34
 70
     1
102
RTVSPropertyOp35
 70
     1
102
RTVSPropertyOp36
 70
     1
102
RTVSPropertyOp37
 70
     1
102
RTVSPropertyOp38
 70
     1
102
RTVSPropertyOp39
 70
     1
102
RTVSPropertyOp40
 70
     1
102
RTVSPropertyOp41
 70
     1
102
RTVSPropertyOp42
 70
     1
102
RTVSPropertyOp43
 70
     1
102
RTVSPropertyOp44
 70
     1
102
RTVSPropertyOp45
 70
     1
102
RTVSPropertyOp46
 70
     1
102
RTVSPropertyOp47
 70
     1
102
RTVSPropertyOp48
 70
     1
102
RTVSPropertyOp49
 70
     1
102
RTVSPropertyOp50
 70
     1
102
RTVSPropertyOp51
 70
     0
102
RTVSPropertyOp52
 70
     0
102
RTVSPropertyOp53
 70
     1
102
RTVSPropertyOp54
 70
     1
102
RTVSPropertyOp55
 70
     1
102
RTVSPropertyOp56
 70
     1
102
RTVSPropertyOp57
 70
     1
102
RTVSPropertyOp58
 70
     1
102
RTVSPropertyOp59
 70
     1
102
RTVSPropertyOp60
 70
     1
102
RTVSPropertyOp61
 70
     1
102
RTVSPropertyOp62
 70
     1
  0
XRECORD
  5
470
102
{ACAD_REACTORS
330
46F
102
}
330
46F
100
AcDbXrecord
280
     1
102
RTVSPost2010Prop28
280
     0
102
RTVSPost2010PropOp28
 70
     1
102
RTVSPost2010Prop29
280
     1
102
RTVSPost2010PropOp29
 70
     1
102
RTVSPost2010Prop30
280
     1
102
RTVSPost2010PropOp30
 70
     1
102
RTVSPost2010Prop31
280
     0
102
RTVSPost2010PropOp31
 70
     1
102
RTVSPost2010Prop32
280
     0
102
RTVSPost2010PropOp32
 70
     1
102
RTVSPost2010Prop33
280
     0
102
RTVSPost2010PropOp33
 70
     1
102
RTVSPost2010Prop34
280
     0
102
RTVSPost2010PropOp34
 70
     1
102
RTVSPost2010Prop35
280
     0
102
RTVSPost2010PropOp35
 70
     1
102
RTVSPost2010Prop36
280
     0
102
RTVSPost2010PropOp36
 70
     1
102
RTVSPost2010Prop37
 90
       50
102
RTVSPost2010PropOp37
 70
     1
102
RTVSPost2010Prop38
140
0.0
102
RTVSPost2010PropOp38
 70
     1
102
RTVSPost2010Prop39
140
1.0
102
RTVSPost2010PropOp39
 70
     1
102
RTVSPost2010Prop40
 90
        0
102
RTVSPost2010PropOp40
 70
     1
102
RTVSPost2010Prop41ColorIndex
 90
       18
102
RTVSPost2010Prop41ColorRGB
 90
        0
102
RTVSPost2010PropOp41
 70
     1
102
RTVSPost2010Prop42
 90
       50
102
RTVSPost2010PropOp42
 70
     1
102
RTVSPost2010Prop43
 90
        3
102
RTVSPost2010PropOp43
 70
     1
102
RTVSPost2010Prop44ColorIndex
 90
        5
102
RTVSPost2010Prop44ColorRGB
 90
      255
102
RTVSPost2010PropOp44
 70
     1
102
RTVSPost2010Prop45
280
     0
102
RTVSPost2010PropOp45
 70
     1
102
RTVSPost2010Prop46
 90
       50
102
RTVSPost2010PropOp46
 70
     1
102
RTVSPost2010Prop47
 90
       50
102
RTVSPost2010PropOp47
 70
     1
102
RTVSPost2010Prop48
 90
       50
102
RTVSPost2010PropOp48
 70
     1
102
RTVSPost2010Prop49
280
     0
102
RTVSPost2010PropOp49
 70
     1
102
RTVSPost2010Prop50
 90
       50
102
RTVSPost2010PropOp50
 70
     1
102
RTVSPost2010Prop51ColorIndex
 90
      256
102
RTVSPost2010Prop51ColorRGB
 90
-16777216
102
RTVSPost2010PropOp51
 70
     0
102
RTVSPost2010Prop52
140
1.0
102
RTVSPost2010PropOp52
 70
     0
102
RTVSPost2010Prop53
 90
        2
102
RTVSPost2010PropOp53
 70
     1
102
RTVSPost2010Prop54
  1
strokes_ogs.tif
102
RTVSPost2010PropOp54
 70
     1
102
RTVSPost2010Prop55
280
     0
102
RTVSPost2010PropOp55
 70
     1
102
RTVSPost2010Prop56
140
1.0
102
RTVSPost2010PropOp56
 70
     1
102
RTVSPost2010Prop57
140
1.0
102
RTVSPost2010PropOp57
 70
     1
102
RTVSPropertyOp0
 70
     0
102
RTVSPropertyOp1
 70
     0
102
RTVSPropertyOp2
 70
     0
102
RTVSPropertyOp3
 70
     0
102
RTVSPropertyOp4
 70
     0
102
RTVSPropertyOp5
 70
     0
102
RTVSPropertyOp6
 70
     0
102
RTVSPropertyOp7
 70
     0
102
RTVSPropertyOp8
 70
     0
102
RTVSPropertyOp9
 70
     0
102
RTVSPropertyOp10
 70
     0
102
RTVSPropertyOp11
 70
     0
102
RTVSPropertyOp12
 70
     0
102
RTVSPropertyOp13
 70
     0
102
RTVSPropertyOp14
 70
     2
102
RTVSPropertyOp15
 70
     0
102
RTVSPropertyOp16
 70
     0
102
RTVSPropertyOp17
 70
     0
102
RTVSPropertyOp18
 70
     0
102
RTVSPropertyOp19
 70
     0
102
RTVSPropertyOp20
 70
     0
102
RTVSPropertyOp21
 70
     0
102
RTVSPropertyOp22
 70
     0
102
RTVSPropertyOp23
 70
     0
102
RTVSPropertyOp24
 70
     0
102
RTVSPropertyOp25
 70
     0
102
RTVSPropertyOp26
 70
     0
102
RTVSPropertyOp27
 70
     0
102
RTVSPropertyOp28
 70
     1
102
RTVSPropertyOp29
 70
     1
102
RTVSPropertyOp30
 70
     1
102
RTVSPropertyOp31
 70
     1
102
RTVSPropertyOp32
 70
     1
102
RTVSPropertyOp33
 70
     1
102
RTVSPropertyOp34
 70
     1
102
RTVSPropertyOp35
 70
     1
102
RTVSPropertyOp36
 70
     1
102
RTVSPropertyOp37
 70
     1
102
RTVSPropertyOp38
 70
     1
102
RTVSPropertyOp39
 70
     1
102
RTVSPropertyOp40
 70
     1
102
RTVSPropertyOp41
 70
     1
102
RTVSPropertyOp42
 70
     1
102
RTVSPropertyOp43
 70
     1
102
RTVSPropertyOp44
 70
     1
102
RTVSPropertyOp45
 70
     1
102
RTVSPropertyOp46
 70
     1
102
RTVSPropertyOp47
 70
     1
102
RTVSPropertyOp48
 70
     1
102
RTVSPropertyOp49
 70
     1
102
RTVSPropertyOp50
 70
     1
102
RTVSPropertyOp51
 70
     0
102
RTVSPropertyOp52
 70
     0
102
RTVSPropertyOp53
 70
     1
102
RTVSPropertyOp54
 70
     1
102
RTVSPropertyOp55
 70
     1
102
RTVSPropertyOp56
 70
     1
102
RTVSPropertyOp57
 70
     1
102
RTVSPropertyOp58
 70
     1
102
RTVSPropertyOp59
 70
     1
102
RTVSPropertyOp60
 70
     1
102
RTVSPropertyOp61
 70
     1
102
RTVSPropertyOp62
 70
     1
  0
XRECORD
  5
46A
102
{ACAD_REACTORS
330
469
102
}
330
469
100
AcDbXrecord
280
     1
102
RTVSPost2010Prop28
280
     0
102
RTVSPost2010PropOp28
 70
     1
102
RTVSPost2010Prop29
280
     1
102
RTVSPost2010PropOp29
 70
     1
102
RTVSPost2010Prop30
280
     1
102
RTVSPost2010PropOp30
 70
     1
102
RTVSPost2010Prop31
280
     0
102
RTVSPost2010PropOp31
 70
     1
102
RTVSPost2010Prop32
280
     0
102
RTVSPost2010PropOp32
 70
     1
102
RTVSPost2010Prop33
280
     0
102
RTVSPost2010PropOp33
 70
     1
102
RTVSPost2010Prop34
280
     0
102
RTVSPost2010PropOp34
 70
     1
102
RTVSPost2010Prop35
280
     0
102
RTVSPost2010PropOp35
 70
     1
102
RTVSPost2010Prop36
280
     0
102
RTVSPost2010PropOp36
 70
     1
102
RTVSPost2010Prop37
 90
       50
102
RTVSPost2010PropOp37
 70
     1
102
RTVSPost2010Prop38
140
0.0
102
RTVSPost2010PropOp38
 70
     1
102
RTVSPost2010Prop39
140
1.0
102
RTVSPost2010PropOp39
 70
     1
102
RTVSPost2010Prop40
 90
        0
102
RTVSPost2010PropOp40
 70
     1
102
RTVSPost2010Prop41ColorIndex
 90
       18
102
RTVSPost2010Prop41ColorRGB
 90
        0
102
RTVSPost2010PropOp41
 70
     1
102
RTVSPost2010Prop42
 90
       50
102
RTVSPost2010PropOp42
 70
     1
102
RTVSPost2010Prop43
 90
        3
102
RTVSPost2010PropOp43
 70
     1
102
RTVSPost2010Prop44ColorIndex
 90
        5
102
RTVSPost2010Prop44ColorRGB
 90
      255
102
RTVSPost2010PropOp44
 70
     1
102
RTVSPost2010Prop45
280
     0
102
RTVSPost2010PropOp45
 70
     1
102
RTVSPost2010Prop46
 90
       50
102
RTVSPost2010PropOp46
 70
     1
102
RTVSPost2010Prop47
 90
       50
102
RTVSPost2010PropOp47
 70
     1
102
RTVSPost2010Prop48
 90
       50
102
RTVSPost2010PropOp48
 70
     1
102
RTVSPost2010Prop49
280
     0
102
RTVSPost2010PropOp49
 70
     1
102
RTVSPost2010Prop50
 90
       50
102
RTVSPost2010PropOp50
 70
     1
102
RTVSPost2010Prop51ColorIndex
 90
      256
102
RTVSPost2010Prop51ColorRGB
 90
-16777216
102
RTVSPost2010PropOp51
 70
     0
102
RTVSPost2010Prop52
140
1.0
102
RTVSPost2010PropOp52
 70
     0
102
RTVSPost2010Prop53
 90
        2
102
RTVSPost2010PropOp53
 70
     1
102
RTVSPost2010Prop54
  1
strokes_ogs.tif
102
RTVSPost2010PropOp54
 70
     1
102
RTVSPost2010Prop55
280
     0
102
RTVSPost2010PropOp55
 70
     1
102
RTVSPost2010Prop56
140
1.0
102
RTVSPost2010PropOp56
 70
     1
102
RTVSPost2010Prop57
140
1.0
102
RTVSPost2010PropOp57
 70
     1
102
RTVSPropertyOp0
 70
     1
102
RTVSPropertyOp1
 70
     1
102
RTVSPropertyOp2
 70
     1
102
RTVSPropertyOp3
 70
     1
102
RTVSPropertyOp4
 70
     1
102
RTVSPropertyOp5
 70
     1
102
RTVSPropertyOp6
 70
     1
102
RTVSPropertyOp7
 70
     1
102
RTVSPropertyOp8
 70
     1
102
RTVSPropertyOp9
 70
     1
102
RTVSPropertyOp10
 70
     1
102
RTVSPropertyOp11
 70
     1
102
RTVSPropertyOp12
 70
     1
102
RTVSPropertyOp13
 70
     1
102
RTVSPropertyOp14
 70
     1
102
RTVSPropertyOp15
 70
     1
102
RTVSPropertyOp16
 70
     1
102
RTVSPropertyOp17
 70
     1
102
RTVSPropertyOp18
 70
     1
102
RTVSPropertyOp19
 70
     1
102
RTVSPropertyOp20
 70
     1
102
RTVSPropertyOp21
 70
     1
102
RTVSPropertyOp22
 70
     1
102
RTVSPropertyOp23
 70
     1
102
RTVSPropertyOp24
 70
     1
102
RTVSPropertyOp25
 70
     1
102
RTVSPropertyOp26
 70
     1
102
RTVSPropertyOp27
 70
     1
102
RTVSPropertyOp28
 70
     1
102
RTVSPropertyOp29
 70
     1
102
RTVSPropertyOp30
 70
     1
102
RTVSPropertyOp31
 70
     1
102
RTVSPropertyOp32
 70
     1
102
RTVSPropertyOp33
 70
     1
102
RTVSPropertyOp34
 70
     1
102
RTVSPropertyOp35
 70
     1
102
RTVSPropertyOp36
 70
     1
102
RTVSPropertyOp37
 70
     1
102
RTVSPropertyOp38
 70
     1
102
RTVSPropertyOp39
 70
     1
102
RTVSPropertyOp40
 70
     1
102
RTVSPropertyOp41
 70
     1
102
RTVSPropertyOp42
 70
     1
102
RTVSPropertyOp43
 70
     1
102
RTVSPropertyOp44
 70
     1
102
RTVSPropertyOp45
 70
     1
102
RTVSPropertyOp46
 70
     1
102
RTVSPropertyOp47
 70
     1
102
RTVSPropertyOp48
 70
     1
102
RTVSPropertyOp49
 70
     1
102
RTVSPropertyOp50
 70
     1
102
RTVSPropertyOp51
 70
     0
102
RTVSPropertyOp52
 70
     0
102
RTVSPropertyOp53
 70
     1
102
RTVSPropertyOp54
 70
     1
102
RTVSPropertyOp55
 70
     1
102
RTVSPropertyOp56
 70
     1
102
RTVSPropertyOp57
 70
     1
102
RTVSPropertyOp58
 70
     1
102
RTVSPropertyOp59
 70
     1
102
RTVSPropertyOp60
 70
     1
102
RTVSPropertyOp61
 70
     1
102
RTVSPropertyOp62
 70
     1
  0
XRECORD
  5
472
102
{ACAD_REACTORS
330
471
102
}
330
471
100
AcDbXrecord
280
     1
102
RTVSPost2010Prop28
280
     0
102
RTVSPost2010PropOp28
 70
     1
102
RTVSPost2010Prop29
280
     1
102
RTVSPost2010PropOp29
 70
     1
102
RTVSPost2010Prop30
280
     1
102
RTVSPost2010PropOp30
 70
     1
102
RTVSPost2010Prop31
280
     0
102
RTVSPost2010PropOp31
 70
     1
102
RTVSPost2010Prop32
280
     0
102
RTVSPost2010PropOp32
 70
     1
102
RTVSPost2010Prop33
280
     0
102
RTVSPost2010PropOp33
 70
     1
102
RTVSPost2010Prop34
280
     0
102
RTVSPost2010PropOp34
 70
     1
102
RTVSPost2010Prop35
280
     0
102
RTVSPost2010PropOp35
 70
     1
102
RTVSPost2010Prop36
280
     0
102
RTVSPost2010PropOp36
 70
     1
102
RTVSPost2010Prop37
 90
       50
102
RTVSPost2010PropOp37
 70
     1
102
RTVSPost2010Prop38
140
0.0
102
RTVSPost2010PropOp38
 70
     1
102
RTVSPost2010Prop39
140
1.0
102
RTVSPost2010PropOp39
 70
     1
102
RTVSPost2010Prop40
 90
        0
102
RTVSPost2010PropOp40
 70
     1
102
RTVSPost2010Prop41ColorIndex
 90
       18
102
RTVSPost2010Prop41ColorRGB
 90
        0
102
RTVSPost2010PropOp41
 70
     1
102
RTVSPost2010Prop42
 90
       50
102
RTVSPost2010PropOp42
 70
     1
102
RTVSPost2010Prop43
 90
        3
102
RTVSPost2010PropOp43
 70
     1
102
RTVSPost2010Prop44ColorIndex
 90
        5
102
RTVSPost2010Prop44ColorRGB
 90
      255
102
RTVSPost2010PropOp44
 70
     1
102
RTVSPost2010Prop45
280
     0
102
RTVSPost2010PropOp45
 70
     1
102
RTVSPost2010Prop46
 90
       50
102
RTVSPost2010PropOp46
 70
     1
102
RTVSPost2010Prop47
 90
       50
102
RTVSPost2010PropOp47
 70
     1
102
RTVSPost2010Prop48
 90
       50
102
RTVSPost2010PropOp48
 70
     1
102
RTVSPost2010Prop49
280
     0
102
RTVSPost2010PropOp49
 70
     1
102
RTVSPost2010Prop50
 90
       50
102
RTVSPost2010PropOp50
 70
     1
102
RTVSPost2010Prop51ColorIndex
 90
      256
102
RTVSPost2010Prop51ColorRGB
 90
-16777216
102
RTVSPost2010PropOp51
 70
     0
102
RTVSPost2010Prop52
140
1.0
102
RTVSPost2010PropOp52
 70
     0
102
RTVSPost2010Prop53
 90
        2
102
RTVSPost2010PropOp53
 70
     1
102
RTVSPost2010Prop54
  1
strokes_ogs.tif
102
RTVSPost2010PropOp54
 70
     1
102
RTVSPost2010Prop55
280
     0
102
RTVSPost2010PropOp55
 70
     1
102
RTVSPost2010Prop56
140
1.0
102
RTVSPost2010PropOp56
 70
     1
102
RTVSPost2010Prop57
140
1.0
102
RTVSPost2010PropOp57
 70
     1
102
RTVSPropertyOp0
 70
     0
102
RTVSPropertyOp1
 70
     0
102
RTVSPropertyOp2
 70
     0
102
RTVSPropertyOp3
 70
     0
102
RTVSPropertyOp4
 70
     0
102
RTVSPropertyOp5
 70
     0
102
RTVSPropertyOp6
 70
     0
102
RTVSPropertyOp7
 70
     0
102
RTVSPropertyOp8
 70
     0
102
RTVSPropertyOp9
 70
     0
102
RTVSPropertyOp10
 70
     0
102
RTVSPropertyOp11
 70
     0
102
RTVSPropertyOp12
 70
     0
102
RTVSPropertyOp13
 70
     0
102
RTVSPropertyOp14
 70
     2
102
RTVSPropertyOp15
 70
     0
102
RTVSPropertyOp16
 70
     0
102
RTVSPropertyOp17
 70
     0
102
RTVSPropertyOp18
 70
     0
102
RTVSPropertyOp19
 70
     0
102
RTVSPropertyOp20
 70
     0
102
RTVSPropertyOp21
 70
     0
102
RTVSPropertyOp22
 70
     0
102
RTVSPropertyOp23
 70
     0
102
RTVSPropertyOp24
 70
     0
102
RTVSPropertyOp25
 70
     0
102
RTVSPropertyOp26
 70
     0
102
RTVSPropertyOp27
 70
     0
102
RTVSPropertyOp28
 70
     1
102
RTVSPropertyOp29
 70
     1
102
RTVSPropertyOp30
 70
     1
102
RTVSPropertyOp31
 70
     1
102
RTVSPropertyOp32
 70
     1
102
RTVSPropertyOp33
 70
     1
102
RTVSPropertyOp34
 70
     1
102
RTVSPropertyOp35
 70
     1
102
RTVSPropertyOp36
 70
     1
102
RTVSPropertyOp37
 70
     1
102
RTVSPropertyOp38
 70
     1
102
RTVSPropertyOp39
 70
     1
102
RTVSPropertyOp40
 70
     1
102
RTVSPropertyOp41
 70
     1
102
RTVSPropertyOp42
 70
     1
102
RTVSPropertyOp43
 70
     1
102
RTVSPropertyOp44
 70
     1
102
RTVSPropertyOp45
 70
     1
102
RTVSPropertyOp46
 70
     1
102
RTVSPropertyOp47
 70
     1
102
RTVSPropertyOp48
 70
     1
102
RTVSPropertyOp49
 70
     1
102
RTVSPropertyOp50
 70
     1
102
RTVSPropertyOp51
 70
     0
102
RTVSPropertyOp52
 70
     0
102
RTVSPropertyOp53
 70
     1
102
RTVSPropertyOp54
 70
     1
102
RTVSPropertyOp55
 70
     1
102
RTVSPropertyOp56
 70
     1
102
RTVSPropertyOp57
 70
     1
102
RTVSPropertyOp58
 70
     1
102
RTVSPropertyOp59
 70
     1
102
RTVSPropertyOp60
 70
     1
102
RTVSPropertyOp61
 70
     1
102
RTVSPropertyOp62
 70
     1
  0
XRECORD
  5
462
102
{ACAD_REACTORS
330
461
102
}
330
461
100
AcDbXrecord
280
     1
102
RTVSPost2010Prop28
280
     0
102
RTVSPost2010PropOp28
 70
     1
102
RTVSPost2010Prop29
280
     1
102
RTVSPost2010PropOp29
 70
     1
102
RTVSPost2010Prop30
280
     1
102
RTVSPost2010PropOp30
 70
     1
102
RTVSPost2010Prop31
280
     0
102
RTVSPost2010PropOp31
 70
     1
102
RTVSPost2010Prop32
280
     0
102
RTVSPost2010PropOp32
 70
     1
102
RTVSPost2010Prop33
280
     0
102
RTVSPost2010PropOp33
 70
     1
102
RTVSPost2010Prop34
280
     0
102
RTVSPost2010PropOp34
 70
     1
102
RTVSPost2010Prop35
280
     0
102
RTVSPost2010PropOp35
 70
     1
102
RTVSPost2010Prop36
280
     0
102
RTVSPost2010PropOp36
 70
     1
102
RTVSPost2010Prop37
 90
       50
102
RTVSPost2010PropOp37
 70
     1
102
RTVSPost2010Prop38
140
0.0
102
RTVSPost2010PropOp38
 70
     1
102
RTVSPost2010Prop39
140
1.0
102
RTVSPost2010PropOp39
 70
     1
102
RTVSPost2010Prop40
 90
        0
102
RTVSPost2010PropOp40
 70
     1
102
RTVSPost2010Prop41ColorIndex
 90
       18
102
RTVSPost2010Prop41ColorRGB
 90
        0
102
RTVSPost2010PropOp41
 70
     1
102
RTVSPost2010Prop42
 90
       50
102
RTVSPost2010PropOp42
 70
     1
102
RTVSPost2010Prop43
 90
        3
102
RTVSPost2010PropOp43
 70
     1
102
RTVSPost2010Prop44ColorIndex
 90
        5
102
RTVSPost2010Prop44ColorRGB
 90
      255
102
RTVSPost2010PropOp44
 70
     1
102
RTVSPost2010Prop45
280
     0
102
RTVSPost2010PropOp45
 70
     1
102
RTVSPost2010Prop46
 90
       50
102
RTVSPost2010PropOp46
 70
     1
102
RTVSPost2010Prop47
 90
       50
102
RTVSPost2010PropOp47
 70
     1
102
RTVSPost2010Prop48
 90
       50
102
RTVSPost2010PropOp48
 70
     1
102
RTVSPost2010Prop49
280
     0
102
RTVSPost2010PropOp49
 70
     1
102
RTVSPost2010Prop50
 90
       50
102
RTVSPost2010PropOp50
 70
     1
102
RTVSPost2010Prop51ColorIndex
 90
      256
102
RTVSPost2010Prop51ColorRGB
 90
-16777216
102
RTVSPost2010PropOp51
 70
     0
102
RTVSPost2010Prop52
140
1.0
102
RTVSPost2010PropOp52
 70
     0
102
RTVSPost2010Prop53
 90
        2
102
RTVSPost2010PropOp53
 70
     1
102
RTVSPost2010Prop54
  1
strokes_ogs.tif
102
RTVSPost2010PropOp54
 70
     1
102
RTVSPost2010Prop55
280
     0
102
RTVSPost2010PropOp55
 70
     1
102
RTVSPost2010Prop56
140
1.0
102
RTVSPost2010PropOp56
 70
     1
102
RTVSPost2010Prop57
140
1.0
102
RTVSPost2010PropOp57
 70
     1
102
RTVSPropertyOp0
 70
     1
102
RTVSPropertyOp1
 70
     1
102
RTVSPropertyOp2
 70
     1
102
RTVSPropertyOp3
 70
     1
102
RTVSPropertyOp4
 70
     1
102
RTVSPropertyOp5
 70
     1
102
RTVSPropertyOp6
 70
     1
102
RTVSPropertyOp7
 70
     1
102
RTVSPropertyOp8
 70
     1
102
RTVSPropertyOp9
 70
     1
102
RTVSPropertyOp10
 70
     1
102
RTVSPropertyOp11
 70
     1
102
RTVSPropertyOp12
 70
     1
102
RTVSPropertyOp13
 70
     1
102
RTVSPropertyOp14
 70
     1
102
RTVSPropertyOp15
 70
     1
102
RTVSPropertyOp16
 70
     1
102
RTVSPropertyOp17
 70
     1
102
RTVSPropertyOp18
 70
     1
102
RTVSPropertyOp19
 70
     1
102
RTVSPropertyOp20
 70
     1
102
RTVSPropertyOp21
 70
     1
102
RTVSPropertyOp22
 70
     1
102
RTVSPropertyOp23
 70
     1
102
RTVSPropertyOp24
 70
     1
102
RTVSPropertyOp25
 70
     1
102
RTVSPropertyOp26
 70
     1
102
RTVSPropertyOp27
 70
     1
102
RTVSPropertyOp28
 70
     1
102
RTVSPropertyOp29
 70
     1
102
RTVSPropertyOp30
 70
     1
102
RTVSPropertyOp31
 70
     1
102
RTVSPropertyOp32
 70
     1
102
RTVSPropertyOp33
 70
     1
102
RTVSPropertyOp34
 70
     1
102
RTVSPropertyOp35
 70
     1
102
RTVSPropertyOp36
 70
     1
102
RTVSPropertyOp37
 70
     1
102
RTVSPropertyOp38
 70
     1
102
RTVSPropertyOp39
 70
     1
102
RTVSPropertyOp40
 70
     1
102
RTVSPropertyOp41
 70
     1
102
RTVSPropertyOp42
 70
     1
102
RTVSPropertyOp43
 70
     1
102
RTVSPropertyOp44
 70
     1
102
RTVSPropertyOp45
 70
     1
102
RTVSPropertyOp46
 70
     1
102
RTVSPropertyOp47
 70
     1
102
RTVSPropertyOp48
 70
     1
102
RTVSPropertyOp49
 70
     1
102
RTVSPropertyOp50
 70
     1
102
RTVSPropertyOp51
 70
     0
102
RTVSPropertyOp52
 70
     0
102
RTVSPropertyOp53
 70
     1
102
RTVSPropertyOp54
 70
     1
102
RTVSPropertyOp55
 70
     1
102
RTVSPropertyOp56
 70
     1
102
RTVSPropertyOp57
 70
     1
102
RTVSPropertyOp58
 70
     1
102
RTVSPropertyOp59
 70
     1
102
RTVSPropertyOp60
 70
     1
102
RTVSPropertyOp61
 70
     1
102
RTVSPropertyOp62
 70
     1
  0
XRECORD
  5
482
102
{ACAD_REACTORS
330
481
102
}
330
481
100
AcDbXrecord
280
     1
102
RTVSPost2010Prop28
280
     0
102
RTVSPost2010PropOp28
 70
     1
102
RTVSPost2010Prop29
280
     1
102
RTVSPost2010PropOp29
 70
     1
102
RTVSPost2010Prop30
280
     1
102
RTVSPost2010PropOp30
 70
     1
102
RTVSPost2010Prop31
280
     0
102
RTVSPost2010PropOp31
 70
     1
102
RTVSPost2010Prop32
280
     0
102
RTVSPost2010PropOp32
 70
     1
102
RTVSPost2010Prop33
280
     0
102
RTVSPost2010PropOp33
 70
     1
102
RTVSPost2010Prop34
280
     0
102
RTVSPost2010PropOp34
 70
     1
102
RTVSPost2010Prop35
280
     0
102
RTVSPost2010PropOp35
 70
     1
102
RTVSPost2010Prop36
280
     0
102
RTVSPost2010PropOp36
 70
     1
102
RTVSPost2010Prop37
 90
       50
102
RTVSPost2010PropOp37
 70
     1
102
RTVSPost2010Prop38
140
0.0
102
RTVSPost2010PropOp38
 70
     1
102
RTVSPost2010Prop39
140
1.0
102
RTVSPost2010PropOp39
 70
     1
102
RTVSPost2010Prop40
 90
        0
102
RTVSPost2010PropOp40
 70
     1
102
RTVSPost2010Prop41ColorIndex
 90
       18
102
RTVSPost2010Prop41ColorRGB
 90
        0
102
RTVSPost2010PropOp41
 70
     1
102
RTVSPost2010Prop42
 90
       50
102
RTVSPost2010PropOp42
 70
     1
102
RTVSPost2010Prop43
 90
        3
102
RTVSPost2010PropOp43
 70
     1
102
RTVSPost2010Prop44ColorIndex
 90
        5
102
RTVSPost2010Prop44ColorRGB
 90
      255
102
RTVSPost2010PropOp44
 70
     1
102
RTVSPost2010Prop45
280
     0
102
RTVSPost2010PropOp45
 70
     1
102
RTVSPost2010Prop46
 90
       50
102
RTVSPost2010PropOp46
 70
     1
102
RTVSPost2010Prop47
 90
       50
102
RTVSPost2010PropOp47
 70
     1
102
RTVSPost2010Prop48
 90
       50
102
RTVSPost2010PropOp48
 70
     1
102
RTVSPost2010Prop49
280
     0
102
RTVSPost2010PropOp49
 70
     1
102
RTVSPost2010Prop50
 90
       50
102
RTVSPost2010PropOp50
 70
     1
102
RTVSPost2010Prop51ColorIndex
 90
      256
102
RTVSPost2010Prop51ColorRGB
 90
-16777216
102
RTVSPost2010PropOp51
 70
     0
102
RTVSPost2010Prop52
140
1.0
102
RTVSPost2010PropOp52
 70
     0
102
RTVSPost2010Prop53
 90
        2
102
RTVSPost2010PropOp53
 70
     1
102
RTVSPost2010Prop54
  1
strokes_ogs.tif
102
RTVSPost2010PropOp54
 70
     1
102
RTVSPost2010Prop55
280
     0
102
RTVSPost2010PropOp55
 70
     1
102
RTVSPost2010Prop56
140
1.0
102
RTVSPost2010PropOp56
 70
     1
102
RTVSPost2010Prop57
140
1.0
102
RTVSPost2010PropOp57
 70
     1
102
RTVSPropertyOp0
 70
     1
102
RTVSPropertyOp1
 70
     1
102
RTVSPropertyOp2
 70
     1
102
RTVSPropertyOp3
 70
     1
102
RTVSPropertyOp4
 70
     1
102
RTVSPropertyOp5
 70
     1
102
RTVSPropertyOp6
 70
     1
102
RTVSPropertyOp7
 70
     1
102
RTVSPropertyOp8
 70
     1
102
RTVSPropertyOp9
 70
     1
102
RTVSPropertyOp10
 70
     1
102
RTVSPropertyOp11
 70
     1
102
RTVSPropertyOp12
 70
     1
102
RTVSPropertyOp13
 70
     1
102
RTVSPropertyOp14
 70
     1
102
RTVSPropertyOp15
 70
     1
102
RTVSPropertyOp16
 70
     1
102
RTVSPropertyOp17
 70
     1
102
RTVSPropertyOp18
 70
     1
102
RTVSPropertyOp19
 70
     1
102
RTVSPropertyOp20
 70
     1
102
RTVSPropertyOp21
 70
     1
102
RTVSPropertyOp22
 70
     1
102
RTVSPropertyOp23
 70
     1
102
RTVSPropertyOp24
 70
     1
102
RTVSPropertyOp25
 70
     1
102
RTVSPropertyOp26
 70
     1
102
RTVSPropertyOp27
 70
     1
102
RTVSPropertyOp28
 70
     1
102
RTVSPropertyOp29
 70
     1
102
RTVSPropertyOp30
 70
     1
102
RTVSPropertyOp31
 70
     1
102
RTVSPropertyOp32
 70
     1
102
RTVSPropertyOp33
 70
     1
102
RTVSPropertyOp34
 70
     1
102
RTVSPropertyOp35
 70
     1
102
RTVSPropertyOp36
 70
     1
102
RTVSPropertyOp37
 70
     1
102
RTVSPropertyOp38
 70
     1
102
RTVSPropertyOp39
 70
     1
102
RTVSPropertyOp40
 70
     1
102
RTVSPropertyOp41
 70
     1
102
RTVSPropertyOp42
 70
     1
102
RTVSPropertyOp43
 70
     1
102
RTVSPropertyOp44
 70
     1
102
RTVSPropertyOp45
 70
     1
102
RTVSPropertyOp46
 70
     1
102
RTVSPropertyOp47
 70
     1
102
RTVSPropertyOp48
 70
     1
102
RTVSPropertyOp49
 70
     1
102
RTVSPropertyOp50
 70
     1
102
RTVSPropertyOp51
 70
     0
102
RTVSPropertyOp52
 70
     0
102
RTVSPropertyOp53
 70
     1
102
RTVSPropertyOp54
 70
     1
102
RTVSPropertyOp55
 70
     1
102
RTVSPropertyOp56
 70
     1
102
RTVSPropertyOp57
 70
     1
102
RTVSPropertyOp58
 70
     1
102
RTVSPropertyOp59
 70
     1
102
RTVSPropertyOp60
 70
     1
102
RTVSPropertyOp61
 70
     1
102
RTVSPropertyOp62
 70
     1
  0
XRECORD
  5
480
102
{ACAD_REACTORS
330
47F
102
}
330
47F
100
AcDbXrecord
280
     1
102
RTVSPost2010Prop28
280
     0
102
RTVSPost2010PropOp28
 70
     1
102
RTVSPost2010Prop29
280
     1
102
RTVSPost2010PropOp29
 70
     1
102
RTVSPost2010Prop30
280
     1
102
RTVSPost2010PropOp30
 70
     1
102
RTVSPost2010Prop31
280
     0
102
RTVSPost2010PropOp31
 70
     1
102
RTVSPost2010Prop32
280
     0
102
RTVSPost2010PropOp32
 70
     1
102
RTVSPost2010Prop33
280
     0
102
RTVSPost2010PropOp33
 70
     1
102
RTVSPost2010Prop34
280
     0
102
RTVSPost2010PropOp34
 70
     1
102
RTVSPost2010Prop35
280
     0
102
RTVSPost2010PropOp35
 70
     1
102
RTVSPost2010Prop36
280
     0
102
RTVSPost2010PropOp36
 70
     1
102
RTVSPost2010Prop37
 90
       50
102
RTVSPost2010PropOp37
 70
     1
102
RTVSPost2010Prop38
140
0.0
102
RTVSPost2010PropOp38
 70
     1
102
RTVSPost2010Prop39
140
1.0
102
RTVSPost2010PropOp39
 70
     1
102
RTVSPost2010Prop40
 90
        0
102
RTVSPost2010PropOp40
 70
     1
102
RTVSPost2010Prop41ColorIndex
 90
       18
102
RTVSPost2010Prop41ColorRGB
 90
        0
102
RTVSPost2010PropOp41
 70
     1
102
RTVSPost2010Prop42
 90
       50
102
RTVSPost2010PropOp42
 70
     1
102
RTVSPost2010Prop43
 90
        3
102
RTVSPost2010PropOp43
 70
     1
102
RTVSPost2010Prop44ColorIndex
 90
        5
102
RTVSPost2010Prop44ColorRGB
 90
      255
102
RTVSPost2010PropOp44
 70
     1
102
RTVSPost2010Prop45
280
     0
102
RTVSPost2010PropOp45
 70
     1
102
RTVSPost2010Prop46
 90
       50
102
RTVSPost2010PropOp46
 70
     1
102
RTVSPost2010Prop47
 90
       50
102
RTVSPost2010PropOp47
 70
     1
102
RTVSPost2010Prop48
 90
       50
102
RTVSPost2010PropOp48
 70
     1
102
RTVSPost2010Prop49
280
     0
102
RTVSPost2010PropOp49
 70
     1
102
RTVSPost2010Prop50
 90
       50
102
RTVSPost2010PropOp50
 70
     1
102
RTVSPost2010Prop51ColorIndex
 90
      256
102
RTVSPost2010Prop51ColorRGB
 90
-16777216
102
RTVSPost2010PropOp51
 70
     0
102
RTVSPost2010Prop52
140
1.0
102
RTVSPost2010PropOp52
 70
     0
102
RTVSPost2010Prop53
 90
        2
102
RTVSPost2010PropOp53
 70
     1
102
RTVSPost2010Prop54
  1
strokes_ogs.tif
102
RTVSPost2010PropOp54
 70
     1
102
RTVSPost2010Prop55
280
     0
102
RTVSPost2010PropOp55
 70
     1
102
RTVSPost2010Prop56
140
1.0
102
RTVSPost2010PropOp56
 70
     1
102
RTVSPost2010Prop57
140
1.0
102
RTVSPost2010PropOp57
 70
     1
102
RTVSPropertyOp0
 70
     1
102
RTVSPropertyOp1
 70
     1
102
RTVSPropertyOp2
 70
     1
102
RTVSPropertyOp3
 70
     1
102
RTVSPropertyOp4
 70
     1
102
RTVSPropertyOp5
 70
     1
102
RTVSPropertyOp6
 70
     1
102
RTVSPropertyOp7
 70
     1
102
RTVSPropertyOp8
 70
     1
102
RTVSPropertyOp9
 70
     1
102
RTVSPropertyOp10
 70
     1
102
RTVSPropertyOp11
 70
     1
102
RTVSPropertyOp12
 70
     1
102
RTVSPropertyOp13
 70
     1
102
RTVSPropertyOp14
 70
     1
102
RTVSPropertyOp15
 70
     1
102
RTVSPropertyOp16
 70
     1
102
RTVSPropertyOp17
 70
     1
102
RTVSPropertyOp18
 70
     1
102
RTVSPropertyOp19
 70
     1
102
RTVSPropertyOp20
 70
     1
102
RTVSPropertyOp21
 70
     1
102
RTVSPropertyOp22
 70
     1
102
RTVSPropertyOp23
 70
     1
102
RTVSPropertyOp24
 70
     1
102
RTVSPropertyOp25
 70
     1
102
RTVSPropertyOp26
 70
     1
102
RTVSPropertyOp27
 70
     1
102
RTVSPropertyOp28
 70
     1
102
RTVSPropertyOp29
 70
     1
102
RTVSPropertyOp30
 70
     1
102
RTVSPropertyOp31
 70
     1
102
RTVSPropertyOp32
 70
     1
102
RTVSPropertyOp33
 70
     1
102
RTVSPropertyOp34
 70
     1
102
RTVSPropertyOp35
 70
     1
102
RTVSPropertyOp36
 70
     1
102
RTVSPropertyOp37
 70
     1
102
RTVSPropertyOp38
 70
     1
102
RTVSPropertyOp39
 70
     1
102
RTVSPropertyOp40
 70
     1
102
RTVSPropertyOp41
 70
     1
102
RTVSPropertyOp42
 70
     1
102
RTVSPropertyOp43
 70
     1
102
RTVSPropertyOp44
 70
     1
102
RTVSPropertyOp45
 70
     1
102
RTVSPropertyOp46
 70
     1
102
RTVSPropertyOp47
 70
     1
102
RTVSPropertyOp48
 70
     1
102
RTVSPropertyOp49
 70
     1
102
RTVSPropertyOp50
 70
     1
102
RTVSPropertyOp51
 70
     0
102
RTVSPropertyOp52
 70
     0
102
RTVSPropertyOp53
 70
     1
102
RTVSPropertyOp54
 70
     1
102
RTVSPropertyOp55
 70
     1
102
RTVSPropertyOp56
 70
     1
102
RTVSPropertyOp57
 70
     1
102
RTVSPropertyOp58
 70
     1
102
RTVSPropertyOp59
 70
     1
102
RTVSPropertyOp60
 70
     1
102
RTVSPropertyOp61
 70
     1
102
RTVSPropertyOp62
 70
     1
  0
XRECORD
  5
47A
102
{ACAD_REACTORS
330
479
102
}
330
479
100
AcDbXrecord
280
     1
102
RTVSPost2010Prop28
280
     0
102
RTVSPost2010PropOp28
 70
     1
102
RTVSPost2010Prop29
280
     1
102
RTVSPost2010PropOp29
 70
     1
102
RTVSPost2010Prop30
280
     1
102
RTVSPost2010PropOp30
 70
     1
102
RTVSPost2010Prop31
280
     0
102
RTVSPost2010PropOp31
 70
     1
102
RTVSPost2010Prop32
280
     0
102
RTVSPost2010PropOp32
 70
     1
102
RTVSPost2010Prop33
280
     0
102
RTVSPost2010PropOp33
 70
     1
102
RTVSPost2010Prop34
280
     0
102
RTVSPost2010PropOp34
 70
     1
102
RTVSPost2010Prop35
280
     0
102
RTVSPost2010PropOp35
 70
     1
102
RTVSPost2010Prop36
280
     0
102
RTVSPost2010PropOp36
 70
     1
102
RTVSPost2010Prop37
 90
       50
102
RTVSPost2010PropOp37
 70
     1
102
RTVSPost2010Prop38
140
0.0
102
RTVSPost2010PropOp38
 70
     1
102
RTVSPost2010Prop39
140
1.0
102
RTVSPost2010PropOp39
 70
     1
102
RTVSPost2010Prop40
 90
        0
102
RTVSPost2010PropOp40
 70
     1
102
RTVSPost2010Prop41ColorIndex
 90
       18
102
RTVSPost2010Prop41ColorRGB
 90
        0
102
RTVSPost2010PropOp41
 70
     1
102
RTVSPost2010Prop42
 90
       50
102
RTVSPost2010PropOp42
 70
     1
102
RTVSPost2010Prop43
 90
        3
102
RTVSPost2010PropOp43
 70
     1
102
RTVSPost2010Prop44ColorIndex
 90
        5
102
RTVSPost2010Prop44ColorRGB
 90
      255
102
RTVSPost2010PropOp44
 70
     1
102
RTVSPost2010Prop45
280
     0
102
RTVSPost2010PropOp45
 70
     1
102
RTVSPost2010Prop46
 90
       50
102
RTVSPost2010PropOp46
 70
     1
102
RTVSPost2010Prop47
 90
       50
102
RTVSPost2010PropOp47
 70
     1
102
RTVSPost2010Prop48
 90
       50
102
RTVSPost2010PropOp48
 70
     1
102
RTVSPost2010Prop49
280
     0
102
RTVSPost2010PropOp49
 70
     1
102
RTVSPost2010Prop50
 90
       50
102
RTVSPost2010PropOp50
 70
     1
102
RTVSPost2010Prop51ColorIndex
 90
      256
102
RTVSPost2010Prop51ColorRGB
 90
-16777216
102
RTVSPost2010PropOp51
 70
     0
102
RTVSPost2010Prop52
140
1.0
102
RTVSPost2010PropOp52
 70
     0
102
RTVSPost2010Prop53
 90
        2
102
RTVSPost2010PropOp53
 70
     1
102
RTVSPost2010Prop54
  1
strokes_ogs.tif
102
RTVSPost2010PropOp54
 70
     1
102
RTVSPost2010Prop55
280
     0
102
RTVSPost2010PropOp55
 70
     1
102
RTVSPost2010Prop56
140
1.0
102
RTVSPost2010PropOp56
 70
     1
102
RTVSPost2010Prop57
140
1.0
102
RTVSPost2010PropOp57
 70
     1
102
RTVSPropertyOp0
 70
     1
102
RTVSPropertyOp1
 70
     1
102
RTVSPropertyOp2
 70
     1
102
RTVSPropertyOp3
 70
     1
102
RTVSPropertyOp4
 70
     1
102
RTVSPropertyOp5
 70
     1
102
RTVSPropertyOp6
 70
     1
102
RTVSPropertyOp7
 70
     1
102
RTVSPropertyOp8
 70
     1
102
RTVSPropertyOp9
 70
     1
102
RTVSPropertyOp10
 70
     1
102
RTVSPropertyOp11
 70
     1
102
RTVSPropertyOp12
 70
     1
102
RTVSPropertyOp13
 70
     1
102
RTVSPropertyOp14
 70
     1
102
RTVSPropertyOp15
 70
     1
102
RTVSPropertyOp16
 70
     1
102
RTVSPropertyOp17
 70
     1
102
RTVSPropertyOp18
 70
     1
102
RTVSPropertyOp19
 70
     1
102
RTVSPropertyOp20
 70
     1
102
RTVSPropertyOp21
 70
     1
102
RTVSPropertyOp22
 70
     1
102
RTVSPropertyOp23
 70
     1
102
RTVSPropertyOp24
 70
     1
102
RTVSPropertyOp25
 70
     1
102
RTVSPropertyOp26
 70
     1
102
RTVSPropertyOp27
 70
     1
102
RTVSPropertyOp28
 70
     1
102
RTVSPropertyOp29
 70
     1
102
RTVSPropertyOp30
 70
     1
102
RTVSPropertyOp31
 70
     1
102
RTVSPropertyOp32
 70
     1
102
RTVSPropertyOp33
 70
     1
102
RTVSPropertyOp34
 70
     1
102
RTVSPropertyOp35
 70
     1
102
RTVSPropertyOp36
 70
     1
102
RTVSPropertyOp37
 70
     1
102
RTVSPropertyOp38
 70
     1
102
RTVSPropertyOp39
 70
     1
102
RTVSPropertyOp40
 70
     1
102
RTVSPropertyOp41
 70
     1
102
RTVSPropertyOp42
 70
     1
102
RTVSPropertyOp43
 70
     1
102
RTVSPropertyOp44
 70
     1
102
RTVSPropertyOp45
 70
     1
102
RTVSPropertyOp46
 70
     1
102
RTVSPropertyOp47
 70
     1
102
RTVSPropertyOp48
 70
     1
102
RTVSPropertyOp49
 70
     1
102
RTVSPropertyOp50
 70
     1
102
RTVSPropertyOp51
 70
     0
102
RTVSPropertyOp52
 70
     0
102
RTVSPropertyOp53
 70
     1
102
RTVSPropertyOp54
 70
     1
102
RTVSPropertyOp55
 70
     1
102
RTVSPropertyOp56
 70
     1
102
RTVSPropertyOp57
 70
     1
102
RTVSPropertyOp58
 70
     1
102
RTVSPropertyOp59
 70
     1
102
RTVSPropertyOp60
 70
     1
102
RTVSPropertyOp61
 70
     1
102
RTVSPropertyOp62
 70
     1
  0
XRECORD
  5
47C
102
{ACAD_REACTORS
330
47B
102
}
330
47B
100
AcDbXrecord
280
     1
102
RTVSPost2010Prop28
280
     0
102
RTVSPost2010PropOp28
 70
     1
102
RTVSPost2010Prop29
280
     1
102
RTVSPost2010PropOp29
 70
     1
102
RTVSPost2010Prop30
280
     1
102
RTVSPost2010PropOp30
 70
     1
102
RTVSPost2010Prop31
280
     0
102
RTVSPost2010PropOp31
 70
     1
102
RTVSPost2010Prop32
280
     0
102
RTVSPost2010PropOp32
 70
     1
102
RTVSPost2010Prop33
280
     0
102
RTVSPost2010PropOp33
 70
     1
102
RTVSPost2010Prop34
280
     0
102
RTVSPost2010PropOp34
 70
     1
102
RTVSPost2010Prop35
280
     0
102
RTVSPost2010PropOp35
 70
     1
102
RTVSPost2010Prop36
280
     0
102
RTVSPost2010PropOp36
 70
     1
102
RTVSPost2010Prop37
 90
       50
102
RTVSPost2010PropOp37
 70
     1
102
RTVSPost2010Prop38
140
0.0
102
RTVSPost2010PropOp38
 70
     1
102
RTVSPost2010Prop39
140
1.0
102
RTVSPost2010PropOp39
 70
     1
102
RTVSPost2010Prop40
 90
        0
102
RTVSPost2010PropOp40
 70
     1
102
RTVSPost2010Prop41ColorIndex
 90
       18
102
RTVSPost2010Prop41ColorRGB
 90
        0
102
RTVSPost2010PropOp41
 70
     1
102
RTVSPost2010Prop42
 90
       50
102
RTVSPost2010PropOp42
 70
     1
102
RTVSPost2010Prop43
 90
        3
102
RTVSPost2010PropOp43
 70
     1
102
RTVSPost2010Prop44ColorIndex
 90
        5
102
RTVSPost2010Prop44ColorRGB
 90
      255
102
RTVSPost2010PropOp44
 70
     1
102
RTVSPost2010Prop45
280
     0
102
RTVSPost2010PropOp45
 70
     1
102
RTVSPost2010Prop46
 90
       50
102
RTVSPost2010PropOp46
 70
     1
102
RTVSPost2010Prop47
 90
       50
102
RTVSPost2010PropOp47
 70
     1
102
RTVSPost2010Prop48
 90
       50
102
RTVSPost2010PropOp48
 70
     1
102
RTVSPost2010Prop49
280
     0
102
RTVSPost2010PropOp49
 70
     1
102
RTVSPost2010Prop50
 90
       50
102
RTVSPost2010PropOp50
 70
     1
102
RTVSPost2010Prop51ColorIndex
 90
      256
102
RTVSPost2010Prop51ColorRGB
 90
-16777216
102
RTVSPost2010PropOp51
 70
     0
102
RTVSPost2010Prop52
140
1.0
102
RTVSPost2010PropOp52
 70
     0
102
RTVSPost2010Prop53
 90
        2
102
RTVSPost2010PropOp53
 70
     1
102
RTVSPost2010Prop54
  1
strokes_ogs.tif
102
RTVSPost2010PropOp54
 70
     1
102
RTVSPost2010Prop55
280
     0
102
RTVSPost2010PropOp55
 70
     1
102
RTVSPost2010Prop56
140
1.0
102
RTVSPost2010PropOp56
 70
     1
102
RTVSPost2010Prop57
140
1.0
102
RTVSPost2010PropOp57
 70
     1
102
RTVSPropertyOp0
 70
     1
102
RTVSPropertyOp1
 70
     1
102
RTVSPropertyOp2
 70
     1
102
RTVSPropertyOp3
 70
     1
102
RTVSPropertyOp4
 70
     1
102
RTVSPropertyOp5
 70
     1
102
RTVSPropertyOp6
 70
     1
102
RTVSPropertyOp7
 70
     1
102
RTVSPropertyOp8
 70
     1
102
RTVSPropertyOp9
 70
     1
102
RTVSPropertyOp10
 70
     1
102
RTVSPropertyOp11
 70
     1
102
RTVSPropertyOp12
 70
     1
102
RTVSPropertyOp13
 70
     1
102
RTVSPropertyOp14
 70
     1
102
RTVSPropertyOp15
 70
     1
102
RTVSPropertyOp16
 70
     1
102
RTVSPropertyOp17
 70
     1
102
RTVSPropertyOp18
 70
     1
102
RTVSPropertyOp19
 70
     1
102
RTVSPropertyOp20
 70
     1
102
RTVSPropertyOp21
 70
     1
102
RTVSPropertyOp22
 70
     1
102
RTVSPropertyOp23
 70
     1
102
RTVSPropertyOp24
 70
     1
102
RTVSPropertyOp25
 70
     1
102
RTVSPropertyOp26
 70
     1
102
RTVSPropertyOp27
 70
     1
102
RTVSPropertyOp28
 70
     1
102
RTVSPropertyOp29
 70
     1
102
RTVSPropertyOp30
 70
     1
102
RTVSPropertyOp31
 70
     1
102
RTVSPropertyOp32
 70
     1
102
RTVSPropertyOp33
 70
     1
102
RTVSPropertyOp34
 70
     1
102
RTVSPropertyOp35
 70
     1
102
RTVSPropertyOp36
 70
     1
102
RTVSPropertyOp37
 70
     1
102
RTVSPropertyOp38
 70
     1
102
RTVSPropertyOp39
 70
     1
102
RTVSPropertyOp40
 70
     1
102
RTVSPropertyOp41
 70
     1
102
RTVSPropertyOp42
 70
     1
102
RTVSPropertyOp43
 70
     1
102
RTVSPropertyOp44
 70
     1
102
RTVSPropertyOp45
 70
     1
102
RTVSPropertyOp46
 70
     1
102
RTVSPropertyOp47
 70
     1
102
RTVSPropertyOp48
 70
     1
102
RTVSPropertyOp49
 70
     1
102
RTVSPropertyOp50
 70
     1
102
RTVSPropertyOp51
 70
     0
102
RTVSPropertyOp52
 70
     0
102
RTVSPropertyOp53
 70
     1
102
RTVSPropertyOp54
 70
     1
102
RTVSPropertyOp55
 70
     1
102
RTVSPropertyOp56
 70
     1
102
RTVSPropertyOp57
 70
     1
102
RTVSPropertyOp58
 70
     1
102
RTVSPropertyOp59
 70
     1
102
RTVSPropertyOp60
 70
     1
102
RTVSPropertyOp61
 70
     1
102
RTVSPropertyOp62
 70
     1
  0
XRECORD
  5
468
102
{ACAD_REACTORS
330
467
102
}
330
467
100
AcDbXrecord
280
     1
102
RTVSPost2010Prop28
280
     0
102
RTVSPost2010PropOp28
 70
     1
102
RTVSPost2010Prop29
280
     1
102
RTVSPost2010PropOp29
 70
     1
102
RTVSPost2010Prop30
280
     1
102
RTVSPost2010PropOp30
 70
     1
102
RTVSPost2010Prop31
280
     0
102
RTVSPost2010PropOp31
 70
     1
102
RTVSPost2010Prop32
280
     0
102
RTVSPost2010PropOp32
 70
     1
102
RTVSPost2010Prop33
280
     0
102
RTVSPost2010PropOp33
 70
     1
102
RTVSPost2010Prop34
280
     0
102
RTVSPost2010PropOp34
 70
     1
102
RTVSPost2010Prop35
280
     0
102
RTVSPost2010PropOp35
 70
     1
102
RTVSPost2010Prop36
280
     0
102
RTVSPost2010PropOp36
 70
     1
102
RTVSPost2010Prop37
 90
       50
102
RTVSPost2010PropOp37
 70
     1
102
RTVSPost2010Prop38
140
0.0
102
RTVSPost2010PropOp38
 70
     1
102
RTVSPost2010Prop39
140
1.0
102
RTVSPost2010PropOp39
 70
     1
102
RTVSPost2010Prop40
 90
        0
102
RTVSPost2010PropOp40
 70
     1
102
RTVSPost2010Prop41ColorIndex
 90
       18
102
RTVSPost2010Prop41ColorRGB
 90
        0
102
RTVSPost2010PropOp41
 70
     1
102
RTVSPost2010Prop42
 90
       50
102
RTVSPost2010PropOp42
 70
     1
102
RTVSPost2010Prop43
 90
        3
102
RTVSPost2010PropOp43
 70
     1
102
RTVSPost2010Prop44ColorIndex
 90
        5
102
RTVSPost2010Prop44ColorRGB
 90
      255
102
RTVSPost2010PropOp44
 70
     1
102
RTVSPost2010Prop45
280
     0
102
RTVSPost2010PropOp45
 70
     1
102
RTVSPost2010Prop46
 90
       50
102
RTVSPost2010PropOp46
 70
     1
102
RTVSPost2010Prop47
 90
       50
102
RTVSPost2010PropOp47
 70
     1
102
RTVSPost2010Prop48
 90
       50
102
RTVSPost2010PropOp48
 70
     1
102
RTVSPost2010Prop49
280
     0
102
RTVSPost2010PropOp49
 70
     1
102
RTVSPost2010Prop50
 90
       50
102
RTVSPost2010PropOp50
 70
     1
102
RTVSPost2010Prop51ColorIndex
 90
      256
102
RTVSPost2010Prop51ColorRGB
 90
-16777216
102
RTVSPost2010PropOp51
 70
     0
102
RTVSPost2010Prop52
140
1.0
102
RTVSPost2010PropOp52
 70
     0
102
RTVSPost2010Prop53
 90
        2
102
RTVSPost2010PropOp53
 70
     1
102
RTVSPost2010Prop54
  1
strokes_ogs.tif
102
RTVSPost2010PropOp54
 70
     1
102
RTVSPost2010Prop55
280
     0
102
RTVSPost2010PropOp55
 70
     1
102
RTVSPost2010Prop56
140
1.0
102
RTVSPost2010PropOp56
 70
     1
102
RTVSPost2010Prop57
140
1.0
102
RTVSPost2010PropOp57
 70
     1
102
RTVSPropertyOp0
 70
     1
102
RTVSPropertyOp1
 70
     1
102
RTVSPropertyOp2
 70
     1
102
RTVSPropertyOp3
 70
     1
102
RTVSPropertyOp4
 70
     1
102
RTVSPropertyOp5
 70
     1
102
RTVSPropertyOp6
 70
     1
102
RTVSPropertyOp7
 70
     1
102
RTVSPropertyOp8
 70
     1
102
RTVSPropertyOp9
 70
     1
102
RTVSPropertyOp10
 70
     1
102
RTVSPropertyOp11
 70
     1
102
RTVSPropertyOp12
 70
     1
102
RTVSPropertyOp13
 70
     1
102
RTVSPropertyOp14
 70
     1
102
RTVSPropertyOp15
 70
     1
102
RTVSPropertyOp16
 70
     1
102
RTVSPropertyOp17
 70
     1
102
RTVSPropertyOp18
 70
     1
102
RTVSPropertyOp19
 70
     1
102
RTVSPropertyOp20
 70
     1
102
RTVSPropertyOp21
 70
     1
102
RTVSPropertyOp22
 70
     1
102
RTVSPropertyOp23
 70
     1
102
RTVSPropertyOp24
 70
     1
102
RTVSPropertyOp25
 70
     1
102
RTVSPropertyOp26
 70
     1
102
RTVSPropertyOp27
 70
     1
102
RTVSPropertyOp28
 70
     1
102
RTVSPropertyOp29
 70
     1
102
RTVSPropertyOp30
 70
     1
102
RTVSPropertyOp31
 70
     1
102
RTVSPropertyOp32
 70
     1
102
RTVSPropertyOp33
 70
     1
102
RTVSPropertyOp34
 70
     1
102
RTVSPropertyOp35
 70
     1
102
RTVSPropertyOp36
 70
     1
102
RTVSPropertyOp37
 70
     1
102
RTVSPropertyOp38
 70
     1
102
RTVSPropertyOp39
 70
     1
102
RTVSPropertyOp40
 70
     1
102
RTVSPropertyOp41
 70
     1
102
RTVSPropertyOp42
 70
     1
102
RTVSPropertyOp43
 70
     1
102
RTVSPropertyOp44
 70
     1
102
RTVSPropertyOp45
 70
     1
102
RTVSPropertyOp46
 70
     1
102
RTVSPropertyOp47
 70
     1
102
RTVSPropertyOp48
 70
     1
102
RTVSPropertyOp49
 70
     1
102
RTVSPropertyOp50
 70
     1
102
RTVSPropertyOp51
 70
     0
102
RTVSPropertyOp52
 70
     0
102
RTVSPropertyOp53
 70
     1
102
RTVSPropertyOp54
 70
     1
102
RTVSPropertyOp55
 70
     1
102
RTVSPropertyOp56
 70
     1
102
RTVSPropertyOp57
 70
     1
102
RTVSPropertyOp58
 70
     1
102
RTVSPropertyOp59
 70
     1
102
RTVSPropertyOp60
 70
     1
102
RTVSPropertyOp61
 70
     1
102
RTVSPropertyOp62
 70
     1
  0
XRECORD
  5
476
102
{ACAD_REACTORS
330
475
102
}
330
475
100
AcDbXrecord
280
     1
102
RTVSPost2010Prop28
280
     0
102
RTVSPost2010PropOp28
 70
     1
102
RTVSPost2010Prop29
280
     1
102
RTVSPost2010PropOp29
 70
     1
102
RTVSPost2010Prop30
280
     1
102
RTVSPost2010PropOp30
 70
     1
102
RTVSPost2010Prop31
280
     0
102
RTVSPost2010PropOp31
 70
     1
102
RTVSPost2010Prop32
280
     0
102
RTVSPost2010PropOp32
 70
     1
102
RTVSPost2010Prop33
280
     0
102
RTVSPost2010PropOp33
 70
     1
102
RTVSPost2010Prop34
280
     0
102
RTVSPost2010PropOp34
 70
     1
102
RTVSPost2010Prop35
280
     0
102
RTVSPost2010PropOp35
 70
     1
102
RTVSPost2010Prop36
280
     0
102
RTVSPost2010PropOp36
 70
     1
102
RTVSPost2010Prop37
 90
       50
102
RTVSPost2010PropOp37
 70
     1
102
RTVSPost2010Prop38
140
0.0
102
RTVSPost2010PropOp38
 70
     1
102
RTVSPost2010Prop39
140
1.0
102
RTVSPost2010PropOp39
 70
     1
102
RTVSPost2010Prop40
 90
        0
102
RTVSPost2010PropOp40
 70
     1
102
RTVSPost2010Prop41ColorIndex
 90
       18
102
RTVSPost2010Prop41ColorRGB
 90
        0
102
RTVSPost2010PropOp41
 70
     1
102
RTVSPost2010Prop42
 90
       50
102
RTVSPost2010PropOp42
 70
     1
102
RTVSPost2010Prop43
 90
        3
102
RTVSPost2010PropOp43
 70
     1
102
RTVSPost2010Prop44ColorIndex
 90
        5
102
RTVSPost2010Prop44ColorRGB
 90
      255
102
RTVSPost2010PropOp44
 70
     1
102
RTVSPost2010Prop45
280
     0
102
RTVSPost2010PropOp45
 70
     1
102
RTVSPost2010Prop46
 90
       50
102
RTVSPost2010PropOp46
 70
     1
102
RTVSPost2010Prop47
 90
       50
102
RTVSPost2010PropOp47
 70
     1
102
RTVSPost2010Prop48
 90
       50
102
RTVSPost2010PropOp48
 70
     1
102
RTVSPost2010Prop49
280
     0
102
RTVSPost2010PropOp49
 70
     1
102
RTVSPost2010Prop50
 90
       50
102
RTVSPost2010PropOp50
 70
     1
102
RTVSPost2010Prop51ColorIndex
 90
      256
102
RTVSPost2010Prop51ColorRGB
 90
-16777216
102
RTVSPost2010PropOp51
 70
     0
102
RTVSPost2010Prop52
140
1.0
102
RTVSPost2010PropOp52
 70
     0
102
RTVSPost2010Prop53
 90
        2
102
RTVSPost2010PropOp53
 70
     1
102
RTVSPost2010Prop54
  1
strokes_ogs.tif
102
RTVSPost2010PropOp54
 70
     1
102
RTVSPost2010Prop55
280
     0
102
RTVSPost2010PropOp55
 70
     1
102
RTVSPost2010Prop56
140
1.0
102
RTVSPost2010PropOp56
 70
     1
102
RTVSPost2010Prop57
140
1.0
102
RTVSPost2010PropOp57
 70
     1
102
RTVSPropertyOp0
 70
     1
102
RTVSPropertyOp1
 70
     1
102
RTVSPropertyOp2
 70
     1
102
RTVSPropertyOp3
 70
     1
102
RTVSPropertyOp4
 70
     1
102
RTVSPropertyOp5
 70
     1
102
RTVSPropertyOp6
 70
     1
102
RTVSPropertyOp7
 70
     1
102
RTVSPropertyOp8
 70
     1
102
RTVSPropertyOp9
 70
     1
102
RTVSPropertyOp10
 70
     1
102
RTVSPropertyOp11
 70
     1
102
RTVSPropertyOp12
 70
     1
102
RTVSPropertyOp13
 70
     1
102
RTVSPropertyOp14
 70
     1
102
RTVSPropertyOp15
 70
     1
102
RTVSPropertyOp16
 70
     1
102
RTVSPropertyOp17
 70
     1
102
RTVSPropertyOp18
 70
     1
102
RTVSPropertyOp19
 70
     1
102
RTVSPropertyOp20
 70
     1
102
RTVSPropertyOp21
 70
     1
102
RTVSPropertyOp22
 70
     1
102
RTVSPropertyOp23
 70
     1
102
RTVSPropertyOp24
 70
     1
102
RTVSPropertyOp25
 70
     1
102
RTVSPropertyOp26
 70
     1
102
RTVSPropertyOp27
 70
     1
102
RTVSPropertyOp28
 70
     1
102
RTVSPropertyOp29
 70
     1
102
RTVSPropertyOp30
 70
     1
102
RTVSPropertyOp31
 70
     1
102
RTVSPropertyOp32
 70
     1
102
RTVSPropertyOp33
 70
     1
102
RTVSPropertyOp34
 70
     1
102
RTVSPropertyOp35
 70
     1
102
RTVSPropertyOp36
 70
     1
102
RTVSPropertyOp37
 70
     1
102
RTVSPropertyOp38
 70
     1
102
RTVSPropertyOp39
 70
     1
102
RTVSPropertyOp40
 70
     1
102
RTVSPropertyOp41
 70
     1
102
RTVSPropertyOp42
 70
     1
102
RTVSPropertyOp43
 70
     1
102
RTVSPropertyOp44
 70
     1
102
RTVSPropertyOp45
 70
     1
102
RTVSPropertyOp46
 70
     1
102
RTVSPropertyOp47
 70
     1
102
RTVSPropertyOp48
 70
     1
102
RTVSPropertyOp49
 70
     1
102
RTVSPropertyOp50
 70
     1
102
RTVSPropertyOp51
 70
     0
102
RTVSPropertyOp52
 70
     0
102
RTVSPropertyOp53
 70
     1
102
RTVSPropertyOp54
 70
     1
102
RTVSPropertyOp55
 70
     1
102
RTVSPropertyOp56
 70
     1
102
RTVSPropertyOp57
 70
     1
102
RTVSPropertyOp58
 70
     1
102
RTVSPropertyOp59
 70
     1
102
RTVSPropertyOp60
 70
     1
102
RTVSPropertyOp61
 70
     1
102
RTVSPropertyOp62
 70
     1
  0
XRECORD
  5
47E
102
{ACAD_REACTORS
330
47D
102
}
330
47D
100
AcDbXrecord
280
     1
102
RTVSPost2010Prop28
280
     0
102
RTVSPost2010PropOp28
 70
     1
102
RTVSPost2010Prop29
280
     1
102
RTVSPost2010PropOp29
 70
     1
102
RTVSPost2010Prop30
280
     1
102
RTVSPost2010PropOp30
 70
     1
102
RTVSPost2010Prop31
280
     0
102
RTVSPost2010PropOp31
 70
     1
102
RTVSPost2010Prop32
280
     0
102
RTVSPost2010PropOp32
 70
     1
102
RTVSPost2010Prop33
280
     0
102
RTVSPost2010PropOp33
 70
     1
102
RTVSPost2010Prop34
280
     0
102
RTVSPost2010PropOp34
 70
     1
102
RTVSPost2010Prop35
280
     0
102
RTVSPost2010PropOp35
 70
     1
102
RTVSPost2010Prop36
280
     0
102
RTVSPost2010PropOp36
 70
     1
102
RTVSPost2010Prop37
 90
       50
102
RTVSPost2010PropOp37
 70
     1
102
RTVSPost2010Prop38
140
0.0
102
RTVSPost2010PropOp38
 70
     1
102
RTVSPost2010Prop39
140
1.0
102
RTVSPost2010PropOp39
 70
     1
102
RTVSPost2010Prop40
 90
        0
102
RTVSPost2010PropOp40
 70
     1
102
RTVSPost2010Prop41ColorIndex
 90
       18
102
RTVSPost2010Prop41ColorRGB
 90
        0
102
RTVSPost2010PropOp41
 70
     1
102
RTVSPost2010Prop42
 90
       50
102
RTVSPost2010PropOp42
 70
     1
102
RTVSPost2010Prop43
 90
        3
102
RTVSPost2010PropOp43
 70
     1
102
RTVSPost2010Prop44ColorIndex
 90
        5
102
RTVSPost2010Prop44ColorRGB
 90
      255
102
RTVSPost2010PropOp44
 70
     1
102
RTVSPost2010Prop45
280
     0
102
RTVSPost2010PropOp45
 70
     1
102
RTVSPost2010Prop46
 90
       50
102
RTVSPost2010PropOp46
 70
     1
102
RTVSPost2010Prop47
 90
       50
102
RTVSPost2010PropOp47
 70
     1
102
RTVSPost2010Prop48
 90
       50
102
RTVSPost2010PropOp48
 70
     1
102
RTVSPost2010Prop49
280
     0
102
RTVSPost2010PropOp49
 70
     1
102
RTVSPost2010Prop50
 90
       50
102
RTVSPost2010PropOp50
 70
     1
102
RTVSPost2010Prop51ColorIndex
 90
      256
102
RTVSPost2010Prop51ColorRGB
 90
-16777216
102
RTVSPost2010PropOp51
 70
     0
102
RTVSPost2010Prop52
140
1.0
102
RTVSPost2010PropOp52
 70
     0
102
RTVSPost2010Prop53
 90
        2
102
RTVSPost2010PropOp53
 70
     1
102
RTVSPost2010Prop54
  1
strokes_ogs.tif
102
RTVSPost2010PropOp54
 70
     1
102
RTVSPost2010Prop55
280
     0
102
RTVSPost2010PropOp55
 70
     1
102
RTVSPost2010Prop56
140
1.0
102
RTVSPost2010PropOp56
 70
     1
102
RTVSPost2010Prop57
140
1.0
102
RTVSPost2010PropOp57
 70
     1
102
RTVSPropertyOp0
 70
     1
102
RTVSPropertyOp1
 70
     1
102
RTVSPropertyOp2
 70
     1
102
RTVSPropertyOp3
 70
     1
102
RTVSPropertyOp4
 70
     1
102
RTVSPropertyOp5
 70
     1
102
RTVSPropertyOp6
 70
     1
102
RTVSPropertyOp7
 70
     1
102
RTVSPropertyOp8
 70
     1
102
RTVSPropertyOp9
 70
     1
102
RTVSPropertyOp10
 70
     1
102
RTVSPropertyOp11
 70
     1
102
RTVSPropertyOp12
 70
     1
102
RTVSPropertyOp13
 70
     1
102
RTVSPropertyOp14
 70
     1
102
RTVSPropertyOp15
 70
     1
102
RTVSPropertyOp16
 70
     1
102
RTVSPropertyOp17
 70
     1
102
RTVSPropertyOp18
 70
     1
102
RTVSPropertyOp19
 70
     1
102
RTVSPropertyOp20
 70
     1
102
RTVSPropertyOp21
 70
     1
102
RTVSPropertyOp22
 70
     1
102
RTVSPropertyOp23
 70
     1
102
RTVSPropertyOp24
 70
     1
102
RTVSPropertyOp25
 70
     1
102
RTVSPropertyOp26
 70
     1
102
RTVSPropertyOp27
 70
     1
102
RTVSPropertyOp28
 70
     1
102
RTVSPropertyOp29
 70
     1
102
RTVSPropertyOp30
 70
     1
102
RTVSPropertyOp31
 70
     1
102
RTVSPropertyOp32
 70
     1
102
RTVSPropertyOp33
 70
     1
102
RTVSPropertyOp34
 70
     1
102
RTVSPropertyOp35
 70
     1
102
RTVSPropertyOp36
 70
     1
102
RTVSPropertyOp37
 70
     1
102
RTVSPropertyOp38
 70
     1
102
RTVSPropertyOp39
 70
     1
102
RTVSPropertyOp40
 70
     1
102
RTVSPropertyOp41
 70
     1
102
RTVSPropertyOp42
 70
     1
102
RTVSPropertyOp43
 70
     1
102
RTVSPropertyOp44
 70
     1
102
RTVSPropertyOp45
 70
     1
102
RTVSPropertyOp46
 70
     1
102
RTVSPropertyOp47
 70
     1
102
RTVSPropertyOp48
 70
     1
102
RTVSPropertyOp49
 70
     1
102
RTVSPropertyOp50
 70
     1
102
RTVSPropertyOp51
 70
     0
102
RTVSPropertyOp52
 70
     0
102
RTVSPropertyOp53
 70
     1
102
RTVSPropertyOp54
 70
     1
102
RTVSPropertyOp55
 70
     1
102
RTVSPropertyOp56
 70
     1
102
RTVSPropertyOp57
 70
     1
102
RTVSPropertyOp58
 70
     1
102
RTVSPropertyOp59
 70
     1
102
RTVSPropertyOp60
 70
     1
102
RTVSPropertyOp61
 70
     1
102
RTVSPropertyOp62
 70
     1
  0
ENDSEC
  0
EOF
