  0
SECTION
  2
HEADER
  9
$ACADVER
  1
AC1021
  9
$ACADMAINTVER
 70
     1
  9
$DWGCODEPAGE
  3
ANSI_1252
  9
$LASTSAVEDBY
  1
gdseiver
  9
$INSBASE
 10
0.0
 20
0.0
 30
0.0
  9
$EXTMIN
 10
-0.0000103494035411
 20
-2.4055
 30
-0.0000000000000003
  9
$EXTMAX
 10
1.765410349403541
 20
0.7744999999999998
 30
4.859375000000001
  9
$LIMMIN
 10
0.0
 20
0.0
  9
$LIMMAX
 10
12.0
 20
9.0
  9
$ORTHOMODE
 70
     0
  9
$REGENMODE
 70
     1
  9
$FILLMODE
 70
     1
  9
$QTEXTMODE
 70
     0
  9
$MIRRTEXT
 70
     1
  9
$LTSCALE
 40
1.0
  9
$ATTMODE
 70
     1
  9
$TEXTSIZE
 40
0.12
  9
$TRACEWID
 40
0.05
  9
$TEXTSTYLE
  7
STANDARD
  9
$CLAYER
  8
0
  9
$CELTYPE
  6
BYLAYER
  9
$CECOLOR
 62
   256
  9
$CELTSCALE
 40
1.0
  9
$DISPSILH
 70
     0
  9
$DIMSCALE
 40
1.0
  9
$DIMASZ
 40
0.125
  9
$DIMEXO
 40
0.0625
  9
$DIMDLI
 40
0.375
  9
$DIMRND
 40
0.0
  9
$DIMDLE
 40
0.0
  9
$DIMEXE
 40
0.1
  9
$DIMTP
 40
0.0
  9
$DIMTM
 40
0.0
  9
$DIMTXT
 40
0.125
  9
$DIMCEN
 40
0.09
  9
$DIMTSZ
 40
0.0
  9
$DIMTOL
 70
     0
  9
$DIMLIM
 70
     0
  9
$DIMTIH
 70
     0
  9
$DIMTOH
 70
     1
  9
$DIMSE1
 70
     0
  9
$DIMSE2
 70
     0
  9
$DIMTAD
 70
     0
  9
$DIMZIN
 70
     4
  9
$DIMBLK
  1

  9
$DIMASO
 70
     1
  9
$DIMSHO
 70
     1
  9
$DIMPOST
  1

  9
$DIMAPOST
  1

  9
$DIMALT
 70
     1
  9
$DIMALTD
 70
     2
  9
$DIMALTF
 40
25.4
  9
$DIMLFAC
 40
1.0
  9
$DIMTOFL
 70
     0
  9
$DIMTVP
 40
0.0
  9
$DIMTIX
 70
     0
  9
$DIMSOXD
 70
     0
  9
$DIMSAH
 70
     0
  9
$DIMBLK1
  1

  9
$DIMBLK2
  1

  9
$DIMSTYLE
  2
ABECAD_3D
  9
$DIMCLRD
 70
     0
  9
$DIMCLRE
 70
     0
  9
$DIMCLRT
 70
     0
  9
$DIMTFAC
 40
1.5
  9
$DIMGAP
 40
0.09
  9
$DIMJUST
 70
     0
  9
$DIMSD1
 70
     0
  9
$DIMSD2
 70
     0
  9
$DIMTOLJ
 70
     1
  9
$DIMTZIN
 70
     4
  9
$DIMALTZ
 70
     4
  9
$DIMALTTZ
 70
     4
  9
$DIMUPT
 70
     1
  9
$DIMDEC
 70
     6
  9
$DIMTDEC
 70
     6
  9
$DIMALTU
 70
     2
  9
$DIMALTTD
 70
     2
  9
$DIMTXSTY
  7
STANDARD
  9
$DIMAUNIT
 70
     0
  9
$DIMADEC
 70
     0
  9
$DIMALTRND
 40
0.0
  9
$DIMAZIN
 70
     0
  9
$DIMDSEP
 70
    46
  9
$DIMATFIT
 70
     2
  9
$DIMFRAC
 70
     2
  9
$DIMLDRBLK
  1

  9
$DIMLUNIT
 70
     5
  9
$DIMLWD
 70
    -2
  9
$DIMLWE
 70
    -2
  9
$DIMTMOVE
 70
     2
  9
$DIMFXL
 40
1.0
  9
$DIMFXLON
 70
     0
  9
$DIMJOGANG
 40
0.7853981633974483
  9
$DIMTFILL
 70
     0
  9
$DIMTFILLCLR
 70
     0
  9
$DIMARCSYM
 70
     0
  9
$DIMLTYPE
  6

  9
$DIMLTEX1
  6

  9
$DIMLTEX2
  6

  9
$LUNITS
 70
     2
  9
$LUPREC
 70
     4
  9
$SKETCHINC
 40
0.1
  9
$FILLETRAD
 40
0.0
  9
$AUNITS
 70
     0
  9
$AUPREC
 70
     0
  9
$MENU
  1
ACAD
  9
$ELEVATION
 40
0.0
  9
$PELEVATION
 40
0.0
  9
$THICKNESS
 40
0.0
  9
$LIMCHECK
 70
     0
  9
$CHAMFERA
 40
0.0
  9
$CHAMFERB
 40
0.0
  9
$CHAMFERC
 40
0.0
  9
$CHAMFERD
 40
0.0
  9
$SKPOLY
 70
     0
  9
$TDCREATE
 40
2451726.480055787
  9
$TDUCREATE
 40
2451726.688389120
  9
$TDUPDATE
 40
2454229.679594549
  9
$TDUUPDATE
 40
2454229.887927882
  9
$TDINDWG
 40
0.9528522801
  9
$TDUSRTIMER
 40
0.9528522801
  9
$USRTIMER
 70
     1
  9
$ANGBASE
 50
0.0
  9
$ANGDIR
 70
     0
  9
$PDMODE
 70
     3
  9
$PDSIZE
 40
0.09
  9
$PLINEWID
 40
0.0
  9
$SPLFRAME
 70
     1
  9
$SPLINETYPE
 70
     6
  9
$SPLINESEGS
 70
     8
  9
$HANDSEED
  5
758C6
  9
$SURFTAB1
 70
     6
  9
$SURFTAB2
 70
     6
  9
$SURFTYPE
 70
     6
  9
$SURFU
 70
     6
  9
$SURFV
 70
     6
  9
$UCSBASE
  2

  9
$UCSNAME
  2

  9
$UCSORG
 10
0.0
 20
0.0
 30
0.0
  9
$UCSXDIR
 10
1.0
 20
0.0
 30
0.0
  9
$UCSYDIR
 10
0.0
 20
1.0
 30
0.0
  9
$UCSORTHOREF
  2

  9
$UCSORTHOVIEW
 70
     1
  9
$UCSORGTOP
 10
0.0
 20
0.0
 30
0.0
  9
$UCSORGBOTTOM
 10
0.0
 20
0.0
 30
0.0
  9
$UCSORGLEFT
 10
0.0
 20
0.0
 30
0.0
  9
$UCSORGRIGHT
 10
0.0
 20
0.0
 30
0.0
  9
$UCSORGFRONT
 10
0.0
 20
0.0
 30
0.0
  9
$UCSORGBACK
 10
0.0
 20
0.0
 30
0.0
  9
$PUCSBASE
  2

  9
$PUCSNAME
  2

  9
$PUCSORG
 10
0.0
 20
0.0
 30
0.0
  9
$PUCSXDIR
 10
1.0
 20
0.0
 30
0.0
  9
$PUCSYDIR
 10
0.0
 20
1.0
 30
0.0
  9
$PUCSORTHOREF
  2

  9
$PUCSORTHOVIEW
 70
     0
  9
$PUCSORGTOP
 10
0.0
 20
0.0
 30
0.0
  9
$PUCSORGBOTTOM
 10
0.0
 20
0.0
 30
0.0
  9
$PUCSORGLEFT
 10
0.0
 20
0.0
 30
0.0
  9
$PUCSORGRIGHT
 10
0.0
 20
0.0
 30
0.0
  9
$PUCSORGFRONT
 10
0.0
 20
0.0
 30
0.0
  9
$PUCSORGBACK
 10
0.0
 20
0.0
 30
0.0
  9
$USERI1
 70
     0
  9
$USERI2
 70
     0
  9
$USERI3
 70
     0
  9
$USERI4
 70
     0
  9
$USERI5
 70
     0
  9
$USERR1
 40
0.0
  9
$USERR2
 40
0.0
  9
$USERR3
 40
0.0
  9
$USERR4
 40
0.0
  9
$USERR5
 40
0.0
  9
$WORLDVIEW
 70
     1
  9
$SHADEDGE
 70
     3
  9
$SHADEDIF
 70
    70
  9
$TILEMODE
 70
     1
  9
$MAXACTVP
 70
    16
  9
$PINSBASE
 10
0.0
 20
0.0
 30
0.0
  9
$PLIMCHECK
 70
     0
  9
$PEXTMIN
 10
1.049999952316284
 20
0.7999999523162842
 30
0.0
  9
$PEXTMAX
 10
9.449999570846555
 20
7.199999570846556
 30
0.0
  9
$PLIMMIN
 10
-0.2500002402958907
 20
-0.2499999962453767
  9
$PLIMMAX
 10
10.74999951940821
 20
8.249999763458731
  9
$UNITMODE
 70
     0
  9
$VISRETAIN
 70
     0
  9
$PLINEGEN
 70
     0
  9
$PSLTSCALE
 70
     1
  9
$TREEDEPTH
 70
  3020
  9
$CMLSTYLE
  2
STANDARD
  9
$CMLJUST
 70
     0
  9
$CMLSCALE
 40
1.0
  9
$PROXYGRAPHICS
 70
     1
  9
$MEASUREMENT
 70
     0
  9
$CELWEIGHT
370
    -1
  9
$ENDCAPS
280
     0
  9
$JOINSTYLE
280
     0
  9
$LWDISPLAY
290
     0
  9
$INSUNITS
 70
     0
  9
$HYPERLINKBASE
  1

  9
$STYLESHEET
  1

  9
$XEDIT
290
     1
  9
$CEPSNTYPE
380
     0
  9
$PSTYLEMODE
290
     1
  9
$FINGERPRINTGUID
  2
{6E0CF4B8-225E-11D4-A150-00A0CC3303EC}
  9
$VERSIONGUID
  2
{3F070641-FDCE-4E8E-ACFA-EA65BD9EA2C3}
  9
$EXTNAMES
290
     1
  9
$PSVPSCALE
 40
0.0
  9
$OLESTARTUP
290
     0
  9
$SORTENTS
280
   127
  9
$INDEXCTL
280
     0
  9
$HIDETEXT
280
     0
  9
$XCLIPFRAME
290
     0
  9
$HALOGAP
280
     0
  9
$OBSCOLOR
 70
   257
  9
$OBSLTYPE
280
     0
  9
$INTERSECTIONDISPLAY
280
     0
  9
$INTERSECTIONCOLOR
 70
   257
  9
$DIMASSOC
280
     1
  9
$PROJECTNAME
  1

  9
$CAMERADISPLAY
290
     0
  9
$LENSLENGTH
 40
50.0
  9
$CAMERAHEIGHT
 40
0.0
  9
$STEPSPERSEC
 40
2.0
  9
$STEPSIZE
 40
6.0
  9
$3DDWFPREC
 40
2.0
  9
$PSOLWIDTH
 40
0.25
  9
$PSOLHEIGHT
 40
4.0
  9
$LOFTANG1
 40
1.570796326794896
  9
$LOFTANG2
 40
1.570796326794896
  9
$LOFTMAG1
 40
0.0
  9
$LOFTMAG2
 40
0.0
  9
$LOFTPARAM
 70
     7
  9
$LOFTNORMALS
280
     1
  9
$LATITUDE
 40
37.795
  9
$LONGITUDE
 40
-122.394
  9
$NORTHDIRECTION
 40
0.0
  9
$TIMEZONE
 70
 -8000
  9
$LIGHTGLYPHDISPLAY
280
     1
  9
$TILEMODELIGHTSYNCH
280
     1
  9
$CMATERIAL
347
75870
  9
$SOLIDHIST
280
     1
  9
$SHOWHIST
280
     1
  9
$DWFFRAME
280
     2
  9
$DGNFRAME
280
     0
  9
$REALWORLDSCALE
290
     1
  9
$INTERFERECOLOR
 62
     1
  9
$INTERFEREOBJVS
345
7587D
  9
$INTERFEREVPVS
346
7587A
  9
$CSHADOW
280
     0
  9
$SHADOWPLANELOCATION
 40
0.0
  0
ENDSEC
  0
SECTION
  2
CLASSES
  0
CLASS
  1
DICTIONARYVAR
  2
AcDbDictionaryVar
  3
ObjectDBX Classes
 90
        0
 91
        2
280
     0
281
     0
  0
CLASS
  1
ACDBDICTIONARYWDFLT
  2
AcDbDictionaryWithDefault
  3
ObjectDBX Classes
 90
        0
 91
        1
280
     0
281
     0
  0
CLASS
  1
MATERIAL
  2
AcDbMaterial
  3
ObjectDBX Classes
 90
     1024
 91
        3
280
     0
281
     0
  0
CLASS
  1
VISUALSTYLE
  2
AcDbVisualStyle
  3
ObjectDBX Classes
 90
     4095
 91
       16
280
     0
281
     0
  0
CLASS
  1
TABLESTYLE
  2
AcDbTableStyle
  3
ObjectDBX Classes
 90
     4095
 91
        1
280
     0
281
     0
  0
CLASS
  1
SOLID_BACKGROUND
  2
AcDbSolidBackground
  3
SCENEOE
 90
     4095
 91
        1
280
     0
281
     0
  0
CLASS
  1
NPOCOLLECTION
  2
AcDbImpNonPersistentObjectsCollection
  3
ObjectDBX Classes
 90
     1153
 91
        1
280
     0
281
     0
  0
CLASS
  1
EXACXREFPANELOBJECT
  2
ExAcXREFPanelObject
  3
EXAC_ESW
 90
     1025
 91
        0
280
     0
281
     0
  0
ENDSEC
  0
SECTION
  2
TABLES
  0
TABLE
  2
VPORT
  5
458C7
102
{ACAD_XDICTIONARY
360
758A0
102
}
330
0
100
AcDbSymbolTable
 70
     1
  0
VPORT
  5
7583C
330
458C7
100
AcDbSymbolTableRecord
100
AcDbViewportTableRecord
  2
*Active
 70
     0
 10
0.0
 20
0.0
 11
1.0
 21
1.0
 12
0.3192338966032346
 22
0.0647779580940373
 13
0.0
 23
0.0
 14
0.25
 24
0.25
 15
0.25
 25
0.25
 16
0.0
 26
0.0
 36
1.0
 17
0.5634438949382106
 27
-0.8801371703728531
 37
1.68649307151727
 40
3.204780150069518
 41
1.421818181818181
 42
50.0
 43
0.0
 44
0.0
 50
0.0
 51
0.0
 71
     0
 72
 20000
 73
     1
 74
     1
 75
     0
 76
     0
 77
     0
 78
     0
281
     1
 65
     1
110
0.0
120
0.0
130
0.0
111
1.0
121
0.0
131
0.0
112
0.0
122
1.0
132
0.0
 79
     0
146
0.0
348
7587A
 60
     3
 61
     5
292
     1
282
     1
141
0.0
142
0.0
 63
   250
421
  3355443
  0
ENDTAB
  0
TABLE
  2
LTYPE
  5
458C4
330
0
100
AcDbSymbolTable
 70
     1
  0
LTYPE
  5
458D0
330
458C4
100
AcDbSymbolTableRecord
100
AcDbLinetypeTableRecord
  2
BYBLOCK
 70
     0
  3

 72
    65
 73
     0
 40
0.0
  0
LTYPE
  5
458D1
330
458C4
100
AcDbSymbolTableRecord
100
AcDbLinetypeTableRecord
  2
BYLAYER
 70
     0
  3

 72
    65
 73
     0
 40
0.0
  0
LTYPE
  5
458D2
330
458C4
100
AcDbSymbolTableRecord
100
AcDbLinetypeTableRecord
  2
CONTINUOUS
 70
     0
  3
Solid line
 72
    65
 73
     0
 40
0.0
  0
ENDTAB
  0
TABLE
  2
LAYER
  5
458C1
330
0
100
AcDbSymbolTable
 70
     8
  0
LAYER
  5
458CD
330
458C1
100
AcDbSymbolTableRecord
100
AcDbLayerTableRecord
  2
0
 70
     0
 62
     7
  6
CONTINUOUS
370
    -3
390
458FA
347
75872
  0
LAYER
  5
458EA
330
458C1
100
AcDbSymbolTableRecord
100
AcDbLayerTableRecord
  2
DIMS-MTG-HOLES
 70
     0
 62
     1
  6
CONTINUOUS
370
    -3
390
458FA
347
75872
  0
LAYER
  5
458EB
330
458C1
100
AcDbSymbolTableRecord
100
AcDbLayerTableRecord
  2
ATTRIBUTES
 70
     0
 62
     7
  6
CONTINUOUS
370
    -3
390
458FA
347
75872
  0
LAYER
  5
4593B
330
458C1
100
AcDbSymbolTableRecord
100
AcDbLayerTableRecord
  2
AREA1
 70
     1
 62
     7
  6
CONTINUOUS
290
     0
370
    -3
390
458FA
347
75872
  0
LAYER
  5
45940
330
458C1
100
AcDbSymbolTableRecord
100
AcDbLayerTableRecord
  2
Defpoints
 70
     1
 62
     7
  6
CONTINUOUS
290
     0
370
    -3
390
458FA
347
75872
  0
LAYER
  5
45954
330
458C1
100
AcDbSymbolTableRecord
100
AcDbLayerTableRecord
  2
SCALE
 70
     1
 62
     7
  6
CONTINUOUS
370
    -3
390
458FA
347
75872
  0
LAYER
  5
4D59A
330
458C1
100
AcDbSymbolTableRecord
100
AcDbLayerTableRecord
  2
SNAP_POINTS
 70
     1
 62
     1
  6
CONTINUOUS
370
    -3
390
458FA
347
75872
  0
LAYER
  5
7588D
102
{ACAD_XDICTIONARY
360
7588E
102
}
330
458C1
100
AcDbSymbolTableRecord
100
AcDbLayerTableRecord
  2
WIRES
 70
     0
 62
     7
  6
CONTINUOUS
370
    -3
390
458FA
347
75872
  0
ENDTAB
  0
TABLE
  2
STYLE
  5
458C2
330
0
100
AcDbSymbolTable
 70
     1
  0
STYLE
  5
458CE
330
458C2
100
AcDbSymbolTableRecord
100
AcDbTextStyleTableRecord
  2
STANDARD
 70
     0
 40
0.0
 41
1.0
 50
0.0
 71
     0
 42
0.12
  3
txt
  4

  0
ENDTAB
  0
TABLE
  2
VIEW
  5
458C5
330
0
100
AcDbSymbolTable
 70
     0
  0
ENDTAB
  0
TABLE
  2
UCS
  5
458C6
330
0
100
AcDbSymbolTable
 70
     0
  0
ENDTAB
  0
TABLE
  2
APPID
  5
458C8
330
0
100
AcDbSymbolTable
 70
     3
  0
APPID
  5
458CF
330
458C8
100
AcDbSymbolTableRecord
100
AcDbRegAppTableRecord
  2
ACAD
 70
     0
  0
APPID
  5
5FD5B
330
458C8
100
AcDbSymbolTableRecord
100
AcDbRegAppTableRecord
  2
AVE_RENDER
 70
     0
  0
APPID
  5
75892
330
458C8
100
AcDbSymbolTableRecord
100
AcDbRegAppTableRecord
  2
DCO15
 70
     0
  0
ENDTAB
  0
TABLE
  2
DIMSTYLE
  5
458C9
330
0
100
AcDbSymbolTable
 70
     1
100
AcDbDimStyleTable
 71
     0
  0
DIMSTYLE
105
458F6
102
{ACAD_REACTORS
330
75794
330
757A2
102
}
330
458C9
100
AcDbSymbolTableRecord
100
AcDbDimStyleTableRecord
  2
ABECAD_3D
 70
     0
 41
0.125
 43
0.375
 44
0.1
 73
     0
 78
     4
140
0.125
146
1.5
170
     1
271
     6
272
     6
276
     2
277
     5
279
     2
284
     4
285
     4
286
     4
288
     1
289
     2
340
458CE
  0
ENDTAB
  0
TABLE
  2
BLOCK_RECORD
  5
458C0
330
0
100
AcDbSymbolTable
 70
     3
  0
BLOCK_RECORD
  5
458D6
102
{ACAD_XDICTIONARY
360
4592C
102
}
330
458C0
100
AcDbSymbolTableRecord
100
AcDbBlockTableRecord
  2
*MODEL_SPACE
340
458FD
 70
     0
280
     1
281
     0
  0
BLOCK_RECORD
  5
458D3
102
{ACAD_XDICTIONARY
360
4592A
102
}
330
458C0
100
AcDbSymbolTableRecord
100
AcDbBlockTableRecord
  2
*PAPER_SPACE
340
458FE
 70
     0
280
     1
281
     0
  0
BLOCK_RECORD
  5
73745
330
458C0
100
AcDbSymbolTableRecord
100
AcDbBlockTableRecord
  2
AVE_RENDER
340
0
102
{BLKREFS
331
75452
331
75453
331
75454
102
}
 70
     0
280
     1
281
     0
  0
BLOCK_RECORD
  5
75795
330
458C0
100
AcDbSymbolTableRecord
100
AcDbBlockTableRecord
  2
*D1
340
0
 70
     0
280
     1
281
     0
  0
BLOCK_RECORD
  5
757A3
330
458C0
100
AcDbSymbolTableRecord
100
AcDbBlockTableRecord
  2
*D2
340
0
 70
     0
280
     1
281
     0
  0
ENDTAB
  0
ENDSEC
  0
SECTION
  2
BLOCKS
  0
BLOCK
  5
458DF
330
458D6
100
AcDbEntity
  8
0
100
AcDbBlockBegin
  2
*MODEL_SPACE
 70
     0
 10
0.0
 20
0.0
 30
0.0
  3
*MODEL_SPACE
  1

  0
ENDBLK
  5
458E0
330
458D6
100
AcDbEntity
  8
0
100
AcDbBlockEnd
  0
BLOCK
  5
458DD
330
458D3
100
AcDbEntity
 67
     1
  8
0
100
AcDbBlockBegin
  2
*PAPER_SPACE
 70
     0
 10
0.0
 20
0.0
 30
0.0
  3
*PAPER_SPACE
  1

  0
ENDBLK
  5
458DE
330
458D3
100
AcDbEntity
 67
     1
  8
0
100
AcDbBlockEnd
  0
BLOCK
  5
73746
330
73745
100
AcDbEntity
  8
0
100
AcDbBlockBegin
  2
AVE_RENDER
 70
     0
 10
0.0
 20
0.0
 30
0.0
  3
AVE_RENDER
  1
AVE_RENDER
  0
ENDBLK
  5
73747
330
73745
100
AcDbEntity
  8
0
100
AcDbBlockEnd
  0
BLOCK
  5
757A0
330
75795
100
AcDbEntity
  8
0
100
AcDbBlockBegin
  2
*D1
 70
     1
 10
0.0
 20
0.0
 30
0.0
  3
*D1
  1

  0
LINE
  5
75796
330
75795
100
AcDbEntity
  8
AREA1
 62
     0
370
    -2
100
AcDbLine
 10
0.6347000000000002
 20
0.7744999999999998
 30
0.0
 11
-0.55552069244184
 21
0.7745000000000001
 31
0.0
  0
LINE
  5
75797
330
75795
100
AcDbEntity
  8
AREA1
 62
     0
370
    -2
100
AcDbLine
 10
0.2701999999999993
 20
-2.4055
 30
0.0
 11
-0.5555206924418407
 21
-2.4055
 31
0.0
  0
LINE
  5
75798
330
75795
100
AcDbEntity
  8
AREA1
 62
     0
370
    -2
100
AcDbLine
 10
-0.4555206924418399
 20
0.6495000000000001
 30
0.0
 11
-0.4555206924418401
 21
0.0319602231793303
 31
0.0
  0
LINE
  5
75799
330
75795
100
AcDbEntity
  8
AREA1
 62
     0
370
    -2
100
AcDbLine
 10
-0.4555206924418406
 20
-2.2805
 30
0.0
 11
-0.4555206924418405
 21
-1.627206443487336
 31
0.0
  0
MTEXT
  5
7579A
330
75795
100
AcDbEntity
  8
AREA1
 62
     0
100
AcDbMText
 10
-0.4555206924418403
 20
-0.797623110154003
 30
0.0
 40
0.125
 41
0.0
 46
0.0
 71
     5
 72
     1
  1
\A1;3 3/16 [80.77]
 11
0.0000000000000001
 21
1.0
 31
0.0
 73
     1
 44
1.0
  0
SOLID
  5
7579B
330
75795
100
AcDbEntity
  8
AREA1
 62
     0
100
AcDbTrace
 10
-0.4763540257751732
 20
0.6495000000000001
 30
0.0
 11
-0.4346873591085066
 21
0.6495000000000001
 31
0.0
 12
-0.4555206924418399
 22
0.7745000000000001
 32
0.0
 13
-0.4555206924418399
 23
0.7745000000000001
 33
0.0
  0
SOLID
  5
7579C
330
75795
100
AcDbEntity
  8
AREA1
 62
     0
100
AcDbTrace
 10
-0.4763540257751739
 20
-2.2805
 30
0.0
 11
-0.4346873591085073
 21
-2.2805
 31
0.0
 12
-0.4555206924418406
 22
-2.4055
 32
0.0
 13
-0.4555206924418406
 23
-2.4055
 33
0.0
  0
POINT
  5
7579D
330
75795
100
AcDbEntity
  8
Defpoints
 62
     0
100
AcDbPoint
 10
0.6972000000000002
 20
0.7744999999999998
 30
2.913375
  0
POINT
  5
7579E
330
75795
100
AcDbEntity
  8
Defpoints
 62
     0
100
AcDbPoint
 10
0.3326999999999993
 20
-2.4055
 30
2.913375
  0
POINT
  5
7579F
330
75795
100
AcDbEntity
  8
Defpoints
 62
     0
100
AcDbPoint
 10
-0.4555206924418406
 20
-2.4055
 30
0.0
  0
ENDBLK
  5
757A1
330
75795
100
AcDbEntity
  8
0
100
AcDbBlockEnd
  0
BLOCK
  5
757AD
330
757A3
100
AcDbEntity
  8
0
100
AcDbBlockBegin
  2
*D2
 70
     1
 10
0.0
 20
0.0
 30
0.0
  3
*D2
  1

  0
LINE
  5
757AF
330
757A3
100
AcDbEntity
  8
AREA1
 62
     0
370
    -2
100
AcDbLine
 10
0.0002000000000001
 20
0.6009999999999991
 30
0.0
 11
0.0002000000000001
 21
1.086046992689724
 31
0.0
  0
LINE
  5
757B0
330
757A3
100
AcDbEntity
  8
AREA1
 62
     0
370
    -2
100
AcDbLine
 10
1.765199999999999
 20
0.637
 30
0.0
 11
1.765199999999999
 21
1.086046992689724
 31
0.0
  0
LINE
  5
757B1
330
757A3
100
AcDbEntity
  8
AREA1
 62
     0
370
    -2
100
AcDbLine
 10
0.1252000000000002
 20
0.9860469926897241
 30
0.0
 11
1.640199999999999
 21
0.9860469926897241
 31
0.0
  0
MTEXT
  5
757B2
330
757A3
100
AcDbEntity
  8
AREA1
 62
     0
100
AcDbMText
 10
0.8765883191364419
 20
1.293888541163717
 30
0.0
 40
0.125
 41
0.0
 46
0.0
 71
     5
 72
     1
  1
\A1;1 49/64 [44.83]
 73
     1
 44
1.0
  0
SOLID
  5
757B3
330
757A3
100
AcDbEntity
  8
AREA1
 62
     0
100
AcDbTrace
 10
0.1252000000000002
 20
1.006880326023057
 30
0.0
 11
0.1252000000000002
 21
0.9652136593563907
 31
0.0
 12
0.0002000000000001
 22
0.9860469926897241
 32
0.0
 13
0.0002000000000001
 23
0.9860469926897241
 33
0.0
  0
SOLID
  5
757B4
330
757A3
100
AcDbEntity
  8
AREA1
 62
     0
100
AcDbTrace
 10
1.640199999999999
 20
1.006880326023057
 30
0.0
 11
1.640199999999999
 21
0.9652136593563907
 31
0.0
 12
1.765199999999999
 22
0.9860469926897241
 32
0.0
 13
1.765199999999999
 23
0.9860469926897241
 33
0.0
  0
POINT
  5
757B5
330
757A3
100
AcDbEntity
  8
Defpoints
 62
     0
100
AcDbPoint
 10
0.0002000000000001
 20
0.5384999999999991
 30
3.587375
  0
POINT
  5
757B6
330
757A3
100
AcDbEntity
  8
Defpoints
 62
     0
100
AcDbPoint
 10
1.765199999999999
 20
0.5745
 30
0.0
  0
POINT
  5
757B7
330
757A3
100
AcDbEntity
  8
Defpoints
 62
     0
100
AcDbPoint
 10
1.765199999999999
 20
0.9860469926897241
 30
0.0
  0
ENDBLK
  5
757AE
330
757A3
100
AcDbEntity
  8
0
100
AcDbBlockEnd
  0
ENDSEC
  0
SECTION
  2
ENTITIES
  0
ATTDEF
  5
753BD
330
458D6
100
AcDbEntity
  8
ATTRIBUTES
100
AcDbText
 10
0.1000944536306815
 20
-0.1342429569443211
 30
0.0
 40
0.0805203758744914
  1
SPRECHER+SCHUH
100
AcDbAttributeDefinition
  3
MANUFACTURER NAME?
  2
AC_VND_LABEL
 70
     1
280
     0
  0
ATTDEF
  5
753BE
330
458D6
100
AcDbEntity
  8
ATTRIBUTES
100
AcDbText
 10
0.1000944536306815
 20
-0.3019937400161781
 30
0.0
 40
0.0805203758744914
  1
CA7-23DU*01
100
AcDbAttributeDefinition
  3
CATALOG NUMBER?
  2
AC_PART_NO
 70
     1
280
     0
  0
ATTDEF
  5
753BF
330
458D6
100
AcDbEntity
  8
ATTRIBUTES
100
AcDbText
 10
0.1000944536306815
 20
-0.4697445230880351
 30
0.0
 40
0.0805203758744914
  1
IEC DC CONTACTOR; 23A; 1 N.C.
100
AcDbAttributeDefinition
  3
PART DESCRIPTION?
  2
AC_DESCRIPTION
 70
     1
280
     0
  0
ATTDEF
  5
753C0
330
458D6
100
AcDbEntity
  8
ATTRIBUTES
100
AcDbText
 10
0.1000944536306815
 20
-0.6374953061598921
 30
0.0
 40
0.0805203758744914
  1

100
AcDbAttributeDefinition
  3
DEVICE ID?
  2
DEVICE_ID
 70
     1
280
     0
  0
ATTDEF
  5
753C1
330
458D6
100
AcDbEntity
  8
ATTRIBUTES
100
AcDbText
 10
0.1000944536306815
 20
-0.805246089231749
 30
0.0
 40
0.0805203758744914
  1

100
AcDbAttributeDefinition
  3
CUSTOMER PART NUMBER?
  2
AC_CPART_NO
 70
     1
280
     0
  0
ATTDEF
  5
753C2
330
458D6
100
AcDbEntity
  8
ATTRIBUTES
100
AcDbText
 10
0.1000944536306815
 20
-0.9729968723036069
 30
0.0
 40
0.0805203758744914
  1

100
AcDbAttributeDefinition
  3
CUSTOMER NOTE?
  2
AC_NOTE
 70
     1
280
     0
  0
ATTDEF
  5
753C3
330
458D6
100
AcDbEntity
  8
ATTRIBUTES
100
AcDbText
 10
0.1000944536306815
 20
-1.140747655375463
 30
0.0
 40
0.0805203758744914
  1

100
AcDbAttributeDefinition
  3
FASTENER DATA?
  2
FASTENER
 70
     1
280
     0
  0
ATTDEF
  5
753C4
330
458D6
100
AcDbEntity
  8
ATTRIBUTES
100
AcDbText
 10
0.1000944536306815
 20
-1.30849843844732
 30
0.0
 40
0.0805203758744914
  1
INCH
100
AcDbAttributeDefinition
  3
UNIT OF SCALE?
  2
AC_SCALE_UNIT
 70
     1
280
     0
  0
ATTDEF
  5
753C5
330
458D6
100
AcDbEntity
  8
ATTRIBUTES
100
AcDbText
 10
0.1000944536306815
 20
-1.476249221519177
 30
0.0
 40
0.0805203758744914
  1
0
100
AcDbAttributeDefinition
  3
VIEW CODE?
  2
AC_VIEW_CODE
 70
     1
280
     0
  0
POLYLINE
  5
753C6
330
458D6
100
AcDbEntity
  8
0
100
AcDbPolygonMesh
 66
     1
 10
0.0
 20
0.0
 30
0.0
 70
    16
 71
     6
 72
     3
  0
VERTEX
  5
753C7
330
753C6
100
AcDbEntity
  8
0
100
AcDbVertex
100
AcDbPolygonMeshVertex
 10
1.765199999999999
 20
0.2384999999999997
 30
0.316
 70
    64
  0
VERTEX
  5
753C8
330
753C6
100
AcDbEntity
  8
0
100
AcDbVertex
100
AcDbPolygonMeshVertex
 10
1.765199999999999
 20
0.2384999999999997
 30
0.0
 70
    64
  0
VERTEX
  5
753C9
330
753C6
100
AcDbEntity
  8
0
100
AcDbVertex
100
AcDbPolygonMeshVertex
 10
1.765199999999999
 20
0.2384999999999997
 30
0.0
 70
    64
  0
VERTEX
  5
753CA
330
753C6
100
AcDbEntity
  8
0
100
AcDbVertex
100
AcDbPolygonMeshVertex
 10
1.374199999999999
 20
0.2384999999999997
 30
0.316
 70
    64
  0
VERTEX
  5
753CB
330
753C6
100
AcDbEntity
  8
0
100
AcDbVertex
100
AcDbPolygonMeshVertex
 10
1.374199999999999
 20
0.2384999999999997
 30
0.0
 70
    64
  0
VERTEX
  5
753CC
330
753C6
100
AcDbEntity
  8
0
100
AcDbVertex
100
AcDbPolygonMeshVertex
 10
1.374199999999999
 20
0.2384999999999997
 30
0.0
 70
    64
  0
VERTEX
  5
753CD
330
753C6
100
AcDbEntity
  8
0
100
AcDbVertex
100
AcDbPolygonMeshVertex
 10
1.374199999999999
 20
0.5745
 30
0.316
 70
    64
  0
VERTEX
  5
753CE
330
753C6
100
AcDbEntity
  8
0
100
AcDbVertex
100
AcDbPolygonMeshVertex
 10
1.374199999999999
 20
0.5745
 30
0.0
 70
    64
  0
VERTEX
  5
753CF
330
753C6
100
AcDbEntity
  8
0
100
AcDbVertex
100
AcDbPolygonMeshVertex
 10
1.374199999999999
 20
0.2384999999999997
 30
0.0
 70
    64
  0
VERTEX
  5
753D0
330
753C6
100
AcDbEntity
  8
0
100
AcDbVertex
100
AcDbPolygonMeshVertex
 10
1.765199999999999
 20
0.5745
 30
0.316
 70
    64
  0
VERTEX
  5
753D1
330
753C6
100
AcDbEntity
  8
0
100
AcDbVertex
100
AcDbPolygonMeshVertex
 10
1.765199999999999
 20
0.5745
 30
0.0
 70
    64
  0
VERTEX
  5
753D2
330
753C6
100
AcDbEntity
  8
0
100
AcDbVertex
100
AcDbPolygonMeshVertex
 10
1.765199999999999
 20
0.2384999999999997
 30
0.0
 70
    64
  0
VERTEX
  5
753D3
330
753C6
100
AcDbEntity
  8
0
100
AcDbVertex
100
AcDbPolygonMeshVertex
 10
1.765199999999999
 20
0.5745
 30
0.316
 70
    64
  0
VERTEX
  5
753D4
330
753C6
100
AcDbEntity
  8
0
100
AcDbVertex
100
AcDbPolygonMeshVertex
 10
1.765199999999999
 20
0.5745
 30
0.316
 70
    64
  0
VERTEX
  5
753D5
330
753C6
100
AcDbEntity
  8
0
100
AcDbVertex
100
AcDbPolygonMeshVertex
 10
1.765199999999999
 20
0.2384999999999997
 30
0.316
 70
    64
  0
VERTEX
  5
753D6
330
753C6
100
AcDbEntity
  8
0
100
AcDbVertex
100
AcDbPolygonMeshVertex
 10
1.374199999999999
 20
0.5745
 30
0.316
 70
    64
  0
VERTEX
  5
753D7
330
753C6
100
AcDbEntity
  8
0
100
AcDbVertex
100
AcDbPolygonMeshVertex
 10
1.374199999999999
 20
0.5745
 30
0.316
 70
    64
  0
VERTEX
  5
753D8
330
753C6
100
AcDbEntity
  8
0
100
AcDbVertex
100
AcDbPolygonMeshVertex
 10
1.374199999999999
 20
0.2384999999999997
 30
0.316
 70
    64
  0
SEQEND
  5
753D9
330
753C6
100
AcDbEntity
  8
0
  0
POLYLINE
  5
753DA
330
458D6
100
AcDbEntity
  8
0
100
AcDbPolygonMesh
 66
     1
 10
0.0
 20
0.0
 30
0.0
 70
    16
 71
     6
 72
     3
  0
VERTEX
  5
753DB
330
753DA
100
AcDbEntity
  8
0
100
AcDbVertex
100
AcDbPolygonMeshVertex
 10
0.3962
 20
-1.685499999999999
 30
1.318
 70
    64
  0
VERTEX
  5
753DC
330
753DA
100
AcDbEntity
  8
0
100
AcDbVertex
100
AcDbPolygonMeshVertex
 10
0.3962
 20
-1.685499999999999
 30
0.187
 70
    64
  0
VERTEX
  5
753DD
330
753DA
100
AcDbEntity
  8
0
100
AcDbVertex
100
AcDbPolygonMeshVertex
 10
0.3962
 20
-1.685499999999999
 30
0.187
 70
    64
  0
VERTEX
  5
753DE
330
753DA
100
AcDbEntity
  8
0
100
AcDbVertex
100
AcDbPolygonMeshVertex
 10
0.0052
 20
-1.685499999999999
 30
1.318
 70
    64
  0
VERTEX
  5
753DF
330
753DA
100
AcDbEntity
  8
0
100
AcDbVertex
100
AcDbPolygonMeshVertex
 10
0.0052
 20
-1.685499999999999
 30
0.187
 70
    64
  0
VERTEX
  5
753E0
330
753DA
100
AcDbEntity
  8
0
100
AcDbVertex
100
AcDbPolygonMeshVertex
 10
0.0052
 20
-1.685499999999999
 30
0.187
 70
    64
  0
VERTEX
  5
753E1
330
753DA
100
AcDbEntity
  8
0
100
AcDbVertex
100
AcDbPolygonMeshVertex
 10
0.0052
 20
0.5215000000000001
 30
1.318
 70
    64
  0
VERTEX
  5
753E2
330
753DA
100
AcDbEntity
  8
0
100
AcDbVertex
100
AcDbPolygonMeshVertex
 10
0.0052
 20
0.5215000000000001
 30
0.187
 70
    64
  0
VERTEX
  5
753E3
330
753DA
100
AcDbEntity
  8
0
100
AcDbVertex
100
AcDbPolygonMeshVertex
 10
0.0052
 20
-1.685499999999999
 30
0.187
 70
    64
  0
VERTEX
  5
753E4
330
753DA
100
AcDbEntity
  8
0
100
AcDbVertex
100
AcDbPolygonMeshVertex
 10
0.3962
 20
0.5215000000000001
 30
1.318
 70
    64
  0
VERTEX
  5
753E5
330
753DA
100
AcDbEntity
  8
0
100
AcDbVertex
100
AcDbPolygonMeshVertex
 10
0.3962
 20
0.5215000000000001
 30
0.187
 70
    64
  0
VERTEX
  5
753E6
330
753DA
100
AcDbEntity
  8
0
100
AcDbVertex
100
AcDbPolygonMeshVertex
 10
0.3962
 20
-1.685499999999999
 30
0.187
 70
    64
  0
VERTEX
  5
753E7
330
753DA
100
AcDbEntity
  8
0
100
AcDbVertex
100
AcDbPolygonMeshVertex
 10
0.3962
 20
0.5215000000000001
 30
1.318
 70
    64
  0
VERTEX
  5
753E8
330
753DA
100
AcDbEntity
  8
0
100
AcDbVertex
100
AcDbPolygonMeshVertex
 10
0.3962
 20
0.5215000000000001
 30
1.318
 70
    64
  0
VERTEX
  5
753E9
330
753DA
100
AcDbEntity
  8
0
100
AcDbVertex
100
AcDbPolygonMeshVertex
 10
0.3962
 20
-1.685499999999999
 30
1.318
 70
    64
  0
VERTEX
  5
753EA
330
753DA
100
AcDbEntity
  8
0
100
AcDbVertex
100
AcDbPolygonMeshVertex
 10
0.0052
 20
0.5215000000000001
 30
1.318
 70
    64
  0
VERTEX
  5
753EB
330
753DA
100
AcDbEntity
  8
0
100
AcDbVertex
100
AcDbPolygonMeshVertex
 10
0.0052
 20
0.5215000000000001
 30
1.318
 70
    64
  0
VERTEX
  5
753EC
330
753DA
100
AcDbEntity
  8
0
100
AcDbVertex
100
AcDbPolygonMeshVertex
 10
0.0052
 20
-1.685499999999999
 30
1.318
 70
    64
  0
SEQEND
  5
753ED
330
753DA
100
AcDbEntity
  8
0
  0
POLYLINE
  5
753EE
330
458D6
100
AcDbEntity
  8
0
100
AcDbPolygonMesh
 66
     1
 10
0.0
 20
0.0
 30
0.0
 70
    16
 71
     6
 72
     3
  0
VERTEX
  5
753EF
330
753EE
100
AcDbEntity
  8
0
100
AcDbVertex
100
AcDbPolygonMeshVertex
 10
1.765199999999999
 20
-1.9685
 30
1.318
 70
    64
  0
VERTEX
  5
753F0
330
753EE
100
AcDbEntity
  8
0
100
AcDbVertex
100
AcDbPolygonMeshVertex
 10
1.765199999999999
 20
-1.9685
 30
0.187
 70
    64
  0
VERTEX
  5
753F1
330
753EE
100
AcDbEntity
  8
0
100
AcDbVertex
100
AcDbPolygonMeshVertex
 10
1.765199999999999
 20
-1.9685
 30
0.187
 70
    64
  0
VERTEX
  5
753F2
330
753EE
100
AcDbEntity
  8
0
100
AcDbVertex
100
AcDbPolygonMeshVertex
 10
1.374199999999999
 20
-1.9685
 30
1.318
 70
    64
  0
VERTEX
  5
753F3
330
753EE
100
AcDbEntity
  8
0
100
AcDbVertex
100
AcDbPolygonMeshVertex
 10
1.374199999999999
 20
-1.9685
 30
0.187
 70
    64
  0
VERTEX
  5
753F4
330
753EE
100
AcDbEntity
  8
0
100
AcDbVertex
100
AcDbPolygonMeshVertex
 10
1.374199999999999
 20
-1.9685
 30
0.187
 70
    64
  0
VERTEX
  5
753F5
330
753EE
100
AcDbEntity
  8
0
100
AcDbVertex
100
AcDbPolygonMeshVertex
 10
1.374199999999999
 20
0.2384999999999997
 30
1.318
 70
    64
  0
VERTEX
  5
753F6
330
753EE
100
AcDbEntity
  8
0
100
AcDbVertex
100
AcDbPolygonMeshVertex
 10
1.374199999999999
 20
0.2384999999999997
 30
0.187
 70
    64
  0
VERTEX
  5
753F7
330
753EE
100
AcDbEntity
  8
0
100
AcDbVertex
100
AcDbPolygonMeshVertex
 10
1.374199999999999
 20
-1.9685
 30
0.187
 70
    64
  0
VERTEX
  5
753F8
330
753EE
100
AcDbEntity
  8
0
100
AcDbVertex
100
AcDbPolygonMeshVertex
 10
1.765199999999999
 20
0.2384999999999997
 30
1.318
 70
    64
  0
VERTEX
  5
753F9
330
753EE
100
AcDbEntity
  8
0
100
AcDbVertex
100
AcDbPolygonMeshVertex
 10
1.765199999999999
 20
0.2384999999999997
 30
0.187
 70
    64
  0
VERTEX
  5
753FA
330
753EE
100
AcDbEntity
  8
0
100
AcDbVertex
100
AcDbPolygonMeshVertex
 10
1.765199999999999
 20
-1.9685
 30
0.187
 70
    64
  0
VERTEX
  5
753FB
330
753EE
100
AcDbEntity
  8
0
100
AcDbVertex
100
AcDbPolygonMeshVertex
 10
1.765199999999999
 20
0.2384999999999997
 30
1.318
 70
    64
  0
VERTEX
  5
753FC
330
753EE
100
AcDbEntity
  8
0
100
AcDbVertex
100
AcDbPolygonMeshVertex
 10
1.765199999999999
 20
0.2384999999999997
 30
1.318
 70
    64
  0
VERTEX
  5
753FD
330
753EE
100
AcDbEntity
  8
0
100
AcDbVertex
100
AcDbPolygonMeshVertex
 10
1.765199999999999
 20
-1.9685
 30
1.318
 70
    64
  0
VERTEX
  5
753FE
330
753EE
100
AcDbEntity
  8
0
100
AcDbVertex
100
AcDbPolygonMeshVertex
 10
1.374199999999999
 20
0.2384999999999997
 30
1.318
 70
    64
  0
VERTEX
  5
753FF
330
753EE
100
AcDbEntity
  8
0
100
AcDbVertex
100
AcDbPolygonMeshVertex
 10
1.374199999999999
 20
0.2384999999999997
 30
1.318
 70
    64
  0
VERTEX
  5
75400
330
753EE
100
AcDbEntity
  8
0
100
AcDbVertex
100
AcDbPolygonMeshVertex
 10
1.374199999999999
 20
-1.9685
 30
1.318
 70
    64
  0
SEQEND
  5
75401
330
753EE
100
AcDbEntity
  8
0
  0
POLYLINE
  5
75402
330
458D6
100
AcDbEntity
  8
0
100
AcDbPolygonMesh
 66
     1
 10
0.0
 20
0.0
 30
0.0
 70
    16
 71
     6
 72
     3
  0
VERTEX
  5
75403
330
75402
100
AcDbEntity
  8
0
100
AcDbVertex
100
AcDbPolygonMeshVertex
 10
1.374199999999999
 20
-1.9685
 30
1.318
 70
    64
  0
VERTEX
  5
75404
330
75402
100
AcDbEntity
  8
0
100
AcDbVertex
100
AcDbPolygonMeshVertex
 10
1.374199999999999
 20
-1.9685
 30
0.187
 70
    64
  0
VERTEX
  5
75405
330
75402
100
AcDbEntity
  8
0
100
AcDbVertex
100
AcDbPolygonMeshVertex
 10
1.374199999999999
 20
-1.9685
 30
0.187
 70
    64
  0
VERTEX
  5
75406
330
75402
100
AcDbEntity
  8
0
100
AcDbVertex
100
AcDbPolygonMeshVertex
 10
0.3962
 20
-1.9685
 30
1.318
 70
    64
  0
VERTEX
  5
75407
330
75402
100
AcDbEntity
  8
0
100
AcDbVertex
100
AcDbPolygonMeshVertex
 10
0.3962
 20
-1.9685
 30
0.187
 70
    64
  0
VERTEX
  5
75408
330
75402
100
AcDbEntity
  8
0
100
AcDbVertex
100
AcDbPolygonMeshVertex
 10
0.3962
 20
-1.9685
 30
0.187
 70
    64
  0
VERTEX
  5
75409
330
75402
100
AcDbEntity
  8
0
100
AcDbVertex
100
AcDbPolygonMeshVertex
 10
0.3962
 20
0.5215000000000001
 30
1.318
 70
    64
  0
VERTEX
  5
7540A
330
75402
100
AcDbEntity
  8
0
100
AcDbVertex
100
AcDbPolygonMeshVertex
 10
0.3962
 20
0.5215000000000001
 30
0.187
 70
    64
  0
VERTEX
  5
7540B
330
75402
100
AcDbEntity
  8
0
100
AcDbVertex
100
AcDbPolygonMeshVertex
 10
0.3962
 20
-1.9685
 30
0.187
 70
    64
  0
VERTEX
  5
7540C
330
75402
100
AcDbEntity
  8
0
100
AcDbVertex
100
AcDbPolygonMeshVertex
 10
1.374199999999999
 20
0.5215000000000001
 30
1.318
 70
    64
  0
VERTEX
  5
7540D
330
75402
100
AcDbEntity
  8
0
100
AcDbVertex
100
AcDbPolygonMeshVertex
 10
1.374199999999999
 20
0.5215000000000001
 30
0.187
 70
    64
  0
VERTEX
  5
7540E
330
75402
100
AcDbEntity
  8
0
100
AcDbVertex
100
AcDbPolygonMeshVertex
 10
1.374199999999999
 20
-1.9685
 30
0.187
 70
    64
  0
VERTEX
  5
7540F
330
75402
100
AcDbEntity
  8
0
100
AcDbVertex
100
AcDbPolygonMeshVertex
 10
1.374199999999999
 20
0.5215000000000001
 30
1.318
 70
    64
  0
VERTEX
  5
75410
330
75402
100
AcDbEntity
  8
0
100
AcDbVertex
100
AcDbPolygonMeshVertex
 10
1.374199999999999
 20
0.5215000000000001
 30
1.318
 70
    64
  0
VERTEX
  5
75411
330
75402
100
AcDbEntity
  8
0
100
AcDbVertex
100
AcDbPolygonMeshVertex
 10
1.374199999999999
 20
-1.9685
 30
1.318
 70
    64
  0
VERTEX
  5
75412
330
75402
100
AcDbEntity
  8
0
100
AcDbVertex
100
AcDbPolygonMeshVertex
 10
0.3962
 20
0.5215000000000001
 30
1.318
 70
    64
  0
VERTEX
  5
75413
330
75402
100
AcDbEntity
  8
0
100
AcDbVertex
100
AcDbPolygonMeshVertex
 10
0.3962
 20
0.5215000000000001
 30
1.318
 70
    64
  0
VERTEX
  5
75414
330
75402
100
AcDbEntity
  8
0
100
AcDbVertex
100
AcDbPolygonMeshVertex
 10
0.3962
 20
-1.9685
 30
1.318
 70
    64
  0
SEQEND
  5
75415
330
75402
100
AcDbEntity
  8
0
  0
LWPOLYLINE
  5
75416
330
458D6
100
AcDbEntity
  8
0
100
AcDbPolyline
 90
        4
 70
     1
 43
0.0
 38
3.589375
 10
0.7517000000000002
 20
-2.020499999999999
 10
1.0187
 20
-2.020499999999999
 10
1.0187
 20
-2.169499999999999
 10
0.7517000000000002
 20
-2.169499999999999
  0
POLYLINE
  5
75417
330
458D6
100
AcDbEntity
  8
0
100
AcDb3dPolyline
 66
     1
 10
0.0
 20
0.0
 30
0.0
 70
     8
  0
VERTEX
  5
75418
330
75417
100
AcDbEntity
  8
0
100
AcDbVertex
100
AcDb3dPolylineVertex
 10
1.765199999999999
 20
-1.352499999999999
 30
0.187
 70
    32
  0
VERTEX
  5
75419
330
75417
100
AcDbEntity
  8
0
100
AcDbVertex
100
AcDb3dPolylineVertex
 10
1.765199999999999
 20
-1.352499999999999
 30
1.056999999999999
 70
    32
  0
VERTEX
  5
7541A
330
75417
100
AcDbEntity
  8
0
100
AcDbVertex
100
AcDb3dPolylineVertex
 10
1.765199999999999
 20
-1.507499999999999
 30
1.056999999999999
 70
    32
  0
VERTEX
  5
7541B
330
75417
100
AcDbEntity
  8
0
100
AcDbVertex
100
AcDb3dPolylineVertex
 10
1.765199999999999
 20
-1.507499999999999
 30
0.187
 70
    32
  0
SEQEND
  5
7541C
330
75417
100
AcDbEntity
  8
0
  0
POLYLINE
  5
7541D
330
458D6
100
AcDbEntity
  8
0
100
AcDb3dPolyline
 66
     1
 10
0.0
 20
0.0
 30
0.0
 70
     8
  0
VERTEX
  5
7541E
330
7541D
100
AcDbEntity
  8
0
100
AcDbVertex
100
AcDb3dPolylineVertex
 10
1.765199999999999
 20
0.0265
 30
0.187
 70
    32
  0
VERTEX
  5
7541F
330
7541D
100
AcDbEntity
  8
0
100
AcDbVertex
100
AcDb3dPolylineVertex
 10
1.765199999999999
 20
0.0265
 30
1.056999999999999
 70
    32
  0
VERTEX
  5
75420
330
7541D
100
AcDbEntity
  8
0
100
AcDbVertex
100
AcDb3dPolylineVertex
 10
1.765199999999999
 20
-0.1285000000000003
 30
1.056999999999999
 70
    32
  0
VERTEX
  5
75421
330
7541D
100
AcDbEntity
  8
0
100
AcDbVertex
100
AcDb3dPolylineVertex
 10
1.765199999999999
 20
-0.1285000000000003
 30
0.187
 70
    32
  0
SEQEND
  5
75422
330
7541D
100
AcDbEntity
  8
0
  0
LINE
  5
75423
330
458D6
100
AcDbEntity
  8
0
100
AcDbLine
 10
1.765199999999999
 20
-0.6294999999999998
 30
0.5170000000000002
 11
1.765199999999999
 21
-0.8515
 31
0.5170000000000002
  0
LINE
  5
75424
330
458D6
100
AcDbEntity
  8
0
100
AcDbLine
 10
1.765199999999999
 20
-0.8515
 30
0.5170000000000002
 11
1.765199999999999
 21
-0.8515
 31
0.187
  0
LINE
  5
75425
330
458D6
100
AcDbEntity
  8
0
100
AcDbLine
 10
1.765199999999999
 20
-0.6294999999999998
 30
0.5170000000000002
 11
1.765199999999999
 21
-0.6294999999999998
 31
0.187
  0
POLYLINE
  5
75426
330
458D6
100
AcDbEntity
  8
0
100
AcDb3dPolyline
 66
     1
 10
0.0
 20
0.0
 30
0.0
 70
     8
  0
VERTEX
  5
75427
330
75426
100
AcDbEntity
  8
0
100
AcDbVertex
100
AcDb3dPolylineVertex
 10
0.0052
 20
0.0265
 30
0.187
 70
    32
  0
VERTEX
  5
75428
330
75426
100
AcDbEntity
  8
0
100
AcDbVertex
100
AcDb3dPolylineVertex
 10
0.0052
 20
0.0265
 30
1.056999999999999
 70
    32
  0
VERTEX
  5
75429
330
75426
100
AcDbEntity
  8
0
100
AcDbVertex
100
AcDb3dPolylineVertex
 10
0.0052
 20
-0.1285000000000003
 30
1.056999999999999
 70
    32
  0
VERTEX
  5
7542A
330
75426
100
AcDbEntity
  8
0
100
AcDbVertex
100
AcDb3dPolylineVertex
 10
0.0052
 20
-0.1285000000000003
 30
0.187
 70
    32
  0
SEQEND
  5
7542B
330
75426
100
AcDbEntity
  8
0
  0
POLYLINE
  5
7542C
330
458D6
100
AcDbEntity
  8
0
100
AcDb3dPolyline
 66
     1
 10
0.0
 20
0.0
 30
0.0
 70
     8
  0
VERTEX
  5
7542D
330
7542C
100
AcDbEntity
  8
0
100
AcDbVertex
100
AcDb3dPolylineVertex
 10
0.0052
 20
-1.352499999999999
 30
0.187
 70
    32
  0
VERTEX
  5
7542E
330
7542C
100
AcDbEntity
  8
0
100
AcDbVertex
100
AcDb3dPolylineVertex
 10
0.0052
 20
-1.352499999999999
 30
1.056999999999999
 70
    32
  0
VERTEX
  5
7542F
330
7542C
100
AcDbEntity
  8
0
100
AcDbVertex
100
AcDb3dPolylineVertex
 10
0.0052
 20
-1.507499999999999
 30
1.056999999999999
 70
    32
  0
VERTEX
  5
75430
330
7542C
100
AcDbEntity
  8
0
100
AcDbVertex
100
AcDb3dPolylineVertex
 10
0.0052
 20
-1.507499999999999
 30
0.187
 70
    32
  0
SEQEND
  5
75431
330
7542C
100
AcDbEntity
  8
0
  0
LINE
  5
75432
330
458D6
100
AcDbEntity
  8
0
100
AcDbLine
 10
1.765199999999999
 20
-1.5675
 30
0.187
 11
1.765199999999999
 21
-1.5675
 31
0.0
  0
LINE
  5
75433
330
458D6
100
AcDbEntity
  8
0
100
AcDbLine
 10
1.765199999999999
 20
-1.5675
 30
0.0
 11
0.8851999999999998
 21
-1.5675
 31
0.0
  0
LINE
  5
75434
330
458D6
100
AcDbEntity
  8
0
100
AcDbLine
 10
1.765199999999996
 20
-0.8065000000000001
 30
3.405874999999999
 11
1.765199999999996
 21
-0.6404999999999999
 31
3.405874999999999
  0
POLYLINE
  5
75435
330
458D6
100
AcDbEntity
  8
0
100
AcDb3dPolyline
 66
     1
 10
0.0
 20
0.0
 30
0.0
 70
     8
  0
VERTEX
  5
75436
330
75435
100
AcDbEntity
  8
0
100
AcDbVertex
100
AcDb3dPolylineVertex
 10
-0.0000103494035411
 20
-0.6404999999999999
 30
3.119375
 70
    32
  0
VERTEX
  5
75437
330
75435
100
AcDbEntity
  8
0
100
AcDbVertex
100
AcDb3dPolylineVertex
 10
-0.0000103494035411
 20
-0.6404999999999999
 30
3.692375
 70
    32
  0
VERTEX
  5
75438
330
75435
100
AcDbEntity
  8
0
100
AcDbVertex
100
AcDb3dPolylineVertex
 10
-0.0000103494035411
 20
-0.8064999999999997
 30
3.692375
 70
    32
  0
VERTEX
  5
75439
330
75435
100
AcDbEntity
  8
0
100
AcDbVertex
100
AcDb3dPolylineVertex
 10
-0.0000103494035411
 20
-0.8065000000000001
 30
3.119375
 70
    32
  0
VERTEX
  5
7543A
330
75435
100
AcDbEntity
  8
0
100
AcDbVertex
100
AcDb3dPolylineVertex
 10
-0.0000103494035411
 20
-0.6404999999999999
 30
3.119375
 70
    32
  0
SEQEND
  5
7543B
330
75435
100
AcDbEntity
  8
0
  0
LINE
  5
7543C
330
458D6
100
AcDbEntity
  8
0
100
AcDbLine
 10
-0.0000103494035411
 20
-0.8065000000000001
 30
3.405874999999999
 11
-0.0000103494035411
 21
-0.6404999999999999
 31
3.405874999999999
  0
LINE
  5
7543D
330
458D6
100
AcDbEntity
  8
0
100
AcDbLine
 10
-0.0000103494035411
 20
-0.8065000000000001
 30
3.595875
 11
-0.0000103494035411
 21
-0.6404999999999999
 31
3.595875
  0
CIRCLE
  5
7543E
330
458D6
100
AcDbEntity
  8
0
100
AcDbCircle
 10
1.571199999999999
 20
0.4255
 30
0.316
 40
0.086
  0
POLYLINE
  5
7543F
330
458D6
100
AcDbEntity
  8
0
100
AcDb3dPolyline
 66
     1
 10
0.0
 20
0.0
 30
0.0
 70
     8
  0
VERTEX
  5
75440
330
7543F
100
AcDbEntity
  8
0
100
AcDbVertex
100
AcDb3dPolylineVertex
 10
1.492533333333333
 20
-1.9685
 30
1.042499999999999
 70
    32
  0
VERTEX
  5
75441
330
7543F
100
AcDbEntity
  8
0
100
AcDbVertex
100
AcDb3dPolylineVertex
 10
1.492533333333333
 20
-2.103499999999999
 30
1.042499999999999
 70
    32
  0
VERTEX
  5
75442
330
7543F
100
AcDbEntity
  8
0
100
AcDbVertex
100
AcDb3dPolylineVertex
 10
1.703199999999998
 20
-2.103499999999999
 30
1.042499999999999
 70
    32
  0
VERTEX
  5
75443
330
7543F
100
AcDbEntity
  8
0
100
AcDbVertex
100
AcDb3dPolylineVertex
 10
1.703199999999998
 20
-1.9685
 30
1.042499999999999
 70
    32
  0
SEQEND
  5
75444
330
7543F
100
AcDbEntity
  8
0
  0
POLYLINE
  5
75445
330
458D6
100
AcDbEntity
  8
0
100
AcDb3dPolyline
 66
     1
 10
0.0
 20
0.0
 30
0.0
 70
     8
  0
VERTEX
  5
75446
330
75445
100
AcDbEntity
  8
0
100
AcDbVertex
100
AcDb3dPolylineVertex
 10
1.219866666666667
 20
-1.9685
 30
1.042499999999999
 70
    32
  0
VERTEX
  5
75447
330
75445
100
AcDbEntity
  8
0
100
AcDbVertex
100
AcDb3dPolylineVertex
 10
1.219866666666667
 20
-2.103499999999999
 30
1.042499999999999
 70
    32
  0
VERTEX
  5
75448
330
75445
100
AcDbEntity
  8
0
100
AcDbVertex
100
AcDb3dPolylineVertex
 10
1.430533333333332
 20
-2.103499999999999
 30
1.042499999999999
 70
    32
  0
VERTEX
  5
75449
330
75445
100
AcDbEntity
  8
0
100
AcDbVertex
100
AcDb3dPolylineVertex
 10
1.430533333333332
 20
-1.9685
 30
1.042499999999999
 70
    32
  0
SEQEND
  5
7544A
330
75445
100
AcDbEntity
  8
0
  0
POLYLINE
  5
7544B
330
458D6
100
AcDbEntity
  8
0
100
AcDb3dPolyline
 66
     1
 10
0.0
 20
0.0
 30
0.0
 70
     8
  0
VERTEX
  5
7544C
330
7544B
100
AcDbEntity
  8
0
100
AcDbVertex
100
AcDb3dPolylineVertex
 10
0.9472000000000019
 20
-1.9685
 30
1.042499999999999
 70
    32
  0
VERTEX
  5
7544D
330
7544B
100
AcDbEntity
  8
0
100
AcDbVertex
100
AcDb3dPolylineVertex
 10
0.9472000000000019
 20
-2.103499999999999
 30
1.042499999999999
 70
    32
  0
VERTEX
  5
7544E
330
7544B
100
AcDbEntity
  8
0
100
AcDbVertex
100
AcDb3dPolylineVertex
 10
1.157866666666666
 20
-2.103499999999999
 30
1.042499999999999
 70
    32
  0
VERTEX
  5
7544F
330
7544B
100
AcDbEntity
  8
0
100
AcDbVertex
100
AcDb3dPolylineVertex
 10
1.157866666666666
 20
-1.9685
 30
1.042499999999999
 70
    32
  0
SEQEND
  5
75450
330
7544B
100
AcDbEntity
  8
0
  0
CIRCLE
  5
75451
330
458D6
100
AcDbEntity
  8
0
100
AcDbCircle
 10
0.1912000000000008
 20
-1.934499999999999
 30
0.316
 40
0.086
  0
INSERT
  5
75452
330
458D6
100
AcDbEntity
  8
0
 62
     1
100
AcDbBlockReference
  2
AVE_RENDER
 10
-6.627509659116597
 20
-2.735105295632668
 30
0.0
1001
AVE_RENDER
1002
{
1070
     2
1000
Pref
1070
    30
1070
    20
1070
     0
1070
     0
1000

1070
    10
1070
     0
1070
    30
1040
1.0
1070
     1
1040
0.3
1040
0.4
1040
0.76
1040
1.538461538461538
1010
-1.0
1020
-1.0
1030
-1.0
1040
0.3
1070
    49
1002
}
  0
INSERT
  5
75453
330
458D6
100
AcDbEntity
  8
0
 62
     3
100
AcDbBlockReference
  2
AVE_RENDER
 10
-6.627509659116597
 20
-2.735105295632668
 30
0.0
1001
AVE_RENDER
1002
{
1070
     0
1000
Full Opt
1070
     0
1070
     1
1070
     1
1070
     1
1070
     0
1070
     0
1070
     0
1070
     1
1070
     1
1040
0.0001
1040
0.0001
1002
}
  0
INSERT
  5
75454
330
458D6
100
AcDbEntity
  8
0
 62
     4
100
AcDbBlockReference
  2
AVE_RENDER
 10
-6.627509659116597
 20
-2.735105295632668
 30
0.0
1001
AVE_RENDER
1002
{
1070
     0
1000
Quick Opt
1070
     0
1070
     1
1070
     1
1070
     1
1070
     0
1070
     0
1070
     1
1002
}
  0
CIRCLE
  5
75455
330
458D6
100
AcDbEntity
  8
0
100
AcDbCircle
 10
0.1911999999999999
 20
-1.934499999999999
 30
0.0
 40
0.086
  0
CIRCLE
  5
75456
330
458D6
100
AcDbEntity
  8
0
100
AcDbCircle
 10
1.571199999999999
 20
0.4255
 30
0.0
 40
0.086
  0
POLYLINE
  5
75457
330
458D6
100
AcDbEntity
  8
0
100
AcDb3dPolyline
 66
     1
 10
0.0
 20
0.0
 30
0.0
 70
     8
  0
VERTEX
  5
75458
330
75457
100
AcDbEntity
  8
0
100
AcDbVertex
100
AcDb3dPolylineVertex
 10
0.9472000000000019
 20
-1.9685
 30
0.8554999999999999
 70
    32
  0
VERTEX
  5
75459
330
75457
100
AcDbEntity
  8
0
100
AcDbVertex
100
AcDb3dPolylineVertex
 10
0.9472000000000019
 20
-2.103499999999999
 30
0.8554999999999999
 70
    32
  0
VERTEX
  5
7545A
330
75457
100
AcDbEntity
  8
0
100
AcDbVertex
100
AcDb3dPolylineVertex
 10
1.157866666666666
 20
-2.103499999999999
 30
0.8554999999999999
 70
    32
  0
VERTEX
  5
7545B
330
75457
100
AcDbEntity
  8
0
100
AcDbVertex
100
AcDb3dPolylineVertex
 10
1.157866666666666
 20
-1.9685
 30
0.8554999999999999
 70
    32
  0
SEQEND
  5
7545C
330
75457
100
AcDbEntity
  8
0
  0
POLYLINE
  5
7545D
330
458D6
100
AcDbEntity
  8
0
100
AcDb3dPolyline
 66
     1
 10
0.0
 20
0.0
 30
0.0
 70
     8
  0
VERTEX
  5
7545E
330
7545D
100
AcDbEntity
  8
0
100
AcDbVertex
100
AcDb3dPolylineVertex
 10
1.219866666666667
 20
-1.9685
 30
0.8554999999999999
 70
    32
  0
VERTEX
  5
7545F
330
7545D
100
AcDbEntity
  8
0
100
AcDbVertex
100
AcDb3dPolylineVertex
 10
1.219866666666667
 20
-2.103499999999999
 30
0.8554999999999999
 70
    32
  0
VERTEX
  5
75460
330
7545D
100
AcDbEntity
  8
0
100
AcDbVertex
100
AcDb3dPolylineVertex
 10
1.430533333333332
 20
-2.103499999999999
 30
0.8554999999999999
 70
    32
  0
VERTEX
  5
75461
330
7545D
100
AcDbEntity
  8
0
100
AcDbVertex
100
AcDb3dPolylineVertex
 10
1.430533333333332
 20
-1.9685
 30
0.8554999999999999
 70
    32
  0
SEQEND
  5
75462
330
7545D
100
AcDbEntity
  8
0
  0
POLYLINE
  5
75463
330
458D6
100
AcDbEntity
  8
0
100
AcDb3dPolyline
 66
     1
 10
0.0
 20
0.0
 30
0.0
 70
     8
  0
VERTEX
  5
75464
330
75463
100
AcDbEntity
  8
0
100
AcDbVertex
100
AcDb3dPolylineVertex
 10
1.492533333333333
 20
-1.9685
 30
0.8554999999999999
 70
    32
  0
VERTEX
  5
75465
330
75463
100
AcDbEntity
  8
0
100
AcDbVertex
100
AcDb3dPolylineVertex
 10
1.492533333333333
 20
-2.103499999999999
 30
0.8554999999999999
 70
    32
  0
VERTEX
  5
75466
330
75463
100
AcDbEntity
  8
0
100
AcDbVertex
100
AcDb3dPolylineVertex
 10
1.703199999999998
 20
-2.103499999999999
 30
0.8554999999999999
 70
    32
  0
VERTEX
  5
75467
330
75463
100
AcDbEntity
  8
0
100
AcDbVertex
100
AcDb3dPolylineVertex
 10
1.703199999999998
 20
-1.9685
 30
0.8554999999999999
 70
    32
  0
SEQEND
  5
75468
330
75463
100
AcDbEntity
  8
0
  0
LINE
  5
75469
330
458D6
100
AcDbEntity
  8
0
100
AcDbLine
 10
1.703199999999998
 20
-1.9685
 30
0.8554999999999999
 11
1.492533333333333
 21
-1.9685
 31
0.8554999999999999
  0
LINE
  5
7546A
330
458D6
100
AcDbEntity
  8
0
100
AcDbLine
 10
1.430533333333332
 20
-1.9685
 30
0.8554999999999999
 11
1.219866666666667
 21
-1.9685
 31
0.8554999999999999
  0
LINE
  5
7546B
330
458D6
100
AcDbEntity
  8
0
100
AcDbLine
 10
1.157866666666666
 20
-1.9685
 30
0.8554999999999999
 11
0.9472000000000019
 21
-1.9685
 31
0.8554999999999999
  0
POLYLINE
  5
7546C
330
458D6
100
AcDbEntity
  8
0
100
AcDbPolygonMesh
 66
     1
 10
0.0
 20
0.0
 30
0.0
 70
    16
 71
     6
 72
     3
  0
VERTEX
  5
7546D
330
7546C
100
AcDbEntity
  8
0
100
AcDbVertex
100
AcDbPolygonMeshVertex
 10
0.9057
 20
-1.985499999999999
 30
4.456375
 70
    64
  0
VERTEX
  5
7546E
330
7546C
100
AcDbEntity
  8
0
100
AcDbVertex
100
AcDbPolygonMeshVertex
 10
0.9057
 20
-1.985499999999999
 30
3.846375
 70
    64
  0
VERTEX
  5
7546F
330
7546C
100
AcDbEntity
  8
0
100
AcDbVertex
100
AcDbPolygonMeshVertex
 10
0.9057
 20
-1.985499999999999
 30
3.846375
 70
    64
  0
VERTEX
  5
75470
330
7546C
100
AcDbEntity
  8
0
100
AcDbVertex
100
AcDbPolygonMeshVertex
 10
0.8596999999999997
 20
-1.985499999999999
 30
4.456375
 70
    64
  0
VERTEX
  5
75471
330
7546C
100
AcDbEntity
  8
0
100
AcDbVertex
100
AcDbPolygonMeshVertex
 10
0.8596999999999997
 20
-1.985499999999999
 30
3.846375
 70
    64
  0
VERTEX
  5
75472
330
7546C
100
AcDbEntity
  8
0
100
AcDbVertex
100
AcDbPolygonMeshVertex
 10
0.8596999999999997
 20
-1.985499999999999
 30
3.846375
 70
    64
  0
VERTEX
  5
75473
330
7546C
100
AcDbEntity
  8
0
100
AcDbVertex
100
AcDbPolygonMeshVertex
 10
0.8596999999999997
 20
-1.845499999999999
 30
4.456375
 70
    64
  0
VERTEX
  5
75474
330
7546C
100
AcDbEntity
  8
0
100
AcDbVertex
100
AcDbPolygonMeshVertex
 10
0.8596999999999997
 20
-1.845499999999999
 30
3.846375
 70
    64
  0
VERTEX
  5
75475
330
7546C
100
AcDbEntity
  8
0
100
AcDbVertex
100
AcDbPolygonMeshVertex
 10
0.8596999999999997
 20
-1.985499999999999
 30
3.846375
 70
    64
  0
VERTEX
  5
75476
330
7546C
100
AcDbEntity
  8
0
100
AcDbVertex
100
AcDbPolygonMeshVertex
 10
0.9057
 20
-1.845499999999999
 30
4.456375
 70
    64
  0
VERTEX
  5
75477
330
7546C
100
AcDbEntity
  8
0
100
AcDbVertex
100
AcDbPolygonMeshVertex
 10
0.9057
 20
-1.845499999999999
 30
3.846375
 70
    64
  0
VERTEX
  5
75478
330
7546C
100
AcDbEntity
  8
0
100
AcDbVertex
100
AcDbPolygonMeshVertex
 10
0.9057
 20
-1.985499999999999
 30
3.846375
 70
    64
  0
VERTEX
  5
75479
330
7546C
100
AcDbEntity
  8
0
100
AcDbVertex
100
AcDbPolygonMeshVertex
 10
0.9057
 20
-1.845499999999999
 30
4.456375
 70
    64
  0
VERTEX
  5
7547A
330
7546C
100
AcDbEntity
  8
0
100
AcDbVertex
100
AcDbPolygonMeshVertex
 10
0.9057
 20
-1.845499999999999
 30
4.456375
 70
    64
  0
VERTEX
  5
7547B
330
7546C
100
AcDbEntity
  8
0
100
AcDbVertex
100
AcDbPolygonMeshVertex
 10
0.9057
 20
-1.985499999999999
 30
4.456375
 70
    64
  0
VERTEX
  5
7547C
330
7546C
100
AcDbEntity
  8
0
100
AcDbVertex
100
AcDbPolygonMeshVertex
 10
0.8596999999999997
 20
-1.845499999999999
 30
4.456375
 70
    64
  0
VERTEX
  5
7547D
330
7546C
100
AcDbEntity
  8
0
100
AcDbVertex
100
AcDbPolygonMeshVertex
 10
0.8596999999999997
 20
-1.845499999999999
 30
4.456375
 70
    64
  0
VERTEX
  5
7547E
330
7546C
100
AcDbEntity
  8
0
100
AcDbVertex
100
AcDbPolygonMeshVertex
 10
0.8596999999999997
 20
-1.985499999999999
 30
4.456375
 70
    64
  0
SEQEND
  5
7547F
330
7546C
100
AcDbEntity
  8
0
  0
POLYLINE
  5
75480
330
458D6
100
AcDbEntity
  8
0
100
AcDbPolygonMesh
 66
     1
 10
0.0
 20
0.0
 30
0.0
 70
    16
 71
     6
 72
     3
  0
VERTEX
  5
75481
330
75480
100
AcDbEntity
  8
0
100
AcDbVertex
100
AcDbPolygonMeshVertex
 10
1.33545
 20
-1.985499999999999
 30
4.456375
 70
    64
  0
VERTEX
  5
75482
330
75480
100
AcDbEntity
  8
0
100
AcDbVertex
100
AcDbPolygonMeshVertex
 10
1.33545
 20
-1.985499999999999
 30
3.846375
 70
    64
  0
VERTEX
  5
75483
330
75480
100
AcDbEntity
  8
0
100
AcDbVertex
100
AcDbPolygonMeshVertex
 10
1.33545
 20
-1.985499999999999
 30
3.846375
 70
    64
  0
VERTEX
  5
75484
330
75480
100
AcDbEntity
  8
0
100
AcDbVertex
100
AcDbPolygonMeshVertex
 10
1.28945
 20
-1.985499999999999
 30
4.456375
 70
    64
  0
VERTEX
  5
75485
330
75480
100
AcDbEntity
  8
0
100
AcDbVertex
100
AcDbPolygonMeshVertex
 10
1.28945
 20
-1.985499999999999
 30
3.846375
 70
    64
  0
VERTEX
  5
75486
330
75480
100
AcDbEntity
  8
0
100
AcDbVertex
100
AcDbPolygonMeshVertex
 10
1.28945
 20
-1.985499999999999
 30
3.846375
 70
    64
  0
VERTEX
  5
75487
330
75480
100
AcDbEntity
  8
0
100
AcDbVertex
100
AcDbPolygonMeshVertex
 10
1.28945
 20
-1.845499999999999
 30
4.456375
 70
    64
  0
VERTEX
  5
75488
330
75480
100
AcDbEntity
  8
0
100
AcDbVertex
100
AcDbPolygonMeshVertex
 10
1.28945
 20
-1.845499999999999
 30
3.846375
 70
    64
  0
VERTEX
  5
75489
330
75480
100
AcDbEntity
  8
0
100
AcDbVertex
100
AcDbPolygonMeshVertex
 10
1.28945
 20
-1.985499999999999
 30
3.846375
 70
    64
  0
VERTEX
  5
7548A
330
75480
100
AcDbEntity
  8
0
100
AcDbVertex
100
AcDbPolygonMeshVertex
 10
1.33545
 20
-1.845499999999999
 30
4.456375
 70
    64
  0
VERTEX
  5
7548B
330
75480
100
AcDbEntity
  8
0
100
AcDbVertex
100
AcDbPolygonMeshVertex
 10
1.33545
 20
-1.845499999999999
 30
3.846375
 70
    64
  0
VERTEX
  5
7548C
330
75480
100
AcDbEntity
  8
0
100
AcDbVertex
100
AcDbPolygonMeshVertex
 10
1.33545
 20
-1.985499999999999
 30
3.846375
 70
    64
  0
VERTEX
  5
7548D
330
75480
100
AcDbEntity
  8
0
100
AcDbVertex
100
AcDbPolygonMeshVertex
 10
1.33545
 20
-1.845499999999999
 30
4.456375
 70
    64
  0
VERTEX
  5
7548E
330
75480
100
AcDbEntity
  8
0
100
AcDbVertex
100
AcDbPolygonMeshVertex
 10
1.33545
 20
-1.845499999999999
 30
4.456375
 70
    64
  0
VERTEX
  5
7548F
330
75480
100
AcDbEntity
  8
0
100
AcDbVertex
100
AcDbPolygonMeshVertex
 10
1.33545
 20
-1.985499999999999
 30
4.456375
 70
    64
  0
VERTEX
  5
75490
330
75480
100
AcDbEntity
  8
0
100
AcDbVertex
100
AcDbPolygonMeshVertex
 10
1.28945
 20
-1.845499999999999
 30
4.456375
 70
    64
  0
VERTEX
  5
75491
330
75480
100
AcDbEntity
  8
0
100
AcDbVertex
100
AcDbPolygonMeshVertex
 10
1.28945
 20
-1.845499999999999
 30
4.456375
 70
    64
  0
VERTEX
  5
75492
330
75480
100
AcDbEntity
  8
0
100
AcDbVertex
100
AcDbPolygonMeshVertex
 10
1.28945
 20
-1.985499999999999
 30
4.456375
 70
    64
  0
SEQEND
  5
75493
330
75480
100
AcDbEntity
  8
0
  0
POLYLINE
  5
75494
330
458D6
100
AcDbEntity
  8
0
100
AcDbPolygonMesh
 66
     1
 10
0.0
 20
0.0
 30
0.0
 70
    16
 71
     6
 72
     3
  0
VERTEX
  5
75495
330
75494
100
AcDbEntity
  8
0
100
AcDbVertex
100
AcDbPolygonMeshVertex
 10
1.719199999999999
 20
-2.057499999999999
 30
3.846375
 70
    64
  0
VERTEX
  5
75496
330
75494
100
AcDbEntity
  8
0
100
AcDbVertex
100
AcDbPolygonMeshVertex
 10
1.719199999999999
 20
-2.057499999999999
 30
3.587375
 70
    64
  0
VERTEX
  5
75497
330
75494
100
AcDbEntity
  8
0
100
AcDbVertex
100
AcDbPolygonMeshVertex
 10
1.719199999999999
 20
-2.057499999999999
 30
3.587375
 70
    64
  0
VERTEX
  5
75498
330
75494
100
AcDbEntity
  8
0
100
AcDbVertex
100
AcDbPolygonMeshVertex
 10
0.0461999999999999
 20
-2.057499999999999
 30
3.846375
 70
    64
  0
VERTEX
  5
75499
330
75494
100
AcDbEntity
  8
0
100
AcDbVertex
100
AcDbPolygonMeshVertex
 10
0.0461999999999999
 20
-2.057499999999999
 30
3.587375
 70
    64
  0
VERTEX
  5
7549A
330
75494
100
AcDbEntity
  8
0
100
AcDbVertex
100
AcDbPolygonMeshVertex
 10
0.0461999999999999
 20
-2.057499999999999
 30
3.587375
 70
    64
  0
VERTEX
  5
7549B
330
75494
100
AcDbEntity
  8
0
100
AcDbVertex
100
AcDbPolygonMeshVertex
 10
0.0461999999999999
 20
-1.845499999999999
 30
3.846375
 70
    64
  0
VERTEX
  5
7549C
330
75494
100
AcDbEntity
  8
0
100
AcDbVertex
100
AcDbPolygonMeshVertex
 10
0.0461999999999999
 20
-1.845499999999999
 30
3.587375
 70
    64
  0
VERTEX
  5
7549D
330
75494
100
AcDbEntity
  8
0
100
AcDbVertex
100
AcDbPolygonMeshVertex
 10
0.0461999999999999
 20
-2.057499999999999
 30
3.587375
 70
    64
  0
VERTEX
  5
7549E
330
75494
100
AcDbEntity
  8
0
100
AcDbVertex
100
AcDbPolygonMeshVertex
 10
1.719199999999999
 20
-1.845499999999999
 30
3.846375
 70
    64
  0
VERTEX
  5
7549F
330
75494
100
AcDbEntity
  8
0
100
AcDbVertex
100
AcDbPolygonMeshVertex
 10
1.719199999999999
 20
-1.845499999999999
 30
3.587375
 70
    64
  0
VERTEX
  5
754A0
330
75494
100
AcDbEntity
  8
0
100
AcDbVertex
100
AcDbPolygonMeshVertex
 10
1.719199999999999
 20
-2.057499999999999
 30
3.587375
 70
    64
  0
VERTEX
  5
754A1
330
75494
100
AcDbEntity
  8
0
100
AcDbVertex
100
AcDbPolygonMeshVertex
 10
1.719199999999999
 20
-1.845499999999999
 30
3.846375
 70
    64
  0
VERTEX
  5
754A2
330
75494
100
AcDbEntity
  8
0
100
AcDbVertex
100
AcDbPolygonMeshVertex
 10
1.719199999999999
 20
-1.845499999999999
 30
3.846375
 70
    64
  0
VERTEX
  5
754A3
330
75494
100
AcDbEntity
  8
0
100
AcDbVertex
100
AcDbPolygonMeshVertex
 10
1.719199999999999
 20
-2.057499999999999
 30
3.846375
 70
    64
  0
VERTEX
  5
754A4
330
75494
100
AcDbEntity
  8
0
100
AcDbVertex
100
AcDbPolygonMeshVertex
 10
0.0461999999999999
 20
-1.845499999999999
 30
3.846375
 70
    64
  0
VERTEX
  5
754A5
330
75494
100
AcDbEntity
  8
0
100
AcDbVertex
100
AcDbPolygonMeshVertex
 10
0.0461999999999999
 20
-1.845499999999999
 30
3.846375
 70
    64
  0
VERTEX
  5
754A6
330
75494
100
AcDbEntity
  8
0
100
AcDbVertex
100
AcDbPolygonMeshVertex
 10
0.0461999999999999
 20
-2.057499999999999
 30
3.846375
 70
    64
  0
SEQEND
  5
754A7
330
75494
100
AcDbEntity
  8
0
  0
POLYLINE
  5
754A8
330
458D6
100
AcDbEntity
  8
0
100
AcDbPolygonMesh
 66
     1
 10
0.0
 20
0.0
 30
0.0
 70
    16
 71
     6
 72
     3
  0
VERTEX
  5
754A9
330
754A8
100
AcDbEntity
  8
0
100
AcDbVertex
100
AcDbPolygonMeshVertex
 10
0.42995
 20
-1.985499999999999
 30
4.456375
 70
    64
  0
VERTEX
  5
754AA
330
754A8
100
AcDbEntity
  8
0
100
AcDbVertex
100
AcDbPolygonMeshVertex
 10
0.42995
 20
-1.985499999999999
 30
3.846375
 70
    64
  0
VERTEX
  5
754AB
330
754A8
100
AcDbEntity
  8
0
100
AcDbVertex
100
AcDbPolygonMeshVertex
 10
0.42995
 20
-1.985499999999999
 30
3.846375
 70
    64
  0
VERTEX
  5
754AC
330
754A8
100
AcDbEntity
  8
0
100
AcDbVertex
100
AcDbPolygonMeshVertex
 10
0.4759499999999998
 20
-1.985499999999999
 30
4.456375
 70
    64
  0
VERTEX
  5
754AD
330
754A8
100
AcDbEntity
  8
0
100
AcDbVertex
100
AcDbPolygonMeshVertex
 10
0.4759499999999998
 20
-1.985499999999999
 30
3.846375
 70
    64
  0
VERTEX
  5
754AE
330
754A8
100
AcDbEntity
  8
0
100
AcDbVertex
100
AcDbPolygonMeshVertex
 10
0.4759499999999998
 20
-1.985499999999999
 30
3.846375
 70
    64
  0
VERTEX
  5
754AF
330
754A8
100
AcDbEntity
  8
0
100
AcDbVertex
100
AcDbPolygonMeshVertex
 10
0.4759499999999998
 20
-1.845499999999999
 30
4.456375
 70
    64
  0
VERTEX
  5
754B0
330
754A8
100
AcDbEntity
  8
0
100
AcDbVertex
100
AcDbPolygonMeshVertex
 10
0.4759499999999998
 20
-1.845499999999999
 30
3.846375
 70
    64
  0
VERTEX
  5
754B1
330
754A8
100
AcDbEntity
  8
0
100
AcDbVertex
100
AcDbPolygonMeshVertex
 10
0.4759499999999998
 20
-1.985499999999999
 30
3.846375
 70
    64
  0
VERTEX
  5
754B2
330
754A8
100
AcDbEntity
  8
0
100
AcDbVertex
100
AcDbPolygonMeshVertex
 10
0.42995
 20
-1.845499999999999
 30
4.456375
 70
    64
  0
VERTEX
  5
754B3
330
754A8
100
AcDbEntity
  8
0
100
AcDbVertex
100
AcDbPolygonMeshVertex
 10
0.42995
 20
-1.845499999999999
 30
3.846375
 70
    64
  0
VERTEX
  5
754B4
330
754A8
100
AcDbEntity
  8
0
100
AcDbVertex
100
AcDbPolygonMeshVertex
 10
0.42995
 20
-1.985499999999999
 30
3.846375
 70
    64
  0
VERTEX
  5
754B5
330
754A8
100
AcDbEntity
  8
0
100
AcDbVertex
100
AcDbPolygonMeshVertex
 10
0.42995
 20
-1.845499999999999
 30
4.456375
 70
    64
  0
VERTEX
  5
754B6
330
754A8
100
AcDbEntity
  8
0
100
AcDbVertex
100
AcDbPolygonMeshVertex
 10
0.42995
 20
-1.845499999999999
 30
4.456375
 70
    64
  0
VERTEX
  5
754B7
330
754A8
100
AcDbEntity
  8
0
100
AcDbVertex
100
AcDbPolygonMeshVertex
 10
0.42995
 20
-1.985499999999999
 30
4.456375
 70
    64
  0
VERTEX
  5
754B8
330
754A8
100
AcDbEntity
  8
0
100
AcDbVertex
100
AcDbPolygonMeshVertex
 10
0.4759499999999998
 20
-1.845499999999999
 30
4.456375
 70
    64
  0
VERTEX
  5
754B9
330
754A8
100
AcDbEntity
  8
0
100
AcDbVertex
100
AcDbPolygonMeshVertex
 10
0.4759499999999998
 20
-1.845499999999999
 30
4.456375
 70
    64
  0
VERTEX
  5
754BA
330
754A8
100
AcDbEntity
  8
0
100
AcDbVertex
100
AcDbPolygonMeshVertex
 10
0.4759499999999998
 20
-1.985499999999999
 30
4.456375
 70
    64
  0
SEQEND
  5
754BB
330
754A8
100
AcDbEntity
  8
0
  0
LINE
  5
754BC
330
458D6
100
AcDbEntity
  8
0
100
AcDbLine
 10
0.9057
 20
-1.845499999999999
 30
4.173375
 11
1.28945
 21
-1.845499999999999
 31
4.173375
  0
LINE
  5
754BD
330
458D6
100
AcDbEntity
  8
0
100
AcDbLine
 10
1.33545
 20
-1.845499999999999
 30
4.173375
 11
1.719199999999999
 21
-1.845499999999999
 31
4.173375
  0
LINE
  5
754BE
330
458D6
100
AcDbEntity
  8
0
100
AcDbLine
 10
0.4759499999999998
 20
-1.845499999999999
 30
4.173375
 11
0.8596999999999997
 21
-1.845499999999999
 31
4.173375
  0
LINE
  5
754BF
330
458D6
100
AcDbEntity
  8
0
100
AcDbLine
 10
0.0462000000000004
 20
-1.845499999999999
 30
4.173375
 11
0.42995
 21
-1.845499999999999
 31
4.173375
  0
POLYLINE
  5
754C0
330
458D6
100
AcDbEntity
  8
0
100
AcDbPolygonMesh
 66
     1
 10
0.0
 20
0.0
 30
0.0
 70
    16
 71
     6
 72
     3
  0
VERTEX
  5
754C1
330
754C0
100
AcDbEntity
  8
0
100
AcDbVertex
100
AcDbPolygonMeshVertex
 10
0.0461999999999999
 20
-1.985499999999999
 30
4.456375
 70
    64
  0
VERTEX
  5
754C2
330
754C0
100
AcDbEntity
  8
0
100
AcDbVertex
100
AcDbPolygonMeshVertex
 10
0.0461999999999999
 20
-1.985499999999999
 30
3.587375
 70
    64
  0
VERTEX
  5
754C3
330
754C0
100
AcDbEntity
  8
0
100
AcDbVertex
100
AcDbPolygonMeshVertex
 10
0.0461999999999999
 20
-1.985499999999999
 30
3.587375
 70
    64
  0
VERTEX
  5
754C4
330
754C0
100
AcDbEntity
  8
0
100
AcDbVertex
100
AcDbPolygonMeshVertex
 10
0.0002000000000001
 20
-1.985499999999999
 30
4.456375
 70
    64
  0
VERTEX
  5
754C5
330
754C0
100
AcDbEntity
  8
0
100
AcDbVertex
100
AcDbPolygonMeshVertex
 10
0.0002000000000001
 20
-1.985499999999999
 30
3.587375
 70
    64
  0
VERTEX
  5
754C6
330
754C0
100
AcDbEntity
  8
0
100
AcDbVertex
100
AcDbPolygonMeshVertex
 10
0.0002000000000001
 20
-1.985499999999999
 30
3.587375
 70
    64
  0
VERTEX
  5
754C7
330
754C0
100
AcDbEntity
  8
0
100
AcDbVertex
100
AcDbPolygonMeshVertex
 10
0.0002000000000001
 20
-1.845499999999999
 30
4.456375
 70
    64
  0
VERTEX
  5
754C8
330
754C0
100
AcDbEntity
  8
0
100
AcDbVertex
100
AcDbPolygonMeshVertex
 10
0.0002000000000001
 20
-1.845499999999999
 30
3.587375
 70
    64
  0
VERTEX
  5
754C9
330
754C0
100
AcDbEntity
  8
0
100
AcDbVertex
100
AcDbPolygonMeshVertex
 10
0.0002000000000001
 20
-1.985499999999999
 30
3.587375
 70
    64
  0
VERTEX
  5
754CA
330
754C0
100
AcDbEntity
  8
0
100
AcDbVertex
100
AcDbPolygonMeshVertex
 10
0.0461999999999999
 20
-1.845499999999999
 30
4.456375
 70
    64
  0
VERTEX
  5
754CB
330
754C0
100
AcDbEntity
  8
0
100
AcDbVertex
100
AcDbPolygonMeshVertex
 10
0.0461999999999999
 20
-1.845499999999999
 30
3.587375
 70
    64
  0
VERTEX
  5
754CC
330
754C0
100
AcDbEntity
  8
0
100
AcDbVertex
100
AcDbPolygonMeshVertex
 10
0.0461999999999999
 20
-1.985499999999999
 30
3.587375
 70
    64
  0
VERTEX
  5
754CD
330
754C0
100
AcDbEntity
  8
0
100
AcDbVertex
100
AcDbPolygonMeshVertex
 10
0.0461999999999999
 20
-1.845499999999999
 30
4.456375
 70
    64
  0
VERTEX
  5
754CE
330
754C0
100
AcDbEntity
  8
0
100
AcDbVertex
100
AcDbPolygonMeshVertex
 10
0.0461999999999999
 20
-1.845499999999999
 30
4.456375
 70
    64
  0
VERTEX
  5
754CF
330
754C0
100
AcDbEntity
  8
0
100
AcDbVertex
100
AcDbPolygonMeshVertex
 10
0.0461999999999999
 20
-1.985499999999999
 30
4.456375
 70
    64
  0
VERTEX
  5
754D0
330
754C0
100
AcDbEntity
  8
0
100
AcDbVertex
100
AcDbPolygonMeshVertex
 10
0.0002000000000001
 20
-1.845499999999999
 30
4.456375
 70
    64
  0
VERTEX
  5
754D1
330
754C0
100
AcDbEntity
  8
0
100
AcDbVertex
100
AcDbPolygonMeshVertex
 10
0.0002000000000001
 20
-1.845499999999999
 30
4.456375
 70
    64
  0
VERTEX
  5
754D2
330
754C0
100
AcDbEntity
  8
0
100
AcDbVertex
100
AcDbPolygonMeshVertex
 10
0.0002000000000001
 20
-1.985499999999999
 30
4.456375
 70
    64
  0
SEQEND
  5
754D3
330
754C0
100
AcDbEntity
  8
0
  0
POLYLINE
  5
754D4
330
458D6
100
AcDbEntity
  8
0
100
AcDbPolygonMesh
 66
     1
 10
0.0
 20
0.0
 30
0.0
 70
    16
 71
     6
 72
     3
  0
VERTEX
  5
754D5
330
754D4
100
AcDbEntity
  8
0
100
AcDbVertex
100
AcDbPolygonMeshVertex
 10
1.765199999999999
 20
-1.985499999999999
 30
4.456375
 70
    64
  0
VERTEX
  5
754D6
330
754D4
100
AcDbEntity
  8
0
100
AcDbVertex
100
AcDbPolygonMeshVertex
 10
1.765199999999999
 20
-1.985499999999999
 30
3.587375
 70
    64
  0
VERTEX
  5
754D7
330
754D4
100
AcDbEntity
  8
0
100
AcDbVertex
100
AcDbPolygonMeshVertex
 10
1.765199999999999
 20
-1.985499999999999
 30
3.587375
 70
    64
  0
VERTEX
  5
754D8
330
754D4
100
AcDbEntity
  8
0
100
AcDbVertex
100
AcDbPolygonMeshVertex
 10
1.7192
 20
-1.985499999999999
 30
4.456375
 70
    64
  0
VERTEX
  5
754D9
330
754D4
100
AcDbEntity
  8
0
100
AcDbVertex
100
AcDbPolygonMeshVertex
 10
1.7192
 20
-1.985499999999999
 30
3.587375
 70
    64
  0
VERTEX
  5
754DA
330
754D4
100
AcDbEntity
  8
0
100
AcDbVertex
100
AcDbPolygonMeshVertex
 10
1.7192
 20
-1.985499999999999
 30
3.587375
 70
    64
  0
VERTEX
  5
754DB
330
754D4
100
AcDbEntity
  8
0
100
AcDbVertex
100
AcDbPolygonMeshVertex
 10
1.7192
 20
-1.845499999999999
 30
4.456375
 70
    64
  0
VERTEX
  5
754DC
330
754D4
100
AcDbEntity
  8
0
100
AcDbVertex
100
AcDbPolygonMeshVertex
 10
1.7192
 20
-1.845499999999999
 30
3.587375
 70
    64
  0
VERTEX
  5
754DD
330
754D4
100
AcDbEntity
  8
0
100
AcDbVertex
100
AcDbPolygonMeshVertex
 10
1.7192
 20
-1.985499999999999
 30
3.587375
 70
    64
  0
VERTEX
  5
754DE
330
754D4
100
AcDbEntity
  8
0
100
AcDbVertex
100
AcDbPolygonMeshVertex
 10
1.765199999999999
 20
-1.845499999999999
 30
4.456375
 70
    64
  0
VERTEX
  5
754DF
330
754D4
100
AcDbEntity
  8
0
100
AcDbVertex
100
AcDbPolygonMeshVertex
 10
1.765199999999999
 20
-1.845499999999999
 30
3.587375
 70
    64
  0
VERTEX
  5
754E0
330
754D4
100
AcDbEntity
  8
0
100
AcDbVertex
100
AcDbPolygonMeshVertex
 10
1.765199999999999
 20
-1.985499999999999
 30
3.587375
 70
    64
  0
VERTEX
  5
754E1
330
754D4
100
AcDbEntity
  8
0
100
AcDbVertex
100
AcDbPolygonMeshVertex
 10
1.765199999999999
 20
-1.845499999999999
 30
4.456375
 70
    64
  0
VERTEX
  5
754E2
330
754D4
100
AcDbEntity
  8
0
100
AcDbVertex
100
AcDbPolygonMeshVertex
 10
1.765199999999999
 20
-1.845499999999999
 30
4.456375
 70
    64
  0
VERTEX
  5
754E3
330
754D4
100
AcDbEntity
  8
0
100
AcDbVertex
100
AcDbPolygonMeshVertex
 10
1.765199999999999
 20
-1.985499999999999
 30
4.456375
 70
    64
  0
VERTEX
  5
754E4
330
754D4
100
AcDbEntity
  8
0
100
AcDbVertex
100
AcDbPolygonMeshVertex
 10
1.7192
 20
-1.845499999999999
 30
4.456375
 70
    64
  0
VERTEX
  5
754E5
330
754D4
100
AcDbEntity
  8
0
100
AcDbVertex
100
AcDbPolygonMeshVertex
 10
1.7192
 20
-1.845499999999999
 30
4.456375
 70
    64
  0
VERTEX
  5
754E6
330
754D4
100
AcDbEntity
  8
0
100
AcDbVertex
100
AcDbPolygonMeshVertex
 10
1.7192
 20
-1.985499999999999
 30
4.456375
 70
    64
  0
SEQEND
  5
754E7
330
754D4
100
AcDbEntity
  8
0
  0
POLYLINE
  5
754E8
330
458D6
100
AcDbEntity
  8
0
100
AcDbPolygonMesh
 66
     1
 10
0.0
 20
0.0
 30
0.0
 70
    16
 71
     6
 72
     3
  0
VERTEX
  5
754E9
330
754E8
100
AcDbEntity
  8
0
100
AcDbVertex
100
AcDbPolygonMeshVertex
 10
1.765199999999999
 20
0.5384999999999991
 30
4.456375
 70
    64
  0
VERTEX
  5
754EA
330
754E8
100
AcDbEntity
  8
0
100
AcDbVertex
100
AcDbPolygonMeshVertex
 10
1.765199999999999
 20
0.5384999999999991
 30
3.587375
 70
    64
  0
VERTEX
  5
754EB
330
754E8
100
AcDbEntity
  8
0
100
AcDbVertex
100
AcDbPolygonMeshVertex
 10
1.765199999999999
 20
0.5384999999999991
 30
3.587375
 70
    64
  0
VERTEX
  5
754EC
330
754E8
100
AcDbEntity
  8
0
100
AcDbVertex
100
AcDbPolygonMeshVertex
 10
1.7192
 20
0.5384999999999991
 30
4.456375
 70
    64
  0
VERTEX
  5
754ED
330
754E8
100
AcDbEntity
  8
0
100
AcDbVertex
100
AcDbPolygonMeshVertex
 10
1.7192
 20
0.5384999999999991
 30
3.587375
 70
    64
  0
VERTEX
  5
754EE
330
754E8
100
AcDbEntity
  8
0
100
AcDbVertex
100
AcDbPolygonMeshVertex
 10
1.7192
 20
0.5384999999999991
 30
3.587375
 70
    64
  0
VERTEX
  5
754EF
330
754E8
100
AcDbEntity
  8
0
100
AcDbVertex
100
AcDbPolygonMeshVertex
 10
1.7192
 20
0.3984999999999994
 30
4.456375
 70
    64
  0
VERTEX
  5
754F0
330
754E8
100
AcDbEntity
  8
0
100
AcDbVertex
100
AcDbPolygonMeshVertex
 10
1.7192
 20
0.3984999999999994
 30
3.587375
 70
    64
  0
VERTEX
  5
754F1
330
754E8
100
AcDbEntity
  8
0
100
AcDbVertex
100
AcDbPolygonMeshVertex
 10
1.7192
 20
0.5384999999999991
 30
3.587375
 70
    64
  0
VERTEX
  5
754F2
330
754E8
100
AcDbEntity
  8
0
100
AcDbVertex
100
AcDbPolygonMeshVertex
 10
1.765199999999999
 20
0.3984999999999994
 30
4.456375
 70
    64
  0
VERTEX
  5
754F3
330
754E8
100
AcDbEntity
  8
0
100
AcDbVertex
100
AcDbPolygonMeshVertex
 10
1.765199999999999
 20
0.3984999999999994
 30
3.587375
 70
    64
  0
VERTEX
  5
754F4
330
754E8
100
AcDbEntity
  8
0
100
AcDbVertex
100
AcDbPolygonMeshVertex
 10
1.765199999999999
 20
0.5384999999999991
 30
3.587375
 70
    64
  0
VERTEX
  5
754F5
330
754E8
100
AcDbEntity
  8
0
100
AcDbVertex
100
AcDbPolygonMeshVertex
 10
1.765199999999999
 20
0.3984999999999994
 30
4.456375
 70
    64
  0
VERTEX
  5
754F6
330
754E8
100
AcDbEntity
  8
0
100
AcDbVertex
100
AcDbPolygonMeshVertex
 10
1.765199999999999
 20
0.3984999999999994
 30
4.456375
 70
    64
  0
VERTEX
  5
754F7
330
754E8
100
AcDbEntity
  8
0
100
AcDbVertex
100
AcDbPolygonMeshVertex
 10
1.765199999999999
 20
0.5384999999999991
 30
4.456375
 70
    64
  0
VERTEX
  5
754F8
330
754E8
100
AcDbEntity
  8
0
100
AcDbVertex
100
AcDbPolygonMeshVertex
 10
1.7192
 20
0.3984999999999994
 30
4.456375
 70
    64
  0
VERTEX
  5
754F9
330
754E8
100
AcDbEntity
  8
0
100
AcDbVertex
100
AcDbPolygonMeshVertex
 10
1.7192
 20
0.3984999999999994
 30
4.456375
 70
    64
  0
VERTEX
  5
754FA
330
754E8
100
AcDbEntity
  8
0
100
AcDbVertex
100
AcDbPolygonMeshVertex
 10
1.7192
 20
0.5384999999999991
 30
4.456375
 70
    64
  0
SEQEND
  5
754FB
330
754E8
100
AcDbEntity
  8
0
  0
LINE
  5
754FC
330
458D6
100
AcDbEntity
  8
0
100
AcDbLine
 10
1.33545
 20
0.3984999999999994
 30
4.173375
 11
1.719199999999999
 21
0.3984999999999994
 31
4.173375
  0
POLYLINE
  5
754FD
330
458D6
100
AcDbEntity
  8
0
100
AcDbPolygonMesh
 66
     1
 10
0.0
 20
0.0
 30
0.0
 70
    16
 71
     6
 72
     3
  0
VERTEX
  5
754FE
330
754FD
100
AcDbEntity
  8
0
100
AcDbVertex
100
AcDbPolygonMeshVertex
 10
1.33545
 20
0.5384999999999991
 30
4.456375
 70
    64
  0
VERTEX
  5
754FF
330
754FD
100
AcDbEntity
  8
0
100
AcDbVertex
100
AcDbPolygonMeshVertex
 10
1.33545
 20
0.5384999999999991
 30
3.846375
 70
    64
  0
VERTEX
  5
75500
330
754FD
100
AcDbEntity
  8
0
100
AcDbVertex
100
AcDbPolygonMeshVertex
 10
1.33545
 20
0.5384999999999991
 30
3.846375
 70
    64
  0
VERTEX
  5
75501
330
754FD
100
AcDbEntity
  8
0
100
AcDbVertex
100
AcDbPolygonMeshVertex
 10
1.28945
 20
0.5384999999999991
 30
4.456375
 70
    64
  0
VERTEX
  5
75502
330
754FD
100
AcDbEntity
  8
0
100
AcDbVertex
100
AcDbPolygonMeshVertex
 10
1.28945
 20
0.5384999999999991
 30
3.846375
 70
    64
  0
VERTEX
  5
75503
330
754FD
100
AcDbEntity
  8
0
100
AcDbVertex
100
AcDbPolygonMeshVertex
 10
1.28945
 20
0.5384999999999991
 30
3.846375
 70
    64
  0
VERTEX
  5
75504
330
754FD
100
AcDbEntity
  8
0
100
AcDbVertex
100
AcDbPolygonMeshVertex
 10
1.28945
 20
0.3984999999999994
 30
4.456375
 70
    64
  0
VERTEX
  5
75505
330
754FD
100
AcDbEntity
  8
0
100
AcDbVertex
100
AcDbPolygonMeshVertex
 10
1.28945
 20
0.3984999999999994
 30
3.846375
 70
    64
  0
VERTEX
  5
75506
330
754FD
100
AcDbEntity
  8
0
100
AcDbVertex
100
AcDbPolygonMeshVertex
 10
1.28945
 20
0.5384999999999991
 30
3.846375
 70
    64
  0
VERTEX
  5
75507
330
754FD
100
AcDbEntity
  8
0
100
AcDbVertex
100
AcDbPolygonMeshVertex
 10
1.33545
 20
0.3984999999999994
 30
4.456375
 70
    64
  0
VERTEX
  5
75508
330
754FD
100
AcDbEntity
  8
0
100
AcDbVertex
100
AcDbPolygonMeshVertex
 10
1.33545
 20
0.3984999999999994
 30
3.846375
 70
    64
  0
VERTEX
  5
75509
330
754FD
100
AcDbEntity
  8
0
100
AcDbVertex
100
AcDbPolygonMeshVertex
 10
1.33545
 20
0.5384999999999991
 30
3.846375
 70
    64
  0
VERTEX
  5
7550A
330
754FD
100
AcDbEntity
  8
0
100
AcDbVertex
100
AcDbPolygonMeshVertex
 10
1.33545
 20
0.3984999999999994
 30
4.456375
 70
    64
  0
VERTEX
  5
7550B
330
754FD
100
AcDbEntity
  8
0
100
AcDbVertex
100
AcDbPolygonMeshVertex
 10
1.33545
 20
0.3984999999999994
 30
4.456375
 70
    64
  0
VERTEX
  5
7550C
330
754FD
100
AcDbEntity
  8
0
100
AcDbVertex
100
AcDbPolygonMeshVertex
 10
1.33545
 20
0.5384999999999991
 30
4.456375
 70
    64
  0
VERTEX
  5
7550D
330
754FD
100
AcDbEntity
  8
0
100
AcDbVertex
100
AcDbPolygonMeshVertex
 10
1.28945
 20
0.3984999999999994
 30
4.456375
 70
    64
  0
VERTEX
  5
7550E
330
754FD
100
AcDbEntity
  8
0
100
AcDbVertex
100
AcDbPolygonMeshVertex
 10
1.28945
 20
0.3984999999999994
 30
4.456375
 70
    64
  0
VERTEX
  5
7550F
330
754FD
100
AcDbEntity
  8
0
100
AcDbVertex
100
AcDbPolygonMeshVertex
 10
1.28945
 20
0.5384999999999991
 30
4.456375
 70
    64
  0
SEQEND
  5
75510
330
754FD
100
AcDbEntity
  8
0
  0
LINE
  5
75511
330
458D6
100
AcDbEntity
  8
0
100
AcDbLine
 10
0.9057
 20
0.3984999999999994
 30
4.173375
 11
1.28945
 21
0.3984999999999994
 31
4.173375
  0
POLYLINE
  5
75512
330
458D6
100
AcDbEntity
  8
0
100
AcDbPolygonMesh
 66
     1
 10
0.0
 20
0.0
 30
0.0
 70
    16
 71
     6
 72
     3
  0
VERTEX
  5
75513
330
75512
100
AcDbEntity
  8
0
100
AcDbVertex
100
AcDbPolygonMeshVertex
 10
0.9057
 20
0.5384999999999991
 30
4.456375
 70
    64
  0
VERTEX
  5
75514
330
75512
100
AcDbEntity
  8
0
100
AcDbVertex
100
AcDbPolygonMeshVertex
 10
0.9057
 20
0.5384999999999991
 30
3.846375
 70
    64
  0
VERTEX
  5
75515
330
75512
100
AcDbEntity
  8
0
100
AcDbVertex
100
AcDbPolygonMeshVertex
 10
0.9057
 20
0.5384999999999991
 30
3.846375
 70
    64
  0
VERTEX
  5
75516
330
75512
100
AcDbEntity
  8
0
100
AcDbVertex
100
AcDbPolygonMeshVertex
 10
0.8596999999999997
 20
0.5384999999999991
 30
4.456375
 70
    64
  0
VERTEX
  5
75517
330
75512
100
AcDbEntity
  8
0
100
AcDbVertex
100
AcDbPolygonMeshVertex
 10
0.8596999999999997
 20
0.5384999999999991
 30
3.846375
 70
    64
  0
VERTEX
  5
75518
330
75512
100
AcDbEntity
  8
0
100
AcDbVertex
100
AcDbPolygonMeshVertex
 10
0.8596999999999997
 20
0.5384999999999991
 30
3.846375
 70
    64
  0
VERTEX
  5
75519
330
75512
100
AcDbEntity
  8
0
100
AcDbVertex
100
AcDbPolygonMeshVertex
 10
0.8596999999999997
 20
0.3984999999999994
 30
4.456375
 70
    64
  0
VERTEX
  5
7551A
330
75512
100
AcDbEntity
  8
0
100
AcDbVertex
100
AcDbPolygonMeshVertex
 10
0.8596999999999997
 20
0.3984999999999994
 30
3.846375
 70
    64
  0
VERTEX
  5
7551B
330
75512
100
AcDbEntity
  8
0
100
AcDbVertex
100
AcDbPolygonMeshVertex
 10
0.8596999999999997
 20
0.5384999999999991
 30
3.846375
 70
    64
  0
VERTEX
  5
7551C
330
75512
100
AcDbEntity
  8
0
100
AcDbVertex
100
AcDbPolygonMeshVertex
 10
0.9057
 20
0.3984999999999994
 30
4.456375
 70
    64
  0
VERTEX
  5
7551D
330
75512
100
AcDbEntity
  8
0
100
AcDbVertex
100
AcDbPolygonMeshVertex
 10
0.9057
 20
0.3984999999999994
 30
3.846375
 70
    64
  0
VERTEX
  5
7551E
330
75512
100
AcDbEntity
  8
0
100
AcDbVertex
100
AcDbPolygonMeshVertex
 10
0.9057
 20
0.5384999999999991
 30
3.846375
 70
    64
  0
VERTEX
  5
7551F
330
75512
100
AcDbEntity
  8
0
100
AcDbVertex
100
AcDbPolygonMeshVertex
 10
0.9057
 20
0.3984999999999994
 30
4.456375
 70
    64
  0
VERTEX
  5
75520
330
75512
100
AcDbEntity
  8
0
100
AcDbVertex
100
AcDbPolygonMeshVertex
 10
0.9057
 20
0.3984999999999994
 30
4.456375
 70
    64
  0
VERTEX
  5
75521
330
75512
100
AcDbEntity
  8
0
100
AcDbVertex
100
AcDbPolygonMeshVertex
 10
0.9057
 20
0.5384999999999991
 30
4.456375
 70
    64
  0
VERTEX
  5
75522
330
75512
100
AcDbEntity
  8
0
100
AcDbVertex
100
AcDbPolygonMeshVertex
 10
0.8596999999999997
 20
0.3984999999999994
 30
4.456375
 70
    64
  0
VERTEX
  5
75523
330
75512
100
AcDbEntity
  8
0
100
AcDbVertex
100
AcDbPolygonMeshVertex
 10
0.8596999999999997
 20
0.3984999999999994
 30
4.456375
 70
    64
  0
VERTEX
  5
75524
330
75512
100
AcDbEntity
  8
0
100
AcDbVertex
100
AcDbPolygonMeshVertex
 10
0.8596999999999997
 20
0.5384999999999991
 30
4.456375
 70
    64
  0
SEQEND
  5
75525
330
75512
100
AcDbEntity
  8
0
  0
POLYLINE
  5
75526
330
458D6
100
AcDbEntity
  8
0
100
AcDbPolygonMesh
 66
     1
 10
0.0
 20
0.0
 30
0.0
 70
    16
 71
     6
 72
     3
  0
VERTEX
  5
75527
330
75526
100
AcDbEntity
  8
0
100
AcDbVertex
100
AcDbPolygonMeshVertex
 10
0.42995
 20
0.5384999999999991
 30
4.456375
 70
    64
  0
VERTEX
  5
75528
330
75526
100
AcDbEntity
  8
0
100
AcDbVertex
100
AcDbPolygonMeshVertex
 10
0.42995
 20
0.5384999999999991
 30
3.846375
 70
    64
  0
VERTEX
  5
75529
330
75526
100
AcDbEntity
  8
0
100
AcDbVertex
100
AcDbPolygonMeshVertex
 10
0.42995
 20
0.5384999999999991
 30
3.846375
 70
    64
  0
VERTEX
  5
7552A
330
75526
100
AcDbEntity
  8
0
100
AcDbVertex
100
AcDbPolygonMeshVertex
 10
0.4759499999999998
 20
0.5384999999999991
 30
4.456375
 70
    64
  0
VERTEX
  5
7552B
330
75526
100
AcDbEntity
  8
0
100
AcDbVertex
100
AcDbPolygonMeshVertex
 10
0.4759499999999998
 20
0.5384999999999991
 30
3.846375
 70
    64
  0
VERTEX
  5
7552C
330
75526
100
AcDbEntity
  8
0
100
AcDbVertex
100
AcDbPolygonMeshVertex
 10
0.4759499999999998
 20
0.5384999999999991
 30
3.846375
 70
    64
  0
VERTEX
  5
7552D
330
75526
100
AcDbEntity
  8
0
100
AcDbVertex
100
AcDbPolygonMeshVertex
 10
0.4759499999999998
 20
0.3984999999999994
 30
4.456375
 70
    64
  0
VERTEX
  5
7552E
330
75526
100
AcDbEntity
  8
0
100
AcDbVertex
100
AcDbPolygonMeshVertex
 10
0.4759499999999998
 20
0.3984999999999994
 30
3.846375
 70
    64
  0
VERTEX
  5
7552F
330
75526
100
AcDbEntity
  8
0
100
AcDbVertex
100
AcDbPolygonMeshVertex
 10
0.4759499999999998
 20
0.5384999999999991
 30
3.846375
 70
    64
  0
VERTEX
  5
75530
330
75526
100
AcDbEntity
  8
0
100
AcDbVertex
100
AcDbPolygonMeshVertex
 10
0.42995
 20
0.3984999999999994
 30
4.456375
 70
    64
  0
VERTEX
  5
75531
330
75526
100
AcDbEntity
  8
0
100
AcDbVertex
100
AcDbPolygonMeshVertex
 10
0.42995
 20
0.3984999999999994
 30
3.846375
 70
    64
  0
VERTEX
  5
75532
330
75526
100
AcDbEntity
  8
0
100
AcDbVertex
100
AcDbPolygonMeshVertex
 10
0.42995
 20
0.5384999999999991
 30
3.846375
 70
    64
  0
VERTEX
  5
75533
330
75526
100
AcDbEntity
  8
0
100
AcDbVertex
100
AcDbPolygonMeshVertex
 10
0.42995
 20
0.3984999999999994
 30
4.456375
 70
    64
  0
VERTEX
  5
75534
330
75526
100
AcDbEntity
  8
0
100
AcDbVertex
100
AcDbPolygonMeshVertex
 10
0.42995
 20
0.3984999999999994
 30
4.456375
 70
    64
  0
VERTEX
  5
75535
330
75526
100
AcDbEntity
  8
0
100
AcDbVertex
100
AcDbPolygonMeshVertex
 10
0.42995
 20
0.5384999999999991
 30
4.456375
 70
    64
  0
VERTEX
  5
75536
330
75526
100
AcDbEntity
  8
0
100
AcDbVertex
100
AcDbPolygonMeshVertex
 10
0.4759499999999998
 20
0.3984999999999994
 30
4.456375
 70
    64
  0
VERTEX
  5
75537
330
75526
100
AcDbEntity
  8
0
100
AcDbVertex
100
AcDbPolygonMeshVertex
 10
0.4759499999999998
 20
0.3984999999999994
 30
4.456375
 70
    64
  0
VERTEX
  5
75538
330
75526
100
AcDbEntity
  8
0
100
AcDbVertex
100
AcDbPolygonMeshVertex
 10
0.4759499999999998
 20
0.5384999999999991
 30
4.456375
 70
    64
  0
SEQEND
  5
75539
330
75526
100
AcDbEntity
  8
0
  0
LINE
  5
7553A
330
458D6
100
AcDbEntity
  8
0
100
AcDbLine
 10
0.0462000000000004
 20
0.3984999999999994
 30
4.173375
 11
0.42995
 21
0.3984999999999994
 31
4.173375
  0
LINE
  5
7553B
330
458D6
100
AcDbEntity
  8
0
100
AcDbLine
 10
0.4759499999999998
 20
0.3984999999999994
 30
4.173375
 11
0.8596999999999997
 21
0.3984999999999994
 31
4.173375
  0
POLYLINE
  5
7553C
330
458D6
100
AcDbEntity
  8
0
100
AcDbPolygonMesh
 66
     1
 10
0.0
 20
0.0
 30
0.0
 70
    16
 71
     6
 72
     3
  0
VERTEX
  5
7553D
330
7553C
100
AcDbEntity
  8
0
100
AcDbVertex
100
AcDbPolygonMeshVertex
 10
0.0461999999999999
 20
0.5384999999999991
 30
4.456375
 70
    64
  0
VERTEX
  5
7553E
330
7553C
100
AcDbEntity
  8
0
100
AcDbVertex
100
AcDbPolygonMeshVertex
 10
0.0461999999999999
 20
0.5384999999999991
 30
3.587375
 70
    64
  0
VERTEX
  5
7553F
330
7553C
100
AcDbEntity
  8
0
100
AcDbVertex
100
AcDbPolygonMeshVertex
 10
0.0461999999999999
 20
0.5384999999999991
 30
3.587375
 70
    64
  0
VERTEX
  5
75540
330
7553C
100
AcDbEntity
  8
0
100
AcDbVertex
100
AcDbPolygonMeshVertex
 10
0.0002000000000001
 20
0.5384999999999991
 30
4.456375
 70
    64
  0
VERTEX
  5
75541
330
7553C
100
AcDbEntity
  8
0
100
AcDbVertex
100
AcDbPolygonMeshVertex
 10
0.0002000000000001
 20
0.5384999999999991
 30
3.587375
 70
    64
  0
VERTEX
  5
75542
330
7553C
100
AcDbEntity
  8
0
100
AcDbVertex
100
AcDbPolygonMeshVertex
 10
0.0002000000000001
 20
0.5384999999999991
 30
3.587375
 70
    64
  0
VERTEX
  5
75543
330
7553C
100
AcDbEntity
  8
0
100
AcDbVertex
100
AcDbPolygonMeshVertex
 10
0.0002000000000001
 20
0.3984999999999994
 30
4.456375
 70
    64
  0
VERTEX
  5
75544
330
7553C
100
AcDbEntity
  8
0
100
AcDbVertex
100
AcDbPolygonMeshVertex
 10
0.0002000000000001
 20
0.3984999999999994
 30
3.587375
 70
    64
  0
VERTEX
  5
75545
330
7553C
100
AcDbEntity
  8
0
100
AcDbVertex
100
AcDbPolygonMeshVertex
 10
0.0002000000000001
 20
0.5384999999999991
 30
3.587375
 70
    64
  0
VERTEX
  5
75546
330
7553C
100
AcDbEntity
  8
0
100
AcDbVertex
100
AcDbPolygonMeshVertex
 10
0.0461999999999999
 20
0.3984999999999994
 30
4.456375
 70
    64
  0
VERTEX
  5
75547
330
7553C
100
AcDbEntity
  8
0
100
AcDbVertex
100
AcDbPolygonMeshVertex
 10
0.0461999999999999
 20
0.3984999999999994
 30
3.587375
 70
    64
  0
VERTEX
  5
75548
330
7553C
100
AcDbEntity
  8
0
100
AcDbVertex
100
AcDbPolygonMeshVertex
 10
0.0461999999999999
 20
0.5384999999999991
 30
3.587375
 70
    64
  0
VERTEX
  5
75549
330
7553C
100
AcDbEntity
  8
0
100
AcDbVertex
100
AcDbPolygonMeshVertex
 10
0.0461999999999999
 20
0.3984999999999994
 30
4.456375
 70
    64
  0
VERTEX
  5
7554A
330
7553C
100
AcDbEntity
  8
0
100
AcDbVertex
100
AcDbPolygonMeshVertex
 10
0.0461999999999999
 20
0.3984999999999994
 30
4.456375
 70
    64
  0
VERTEX
  5
7554B
330
7553C
100
AcDbEntity
  8
0
100
AcDbVertex
100
AcDbPolygonMeshVertex
 10
0.0461999999999999
 20
0.5384999999999991
 30
4.456375
 70
    64
  0
VERTEX
  5
7554C
330
7553C
100
AcDbEntity
  8
0
100
AcDbVertex
100
AcDbPolygonMeshVertex
 10
0.0002000000000001
 20
0.3984999999999994
 30
4.456375
 70
    64
  0
VERTEX
  5
7554D
330
7553C
100
AcDbEntity
  8
0
100
AcDbVertex
100
AcDbPolygonMeshVertex
 10
0.0002000000000001
 20
0.3984999999999994
 30
4.456375
 70
    64
  0
VERTEX
  5
7554E
330
7553C
100
AcDbEntity
  8
0
100
AcDbVertex
100
AcDbPolygonMeshVertex
 10
0.0002000000000001
 20
0.5384999999999991
 30
4.456375
 70
    64
  0
SEQEND
  5
7554F
330
7553C
100
AcDbEntity
  8
0
  0
POLYLINE
  5
75550
330
458D6
100
AcDbEntity
  8
0
100
AcDbPolygonMesh
 66
     1
 10
0.0
 20
0.0
 30
0.0
 70
    16
 71
     6
 72
     3
  0
VERTEX
  5
75551
330
75550
100
AcDbEntity
  8
0
100
AcDbVertex
100
AcDbPolygonMeshVertex
 10
1.719199999999999
 20
0.6104999999999992
 30
3.846375
 70
    64
  0
VERTEX
  5
75552
330
75550
100
AcDbEntity
  8
0
100
AcDbVertex
100
AcDbPolygonMeshVertex
 10
1.719199999999999
 20
0.6104999999999992
 30
3.587375
 70
    64
  0
VERTEX
  5
75553
330
75550
100
AcDbEntity
  8
0
100
AcDbVertex
100
AcDbPolygonMeshVertex
 10
1.719199999999999
 20
0.6104999999999992
 30
3.587375
 70
    64
  0
VERTEX
  5
75554
330
75550
100
AcDbEntity
  8
0
100
AcDbVertex
100
AcDbPolygonMeshVertex
 10
0.0461999999999999
 20
0.6104999999999992
 30
3.846375
 70
    64
  0
VERTEX
  5
75555
330
75550
100
AcDbEntity
  8
0
100
AcDbVertex
100
AcDbPolygonMeshVertex
 10
0.0461999999999999
 20
0.6104999999999992
 30
3.587375
 70
    64
  0
VERTEX
  5
75556
330
75550
100
AcDbEntity
  8
0
100
AcDbVertex
100
AcDbPolygonMeshVertex
 10
0.0461999999999999
 20
0.6104999999999992
 30
3.587375
 70
    64
  0
VERTEX
  5
75557
330
75550
100
AcDbEntity
  8
0
100
AcDbVertex
100
AcDbPolygonMeshVertex
 10
0.0461999999999999
 20
0.3984999999999994
 30
3.846375
 70
    64
  0
VERTEX
  5
75558
330
75550
100
AcDbEntity
  8
0
100
AcDbVertex
100
AcDbPolygonMeshVertex
 10
0.0461999999999999
 20
0.3984999999999994
 30
3.587375
 70
    64
  0
VERTEX
  5
75559
330
75550
100
AcDbEntity
  8
0
100
AcDbVertex
100
AcDbPolygonMeshVertex
 10
0.0461999999999999
 20
0.6104999999999992
 30
3.587375
 70
    64
  0
VERTEX
  5
7555A
330
75550
100
AcDbEntity
  8
0
100
AcDbVertex
100
AcDbPolygonMeshVertex
 10
1.719199999999999
 20
0.3984999999999994
 30
3.846375
 70
    64
  0
VERTEX
  5
7555B
330
75550
100
AcDbEntity
  8
0
100
AcDbVertex
100
AcDbPolygonMeshVertex
 10
1.719199999999999
 20
0.3984999999999994
 30
3.587375
 70
    64
  0
VERTEX
  5
7555C
330
75550
100
AcDbEntity
  8
0
100
AcDbVertex
100
AcDbPolygonMeshVertex
 10
1.719199999999999
 20
0.6104999999999992
 30
3.587375
 70
    64
  0
VERTEX
  5
7555D
330
75550
100
AcDbEntity
  8
0
100
AcDbVertex
100
AcDbPolygonMeshVertex
 10
1.719199999999999
 20
0.3984999999999994
 30
3.846375
 70
    64
  0
VERTEX
  5
7555E
330
75550
100
AcDbEntity
  8
0
100
AcDbVertex
100
AcDbPolygonMeshVertex
 10
1.719199999999999
 20
0.3984999999999994
 30
3.846375
 70
    64
  0
VERTEX
  5
7555F
330
75550
100
AcDbEntity
  8
0
100
AcDbVertex
100
AcDbPolygonMeshVertex
 10
1.719199999999999
 20
0.6104999999999992
 30
3.846375
 70
    64
  0
VERTEX
  5
75560
330
75550
100
AcDbEntity
  8
0
100
AcDbVertex
100
AcDbPolygonMeshVertex
 10
0.0461999999999999
 20
0.3984999999999994
 30
3.846375
 70
    64
  0
VERTEX
  5
75561
330
75550
100
AcDbEntity
  8
0
100
AcDbVertex
100
AcDbPolygonMeshVertex
 10
0.0461999999999999
 20
0.3984999999999994
 30
3.846375
 70
    64
  0
VERTEX
  5
75562
330
75550
100
AcDbEntity
  8
0
100
AcDbVertex
100
AcDbPolygonMeshVertex
 10
0.0461999999999999
 20
0.6104999999999992
 30
3.846375
 70
    64
  0
SEQEND
  5
75563
330
75550
100
AcDbEntity
  8
0
  0
LINE
  5
75564
330
458D6
100
AcDbEntity
  8
0
100
AcDbLine
 10
0.652923391696637
 20
-1.9685
 30
-0.0000000000000003
 11
0.8635900583633034
 21
-1.9685
 31
-0.0000000000000003
  0
POLYLINE
  5
75565
330
458D6
100
AcDbEntity
  8
0
100
AcDb3dPolyline
 66
     1
 10
0.0
 20
0.0
 30
0.0
 70
     8
  0
VERTEX
  5
75566
330
75565
100
AcDbEntity
  8
0
100
AcDbVertex
100
AcDb3dPolylineVertex
 10
0.652923391696637
 20
-1.9685
 30
-0.0000000000000003
 70
    32
  0
VERTEX
  5
75567
330
75565
100
AcDbEntity
  8
0
100
AcDbVertex
100
AcDb3dPolylineVertex
 10
0.652923391696637
 20
-2.103499999999999
 30
-0.0000000000000002
 70
    32
  0
VERTEX
  5
75568
330
75565
100
AcDbEntity
  8
0
100
AcDbVertex
100
AcDb3dPolylineVertex
 10
0.8635900583633034
 20
-2.103499999999999
 30
-0.0000000000000002
 70
    32
  0
VERTEX
  5
75569
330
75565
100
AcDbEntity
  8
0
100
AcDbVertex
100
AcDb3dPolylineVertex
 10
0.8635900583633034
 20
-1.9685
 30
-0.0000000000000003
 70
    32
  0
SEQEND
  5
7556A
330
75565
100
AcDbEntity
  8
0
  0
POLYLINE
  5
7556B
330
458D6
100
AcDbEntity
  8
0
100
AcDb3dPolyline
 66
     1
 10
0.0
 20
0.0
 30
0.0
 70
     8
  0
VERTEX
  5
7556C
330
7556B
100
AcDbEntity
  8
0
100
AcDbVertex
100
AcDb3dPolylineVertex
 10
0.581132708066341
 20
-1.9685
 30
0.1869999999999998
 70
    32
  0
VERTEX
  5
7556D
330
7556B
100
AcDbEntity
  8
0
100
AcDbVertex
100
AcDb3dPolylineVertex
 10
0.581132708066341
 20
-2.103499999999999
 30
0.1869999999999998
 70
    32
  0
VERTEX
  5
7556E
330
7556B
100
AcDbEntity
  8
0
100
AcDbVertex
100
AcDb3dPolylineVertex
 10
0.7917993747330076
 20
-2.103499999999999
 30
0.1869999999999998
 70
    32
  0
VERTEX
  5
7556F
330
7556B
100
AcDbEntity
  8
0
100
AcDbVertex
100
AcDb3dPolylineVertex
 10
0.7917993747330076
 20
-1.9685
 30
0.1869999999999998
 70
    32
  0
SEQEND
  5
75570
330
7556B
100
AcDbEntity
  8
0
  0
POLYLINE
  5
75571
330
458D6
100
AcDbEntity
  8
0
100
AcDbPolygonMesh
 66
     1
 10
0.0
 20
0.0
 30
0.0
 70
    16
 71
     6
 72
     3
  0
VERTEX
  5
75572
330
75571
100
AcDbEntity
  8
0
100
AcDbVertex
100
AcDbPolygonMeshVertex
 10
0.8537993747330069
 20
-2.1655
 30
0.1869999999999998
 70
    64
  0
VERTEX
  5
75573
330
75571
100
AcDbEntity
  8
0
100
AcDbVertex
100
AcDbPolygonMeshVertex
 10
0.8537993747330069
 20
-2.1655
 30
0.0
 70
    64
  0
VERTEX
  5
75574
330
75571
100
AcDbEntity
  8
0
100
AcDbVertex
100
AcDbPolygonMeshVertex
 10
0.8537993747330069
 20
-2.1655
 30
0.0
 70
    64
  0
VERTEX
  5
75575
330
75571
100
AcDbEntity
  8
0
100
AcDbVertex
100
AcDbPolygonMeshVertex
 10
0.2464660413996739
 20
-2.1655
 30
0.1869999999999998
 70
    64
  0
VERTEX
  5
75576
330
75571
100
AcDbEntity
  8
0
100
AcDbVertex
100
AcDbPolygonMeshVertex
 10
0.2464660413996739
 20
-2.1655
 30
0.0
 70
    64
  0
VERTEX
  5
75577
330
75571
100
AcDbEntity
  8
0
100
AcDbVertex
100
AcDbPolygonMeshVertex
 10
0.2464660413996739
 20
-2.1655
 30
0.0
 70
    64
  0
VERTEX
  5
75578
330
75571
100
AcDbEntity
  8
0
100
AcDbVertex
100
AcDbPolygonMeshVertex
 10
0.2464660413996739
 20
-2.103499999999999
 30
0.1869999999999998
 70
    64
  0
VERTEX
  5
75579
330
75571
100
AcDbEntity
  8
0
100
AcDbVertex
100
AcDbPolygonMeshVertex
 10
0.2464660413996739
 20
-2.103499999999999
 30
0.0
 70
    64
  0
VERTEX
  5
7557A
330
75571
100
AcDbEntity
  8
0
100
AcDbVertex
100
AcDbPolygonMeshVertex
 10
0.2464660413996739
 20
-2.1655
 30
0.0
 70
    64
  0
VERTEX
  5
7557B
330
75571
100
AcDbEntity
  8
0
100
AcDbVertex
100
AcDbPolygonMeshVertex
 10
0.8537993747330069
 20
-2.103499999999999
 30
0.1869999999999998
 70
    64
  0
VERTEX
  5
7557C
330
75571
100
AcDbEntity
  8
0
100
AcDbVertex
100
AcDbPolygonMeshVertex
 10
0.8537993747330069
 20
-2.103499999999999
 30
0.0
 70
    64
  0
VERTEX
  5
7557D
330
75571
100
AcDbEntity
  8
0
100
AcDbVertex
100
AcDbPolygonMeshVertex
 10
0.8537993747330069
 20
-2.1655
 30
0.0
 70
    64
  0
VERTEX
  5
7557E
330
75571
100
AcDbEntity
  8
0
100
AcDbVertex
100
AcDbPolygonMeshVertex
 10
0.8537993747330069
 20
-2.103499999999999
 30
0.1869999999999998
 70
    64
  0
VERTEX
  5
7557F
330
75571
100
AcDbEntity
  8
0
100
AcDbVertex
100
AcDbPolygonMeshVertex
 10
0.8537993747330069
 20
-2.103499999999999
 30
0.1869999999999998
 70
    64
  0
VERTEX
  5
75580
330
75571
100
AcDbEntity
  8
0
100
AcDbVertex
100
AcDbPolygonMeshVertex
 10
0.8537993747330069
 20
-2.1655
 30
0.1869999999999998
 70
    64
  0
VERTEX
  5
75581
330
75571
100
AcDbEntity
  8
0
100
AcDbVertex
100
AcDbPolygonMeshVertex
 10
0.2464660413996739
 20
-2.103499999999999
 30
0.1869999999999998
 70
    64
  0
VERTEX
  5
75582
330
75571
100
AcDbEntity
  8
0
100
AcDbVertex
100
AcDbPolygonMeshVertex
 10
0.2464660413996739
 20
-2.103499999999999
 30
0.1869999999999998
 70
    64
  0
VERTEX
  5
75583
330
75571
100
AcDbEntity
  8
0
100
AcDbVertex
100
AcDbPolygonMeshVertex
 10
0.2464660413996739
 20
-2.1655
 30
0.1869999999999998
 70
    64
  0
SEQEND
  5
75584
330
75571
100
AcDbEntity
  8
0
  0
POLYLINE
  5
75585
330
458D6
100
AcDbEntity
  8
0
100
AcDbPolygonMesh
 66
     1
 10
0.0
 20
0.0
 30
0.0
 70
    16
 71
     6
 72
     3
  0
VERTEX
  5
75586
330
75585
100
AcDbEntity
  8
0
100
AcDbVertex
100
AcDbPolygonMeshVertex
 10
0.8537993747330069
 20
-2.103499999999999
 30
0.1869999999999998
 70
    64
  0
VERTEX
  5
75587
330
75585
100
AcDbEntity
  8
0
100
AcDbVertex
100
AcDbPolygonMeshVertex
 10
0.8537993747330069
 20
-2.103499999999999
 30
0.0
 70
    64
  0
VERTEX
  5
75588
330
75585
100
AcDbEntity
  8
0
100
AcDbVertex
100
AcDbPolygonMeshVertex
 10
0.8537993747330069
 20
-2.103499999999999
 30
0.0
 70
    64
  0
VERTEX
  5
75589
330
75585
100
AcDbEntity
  8
0
100
AcDbVertex
100
AcDbPolygonMeshVertex
 10
0.5191327080663416
 20
-2.103499999999999
 30
0.1869999999999998
 70
    64
  0
VERTEX
  5
7558A
330
75585
100
AcDbEntity
  8
0
100
AcDbVertex
100
AcDbPolygonMeshVertex
 10
0.5191327080663416
 20
-2.103499999999999
 30
0.0
 70
    64
  0
VERTEX
  5
7558B
330
75585
100
AcDbEntity
  8
0
100
AcDbVertex
100
AcDbPolygonMeshVertex
 10
0.5191327080663416
 20
-2.103499999999999
 30
0.0
 70
    64
  0
VERTEX
  5
7558C
330
75585
100
AcDbEntity
  8
0
100
AcDbVertex
100
AcDbPolygonMeshVertex
 10
0.5191327080663416
 20
-1.9065
 30
0.1869999999999998
 70
    64
  0
VERTEX
  5
7558D
330
75585
100
AcDbEntity
  8
0
100
AcDbVertex
100
AcDbPolygonMeshVertex
 10
0.5191327080663416
 20
-1.9065
 30
0.0
 70
    64
  0
VERTEX
  5
7558E
330
75585
100
AcDbEntity
  8
0
100
AcDbVertex
100
AcDbPolygonMeshVertex
 10
0.5191327080663416
 20
-2.103499999999999
 30
0.0
 70
    64
  0
VERTEX
  5
7558F
330
75585
100
AcDbEntity
  8
0
100
AcDbVertex
100
AcDbPolygonMeshVertex
 10
0.8537993747330069
 20
-1.9065
 30
0.1869999999999998
 70
    64
  0
VERTEX
  5
75590
330
75585
100
AcDbEntity
  8
0
100
AcDbVertex
100
AcDbPolygonMeshVertex
 10
0.8537993747330069
 20
-1.9065
 30
0.0
 70
    64
  0
VERTEX
  5
75591
330
75585
100
AcDbEntity
  8
0
100
AcDbVertex
100
AcDbPolygonMeshVertex
 10
0.8537993747330069
 20
-2.103499999999999
 30
0.0
 70
    64
  0
VERTEX
  5
75592
330
75585
100
AcDbEntity
  8
0
100
AcDbVertex
100
AcDbPolygonMeshVertex
 10
0.8537993747330069
 20
-1.9065
 30
0.1869999999999998
 70
    64
  0
VERTEX
  5
75593
330
75585
100
AcDbEntity
  8
0
100
AcDbVertex
100
AcDbPolygonMeshVertex
 10
0.8537993747330069
 20
-1.9065
 30
0.1869999999999998
 70
    64
  0
VERTEX
  5
75594
330
75585
100
AcDbEntity
  8
0
100
AcDbVertex
100
AcDbPolygonMeshVertex
 10
0.8537993747330069
 20
-2.103499999999999
 30
0.1869999999999998
 70
    64
  0
VERTEX
  5
75595
330
75585
100
AcDbEntity
  8
0
100
AcDbVertex
100
AcDbPolygonMeshVertex
 10
0.5191327080663416
 20
-1.9065
 30
0.1869999999999998
 70
    64
  0
VERTEX
  5
75596
330
75585
100
AcDbEntity
  8
0
100
AcDbVertex
100
AcDbPolygonMeshVertex
 10
0.5191327080663416
 20
-1.9065
 30
0.1869999999999998
 70
    64
  0
VERTEX
  5
75597
330
75585
100
AcDbEntity
  8
0
100
AcDbVertex
100
AcDbPolygonMeshVertex
 10
0.5191327080663416
 20
-2.103499999999999
 30
0.1869999999999998
 70
    64
  0
SEQEND
  5
75598
330
75585
100
AcDbEntity
  8
0
  0
LINE
  5
75599
330
458D6
100
AcDbEntity
  8
0
100
AcDbLine
 10
0.652923391696637
 20
-1.9685
 30
0.1869999999999998
 11
0.8635900583633034
 21
-1.9685
 31
0.1869999999999998
  0
POLYLINE
  5
7559A
330
458D6
100
AcDbEntity
  8
0
100
AcDbPolygonMesh
 66
     1
 10
0.0
 20
0.0
 30
0.0
 70
    16
 71
     6
 72
     3
  0
VERTEX
  5
7559B
330
7559A
100
AcDbEntity
  8
0
100
AcDbVertex
100
AcDbPolygonMeshVertex
 10
1.765199999999999
 20
-1.685499999999999
 30
0.187
 70
    64
  0
VERTEX
  5
7559C
330
7559A
100
AcDbEntity
  8
0
100
AcDbVertex
100
AcDbPolygonMeshVertex
 10
1.765199999999999
 20
-1.685499999999999
 30
0.0
 70
    64
  0
VERTEX
  5
7559D
330
7559A
100
AcDbEntity
  8
0
100
AcDbVertex
100
AcDbPolygonMeshVertex
 10
1.765199999999999
 20
-1.685499999999999
 30
0.0
 70
    64
  0
VERTEX
  5
7559E
330
7559A
100
AcDbEntity
  8
0
100
AcDbVertex
100
AcDbPolygonMeshVertex
 10
0.0052
 20
-1.685499999999999
 30
0.187
 70
    64
  0
VERTEX
  5
7559F
330
7559A
100
AcDbEntity
  8
0
100
AcDbVertex
100
AcDbPolygonMeshVertex
 10
0.0052
 20
-1.685499999999999
 30
0.0
 70
    64
  0
VERTEX
  5
755A0
330
7559A
100
AcDbEntity
  8
0
100
AcDbVertex
100
AcDbPolygonMeshVertex
 10
0.0052
 20
-1.685499999999999
 30
0.0
 70
    64
  0
VERTEX
  5
755A1
330
7559A
100
AcDbEntity
  8
0
100
AcDbVertex
100
AcDbPolygonMeshVertex
 10
0.0052
 20
-1.480999999999999
 30
0.187
 70
    64
  0
VERTEX
  5
755A2
330
7559A
100
AcDbEntity
  8
0
100
AcDbVertex
100
AcDbPolygonMeshVertex
 10
0.0052
 20
-1.480999999999999
 30
0.0
 70
    64
  0
VERTEX
  5
755A3
330
7559A
100
AcDbEntity
  8
0
100
AcDbVertex
100
AcDbPolygonMeshVertex
 10
0.0052
 20
-1.685499999999999
 30
0.0
 70
    64
  0
VERTEX
  5
755A4
330
7559A
100
AcDbEntity
  8
0
100
AcDbVertex
100
AcDbPolygonMeshVertex
 10
1.765199999999999
 20
-1.480999999999999
 30
0.187
 70
    64
  0
VERTEX
  5
755A5
330
7559A
100
AcDbEntity
  8
0
100
AcDbVertex
100
AcDbPolygonMeshVertex
 10
1.765199999999999
 20
-1.480999999999999
 30
0.0
 70
    64
  0
VERTEX
  5
755A6
330
7559A
100
AcDbEntity
  8
0
100
AcDbVertex
100
AcDbPolygonMeshVertex
 10
1.765199999999999
 20
-1.685499999999999
 30
0.0
 70
    64
  0
VERTEX
  5
755A7
330
7559A
100
AcDbEntity
  8
0
100
AcDbVertex
100
AcDbPolygonMeshVertex
 10
1.765199999999999
 20
-1.480999999999999
 30
0.187
 70
    64
  0
VERTEX
  5
755A8
330
7559A
100
AcDbEntity
  8
0
100
AcDbVertex
100
AcDbPolygonMeshVertex
 10
1.765199999999999
 20
-1.480999999999999
 30
0.187
 70
    64
  0
VERTEX
  5
755A9
330
7559A
100
AcDbEntity
  8
0
100
AcDbVertex
100
AcDbPolygonMeshVertex
 10
1.765199999999999
 20
-1.685499999999999
 30
0.187
 70
    64
  0
VERTEX
  5
755AA
330
7559A
100
AcDbEntity
  8
0
100
AcDbVertex
100
AcDbPolygonMeshVertex
 10
0.0052
 20
-1.480999999999999
 30
0.187
 70
    64
  0
VERTEX
  5
755AB
330
7559A
100
AcDbEntity
  8
0
100
AcDbVertex
100
AcDbPolygonMeshVertex
 10
0.0052
 20
-1.480999999999999
 30
0.187
 70
    64
  0
VERTEX
  5
755AC
330
7559A
100
AcDbEntity
  8
0
100
AcDbVertex
100
AcDbPolygonMeshVertex
 10
0.0052
 20
-1.685499999999999
 30
0.187
 70
    64
  0
SEQEND
  5
755AD
330
7559A
100
AcDbEntity
  8
0
  0
POLYLINE
  5
755AE
330
458D6
100
AcDbEntity
  8
0
100
AcDbPolygonMesh
 66
     1
 10
0.0
 20
0.0
 30
0.0
 70
    16
 71
     6
 72
     3
  0
VERTEX
  5
755AF
330
755AE
100
AcDbEntity
  8
0
100
AcDbVertex
100
AcDbPolygonMeshVertex
 10
1.765199999999999
 20
0.2044999999999999
 30
0.187
 70
    64
  0
VERTEX
  5
755B0
330
755AE
100
AcDbEntity
  8
0
100
AcDbVertex
100
AcDbPolygonMeshVertex
 10
1.765199999999999
 20
0.2044999999999999
 30
0.0
 70
    64
  0
VERTEX
  5
755B1
330
755AE
100
AcDbEntity
  8
0
100
AcDbVertex
100
AcDbPolygonMeshVertex
 10
1.765199999999999
 20
0.2044999999999999
 30
0.0
 70
    64
  0
VERTEX
  5
755B2
330
755AE
100
AcDbEntity
  8
0
100
AcDbVertex
100
AcDbPolygonMeshVertex
 10
0.0052
 20
0.2044999999999999
 30
0.187
 70
    64
  0
VERTEX
  5
755B3
330
755AE
100
AcDbEntity
  8
0
100
AcDbVertex
100
AcDbPolygonMeshVertex
 10
0.0052
 20
0.2044999999999999
 30
0.0
 70
    64
  0
VERTEX
  5
755B4
330
755AE
100
AcDbEntity
  8
0
100
AcDbVertex
100
AcDbPolygonMeshVertex
 10
0.0052
 20
0.2044999999999999
 30
0.0
 70
    64
  0
VERTEX
  5
755B5
330
755AE
100
AcDbEntity
  8
0
100
AcDbVertex
100
AcDbPolygonMeshVertex
 10
0.0052
 20
0.0
 30
0.187
 70
    64
  0
VERTEX
  5
755B6
330
755AE
100
AcDbEntity
  8
0
100
AcDbVertex
100
AcDbPolygonMeshVertex
 10
0.0052
 20
0.0
 30
0.0
 70
    64
  0
VERTEX
  5
755B7
330
755AE
100
AcDbEntity
  8
0
100
AcDbVertex
100
AcDbPolygonMeshVertex
 10
0.0052
 20
0.2044999999999999
 30
0.0
 70
    64
  0
VERTEX
  5
755B8
330
755AE
100
AcDbEntity
  8
0
100
AcDbVertex
100
AcDbPolygonMeshVertex
 10
1.765199999999999
 20
0.0
 30
0.187
 70
    64
  0
VERTEX
  5
755B9
330
755AE
100
AcDbEntity
  8
0
100
AcDbVertex
100
AcDbPolygonMeshVertex
 10
1.765199999999999
 20
0.0
 30
0.0
 70
    64
  0
VERTEX
  5
755BA
330
755AE
100
AcDbEntity
  8
0
100
AcDbVertex
100
AcDbPolygonMeshVertex
 10
1.765199999999999
 20
0.2044999999999999
 30
0.0
 70
    64
  0
VERTEX
  5
755BB
330
755AE
100
AcDbEntity
  8
0
100
AcDbVertex
100
AcDbPolygonMeshVertex
 10
1.765199999999999
 20
0.0
 30
0.187
 70
    64
  0
VERTEX
  5
755BC
330
755AE
100
AcDbEntity
  8
0
100
AcDbVertex
100
AcDbPolygonMeshVertex
 10
1.765199999999999
 20
0.0
 30
0.187
 70
    64
  0
VERTEX
  5
755BD
330
755AE
100
AcDbEntity
  8
0
100
AcDbVertex
100
AcDbPolygonMeshVertex
 10
1.765199999999999
 20
0.2044999999999999
 30
0.187
 70
    64
  0
VERTEX
  5
755BE
330
755AE
100
AcDbEntity
  8
0
100
AcDbVertex
100
AcDbPolygonMeshVertex
 10
0.0052
 20
0.0
 30
0.187
 70
    64
  0
VERTEX
  5
755BF
330
755AE
100
AcDbEntity
  8
0
100
AcDbVertex
100
AcDbPolygonMeshVertex
 10
0.0052
 20
0.0
 30
0.187
 70
    64
  0
VERTEX
  5
755C0
330
755AE
100
AcDbEntity
  8
0
100
AcDbVertex
100
AcDbPolygonMeshVertex
 10
0.0052
 20
0.2044999999999999
 30
0.187
 70
    64
  0
SEQEND
  5
755C1
330
755AE
100
AcDbEntity
  8
0
  0
POLYLINE
  5
755C2
330
458D6
100
AcDbEntity
  8
0
100
AcDbPolygonMesh
 66
     1
 10
0.0
 20
0.0
 30
0.0
 70
    16
 71
     6
 72
     3
  0
VERTEX
  5
755C3
330
755C2
100
AcDbEntity
  8
0
100
AcDbVertex
100
AcDbPolygonMeshVertex
 10
0.3962
 20
-2.081499999999999
 30
0.316
 70
    64
  0
VERTEX
  5
755C4
330
755C2
100
AcDbEntity
  8
0
100
AcDbVertex
100
AcDbPolygonMeshVertex
 10
0.3962
 20
-2.081499999999999
 30
0.0
 70
    64
  0
VERTEX
  5
755C5
330
755C2
100
AcDbEntity
  8
0
100
AcDbVertex
100
AcDbPolygonMeshVertex
 10
0.3962
 20
-2.081499999999999
 30
0.0
 70
    64
  0
VERTEX
  5
755C6
330
755C2
100
AcDbEntity
  8
0
100
AcDbVertex
100
AcDbPolygonMeshVertex
 10
0.0052
 20
-2.081499999999999
 30
0.316
 70
    64
  0
VERTEX
  5
755C7
330
755C2
100
AcDbEntity
  8
0
100
AcDbVertex
100
AcDbPolygonMeshVertex
 10
0.0052
 20
-2.081499999999999
 30
0.0
 70
    64
  0
VERTEX
  5
755C8
330
755C2
100
AcDbEntity
  8
0
100
AcDbVertex
100
AcDbPolygonMeshVertex
 10
0.0052
 20
-2.081499999999999
 30
0.0
 70
    64
  0
VERTEX
  5
755C9
330
755C2
100
AcDbEntity
  8
0
100
AcDbVertex
100
AcDbPolygonMeshVertex
 10
0.0052
 20
-1.685499999999999
 30
0.316
 70
    64
  0
VERTEX
  5
755CA
330
755C2
100
AcDbEntity
  8
0
100
AcDbVertex
100
AcDbPolygonMeshVertex
 10
0.0052
 20
-1.685499999999999
 30
0.0
 70
    64
  0
VERTEX
  5
755CB
330
755C2
100
AcDbEntity
  8
0
100
AcDbVertex
100
AcDbPolygonMeshVertex
 10
0.0052
 20
-2.081499999999999
 30
0.0
 70
    64
  0
VERTEX
  5
755CC
330
755C2
100
AcDbEntity
  8
0
100
AcDbVertex
100
AcDbPolygonMeshVertex
 10
0.3962
 20
-1.685499999999999
 30
0.316
 70
    64
  0
VERTEX
  5
755CD
330
755C2
100
AcDbEntity
  8
0
100
AcDbVertex
100
AcDbPolygonMeshVertex
 10
0.3962
 20
-1.685499999999999
 30
0.0
 70
    64
  0
VERTEX
  5
755CE
330
755C2
100
AcDbEntity
  8
0
100
AcDbVertex
100
AcDbPolygonMeshVertex
 10
0.3962
 20
-2.081499999999999
 30
0.0
 70
    64
  0
VERTEX
  5
755CF
330
755C2
100
AcDbEntity
  8
0
100
AcDbVertex
100
AcDbPolygonMeshVertex
 10
0.3962
 20
-1.685499999999999
 30
0.316
 70
    64
  0
VERTEX
  5
755D0
330
755C2
100
AcDbEntity
  8
0
100
AcDbVertex
100
AcDbPolygonMeshVertex
 10
0.3962
 20
-1.685499999999999
 30
0.316
 70
    64
  0
VERTEX
  5
755D1
330
755C2
100
AcDbEntity
  8
0
100
AcDbVertex
100
AcDbPolygonMeshVertex
 10
0.3962
 20
-2.081499999999999
 30
0.316
 70
    64
  0
VERTEX
  5
755D2
330
755C2
100
AcDbEntity
  8
0
100
AcDbVertex
100
AcDbPolygonMeshVertex
 10
0.0052
 20
-1.685499999999999
 30
0.316
 70
    64
  0
VERTEX
  5
755D3
330
755C2
100
AcDbEntity
  8
0
100
AcDbVertex
100
AcDbPolygonMeshVertex
 10
0.0052
 20
-1.685499999999999
 30
0.316
 70
    64
  0
VERTEX
  5
755D4
330
755C2
100
AcDbEntity
  8
0
100
AcDbVertex
100
AcDbPolygonMeshVertex
 10
0.0052
 20
-2.081499999999999
 30
0.316
 70
    64
  0
SEQEND
  5
755D5
330
755C2
100
AcDbEntity
  8
0
  0
POINT
  5
755D6
330
458D6
100
AcDbEntity
  8
SNAP_POINTS
100
AcDbPoint
 10
0.0
 20
0.0
 30
0.0
  0
3DFACE
  5
755D7
330
458D6
100
AcDbEntity
  8
0
100
AcDbFace
 10
1.765199999999999
 20
-1.845499999999999
 30
3.587375
 11
1.765199999999999
 21
-1.845499999999999
 31
3.587375
 12
0.0002000000000001
 22
-1.845499999999999
 32
3.587375
 13
0.0002000000000001
 23
-1.845499999999999
 33
3.587375
  0
3DFACE
  5
755D8
330
458D6
100
AcDbEntity
  8
0
100
AcDbFace
 10
0.0002000000000001
 20
-1.845499999999999
 30
3.587375
 11
0.0002000000000001
 21
-1.845499999999999
 31
3.587375
 12
0.0002000000000001
 22
-1.845499999999999
 32
3.587375
 13
0.0002000000000001
 23
0.3984999999999994
 33
3.587375
  0
3DFACE
  5
755D9
330
458D6
100
AcDbEntity
  8
0
100
AcDbFace
 10
0.0002000000000001
 20
0.3984999999999994
 30
3.587375
 11
0.0002000000000001
 21
-1.845499999999999
 31
3.587375
 12
1.765199999999999
 22
-1.845499999999999
 32
3.587375
 13
1.765199999999999
 23
0.3984999999999994
 33
3.587375
  0
POLYLINE
  5
755DA
330
458D6
100
AcDbEntity
  8
0
  6
Continuous
100
AcDb3dPolyline
 66
     1
 10
0.0
 20
0.0
 30
0.0
 70
     8
  0
VERTEX
  5
755DB
330
755DA
100
AcDbEntity
  8
0
  6
Continuous
100
AcDbVertex
100
AcDb3dPolylineVertex
 10
1.765199999999999
 20
0.3984999999999994
 30
3.587375
 70
    32
1001
ACAD
1000
R13OBJECT
1002
{
1005
755DA
1002
}
  0
VERTEX
  5
755DC
330
755DA
100
AcDbEntity
  8
0
  6
Continuous
100
AcDbVertex
100
AcDb3dPolylineVertex
 10
1.765199999999999
 20
-1.845500000000001
 30
3.587375
 70
    32
1001
ACAD
1000
R13OBJECT
1002
{
1005
755DA
1002
}
  0
SEQEND
  5
755DD
330
755DA
100
AcDbEntity
  8
0
  6
Continuous
  0
POLYLINE
  5
755DE
330
458D6
100
AcDbEntity
  8
0
  6
Continuous
100
AcDb3dPolyline
 66
     1
 10
0.0
 20
0.0
 30
0.0
 70
     8
1001
ACAD
1000
R13OBJECT
1002
{
1005
755DA
1002
}
  0
VERTEX
  5
755DF
330
755DE
100
AcDbEntity
  8
0
  6
Continuous
100
AcDbVertex
100
AcDb3dPolylineVertex
 10
1.765199999999999
 20
-1.845500000000001
 30
3.587375
 70
    32
1001
ACAD
1000
R13OBJECT
1002
{
1005
755DA
1002
}
  0
VERTEX
  5
755E0
330
755DE
100
AcDbEntity
  8
0
  6
Continuous
100
AcDbVertex
100
AcDb3dPolylineVertex
 10
0.0002000000000001
 20
-1.845500000000001
 30
3.587375
 70
    32
1001
ACAD
1000
R13OBJECT
1002
{
1005
755DA
1002
}
  0
SEQEND
  5
755E1
330
755DE
100
AcDbEntity
  8
0
  6
Continuous
  0
POLYLINE
  5
755E2
330
458D6
100
AcDbEntity
  8
0
  6
Continuous
100
AcDb3dPolyline
 66
     1
 10
0.0
 20
0.0
 30
0.0
 70
     8
1001
ACAD
1000
R13OBJECT
1002
{
1005
755DA
1002
}
  0
VERTEX
  5
755E3
330
755E2
100
AcDbEntity
  8
0
  6
Continuous
100
AcDbVertex
100
AcDb3dPolylineVertex
 10
0.0002000000000001
 20
-1.845500000000001
 30
3.587375
 70
    32
1001
ACAD
1000
R13OBJECT
1002
{
1005
755DA
1002
}
  0
VERTEX
  5
755E4
330
755E2
100
AcDbEntity
  8
0
  6
Continuous
100
AcDbVertex
100
AcDb3dPolylineVertex
 10
0.0002000000000001
 20
0.3984999999999994
 30
3.587375
 70
    32
1001
ACAD
1000
R13OBJECT
1002
{
1005
755DA
1002
}
  0
SEQEND
  5
755E5
330
755E2
100
AcDbEntity
  8
0
  6
Continuous
  0
POLYLINE
  5
755E6
330
458D6
100
AcDbEntity
  8
0
  6
Continuous
100
AcDb3dPolyline
 66
     1
 10
0.0
 20
0.0
 30
0.0
 70
     8
1001
ACAD
1000
R13OBJECT
1002
{
1005
755DA
1002
}
  0
VERTEX
  5
755E7
330
755E6
100
AcDbEntity
  8
0
  6
Continuous
100
AcDbVertex
100
AcDb3dPolylineVertex
 10
0.0002000000000001
 20
0.3984999999999994
 30
3.587375
 70
    32
1001
ACAD
1000
R13OBJECT
1002
{
1005
755DA
1002
}
  0
VERTEX
  5
755E8
330
755E6
100
AcDbEntity
  8
0
  6
Continuous
100
AcDbVertex
100
AcDb3dPolylineVertex
 10
1.765199999999999
 20
0.3984999999999994
 30
3.587375
 70
    32
1001
ACAD
1000
R13OBJECT
1002
{
1005
755DA
1002
}
  0
SEQEND
  5
755E9
330
755E6
100
AcDbEntity
  8
0
  6
Continuous
  0
POLYLINE
  5
755EA
330
458D6
100
AcDbEntity
  8
0
  6
Continuous
100
AcDb3dPolyline
 66
     1
 10
0.0
 20
0.0
 30
0.0
 70
     8
  0
VERTEX
  5
755EB
330
755EA
100
AcDbEntity
  8
0
  6
Continuous
100
AcDbVertex
100
AcDb3dPolylineVertex
 10
0.0002000000000001
 20
-1.845500000000001
 30
4.609375
 70
    32
1001
ACAD
1000
R13OBJECT
1002
{
1005
755EA
1002
}
  0
VERTEX
  5
755EC
330
755EA
100
AcDbEntity
  8
0
  6
Continuous
100
AcDbVertex
100
AcDb3dPolylineVertex
 10
0.0002000000000001
 20
-1.845500000000001
 30
3.587375
 70
    32
1001
ACAD
1000
R13OBJECT
1002
{
1005
755EA
1002
}
  0
SEQEND
  5
755ED
330
755EA
100
AcDbEntity
  8
0
  6
Continuous
  0
POLYLINE
  5
755EE
330
458D6
100
AcDbEntity
  8
0
  6
Continuous
100
AcDb3dPolyline
 66
     1
 10
0.0
 20
0.0
 30
0.0
 70
     8
1001
ACAD
1000
R13OBJECT
1002
{
1005
755EA
1002
}
  0
VERTEX
  5
755EF
330
755EE
100
AcDbEntity
  8
0
  6
Continuous
100
AcDbVertex
100
AcDb3dPolylineVertex
 10
1.765199999999999
 20
-1.845500000000001
 30
3.587375
 70
    32
1001
ACAD
1000
R13OBJECT
1002
{
1005
755EA
1002
}
  0
VERTEX
  5
755F0
330
755EE
100
AcDbEntity
  8
0
  6
Continuous
100
AcDbVertex
100
AcDb3dPolylineVertex
 10
0.0002000000000001
 20
-1.845500000000001
 30
3.587375
 70
    32
1001
ACAD
1000
R13OBJECT
1002
{
1005
755EA
1002
}
  0
SEQEND
  5
755F1
330
755EE
100
AcDbEntity
  8
0
  6
Continuous
  0
POLYLINE
  5
755F2
330
458D6
100
AcDbEntity
  8
0
  6
Continuous
100
AcDb3dPolyline
 66
     1
 10
0.0
 20
0.0
 30
0.0
 70
     8
1001
ACAD
1000
R13OBJECT
1002
{
1005
755EA
1002
}
  0
VERTEX
  5
755F3
330
755F2
100
AcDbEntity
  8
0
  6
Continuous
100
AcDbVertex
100
AcDb3dPolylineVertex
 10
1.765199999999999
 20
-1.845500000000001
 30
4.609375
 70
    32
1001
ACAD
1000
R13OBJECT
1002
{
1005
755EA
1002
}
  0
VERTEX
  5
755F4
330
755F2
100
AcDbEntity
  8
0
  6
Continuous
100
AcDbVertex
100
AcDb3dPolylineVertex
 10
1.765199999999999
 20
-1.845500000000001
 30
3.587375
 70
    32
1001
ACAD
1000
R13OBJECT
1002
{
1005
755EA
1002
}
  0
SEQEND
  5
755F5
330
755F2
100
AcDbEntity
  8
0
  6
Continuous
  0
POLYLINE
  5
755F6
330
458D6
100
AcDbEntity
  8
0
  6
Continuous
100
AcDb3dPolyline
 66
     1
 10
0.0
 20
0.0
 30
0.0
 70
     8
1001
ACAD
1000
R13OBJECT
1002
{
1005
755EA
1002
}
  0
VERTEX
  5
755F7
330
755F6
100
AcDbEntity
  8
0
  6
Continuous
100
AcDbVertex
100
AcDb3dPolylineVertex
 10
0.0002000000000001
 20
-1.845500000000001
 30
4.609375
 70
    32
1001
ACAD
1000
R13OBJECT
1002
{
1005
755EA
1002
}
  0
VERTEX
  5
755F8
330
755F6
100
AcDbEntity
  8
0
  6
Continuous
100
AcDbVertex
100
AcDb3dPolylineVertex
 10
1.765199999999999
 20
-1.845500000000001
 30
4.609375
 70
    32
1001
ACAD
1000
R13OBJECT
1002
{
1005
755EA
1002
}
  0
SEQEND
  5
755F9
330
755F6
100
AcDbEntity
  8
0
  6
Continuous
  0
POLYLINE
  5
755FA
330
458D6
100
AcDbEntity
  8
0
  6
Continuous
100
AcDb3dPolyline
 66
     1
 10
0.0
 20
0.0
 30
0.0
 70
     8
  0
VERTEX
  5
755FB
330
755FA
100
AcDbEntity
  8
0
  6
Continuous
100
AcDbVertex
100
AcDb3dPolylineVertex
 10
1.765199999999999
 20
0.3984999999999994
 30
4.609375
 70
    32
1001
ACAD
1000
R13OBJECT
1002
{
1005
755FA
1002
}
  0
VERTEX
  5
755FC
330
755FA
100
AcDbEntity
  8
0
  6
Continuous
100
AcDbVertex
100
AcDb3dPolylineVertex
 10
1.765199999999999
 20
0.3984999999999994
 30
3.587375
 70
    32
1001
ACAD
1000
R13OBJECT
1002
{
1005
755FA
1002
}
  0
SEQEND
  5
755FD
330
755FA
100
AcDbEntity
  8
0
  6
Continuous
  0
POLYLINE
  5
755FE
330
458D6
100
AcDbEntity
  8
0
  6
Continuous
100
AcDb3dPolyline
 66
     1
 10
0.0
 20
0.0
 30
0.0
 70
     8
1001
ACAD
1000
R13OBJECT
1002
{
1005
755FA
1002
}
  0
VERTEX
  5
755FF
330
755FE
100
AcDbEntity
  8
0
  6
Continuous
100
AcDbVertex
100
AcDb3dPolylineVertex
 10
0.0002000000000001
 20
0.3984999999999994
 30
3.587375
 70
    32
1001
ACAD
1000
R13OBJECT
1002
{
1005
755FA
1002
}
  0
VERTEX
  5
75600
330
755FE
100
AcDbEntity
  8
0
  6
Continuous
100
AcDbVertex
100
AcDb3dPolylineVertex
 10
1.765199999999999
 20
0.3984999999999994
 30
3.587375
 70
    32
1001
ACAD
1000
R13OBJECT
1002
{
1005
755FA
1002
}
  0
SEQEND
  5
75601
330
755FE
100
AcDbEntity
  8
0
  6
Continuous
  0
POLYLINE
  5
75602
330
458D6
100
AcDbEntity
  8
0
  6
Continuous
100
AcDb3dPolyline
 66
     1
 10
0.0
 20
0.0
 30
0.0
 70
     8
1001
ACAD
1000
R13OBJECT
1002
{
1005
755FA
1002
}
  0
VERTEX
  5
75603
330
75602
100
AcDbEntity
  8
0
  6
Continuous
100
AcDbVertex
100
AcDb3dPolylineVertex
 10
0.0002000000000001
 20
0.3984999999999994
 30
4.609375
 70
    32
1001
ACAD
1000
R13OBJECT
1002
{
1005
755FA
1002
}
  0
VERTEX
  5
75604
330
75602
100
AcDbEntity
  8
0
  6
Continuous
100
AcDbVertex
100
AcDb3dPolylineVertex
 10
0.0002000000000001
 20
0.3984999999999994
 30
3.587375
 70
    32
1001
ACAD
1000
R13OBJECT
1002
{
1005
755FA
1002
}
  0
SEQEND
  5
75605
330
75602
100
AcDbEntity
  8
0
  6
Continuous
  0
POLYLINE
  5
75606
330
458D6
100
AcDbEntity
  8
0
  6
Continuous
100
AcDb3dPolyline
 66
     1
 10
0.0
 20
0.0
 30
0.0
 70
     8
1001
ACAD
1000
R13OBJECT
1002
{
1005
755FA
1002
}
  0
VERTEX
  5
75607
330
75606
100
AcDbEntity
  8
0
  6
Continuous
100
AcDbVertex
100
AcDb3dPolylineVertex
 10
1.765199999999999
 20
0.3984999999999994
 30
4.609375
 70
    32
1001
ACAD
1000
R13OBJECT
1002
{
1005
755FA
1002
}
  0
VERTEX
  5
75608
330
75606
100
AcDbEntity
  8
0
  6
Continuous
100
AcDbVertex
100
AcDb3dPolylineVertex
 10
0.0002000000000001
 20
0.3984999999999994
 30
4.609375
 70
    32
1001
ACAD
1000
R13OBJECT
1002
{
1005
755FA
1002
}
  0
SEQEND
  5
75609
330
75606
100
AcDbEntity
  8
0
  6
Continuous
  0
POLYLINE
  5
7560A
330
458D6
100
AcDbEntity
  8
0
  6
Continuous
100
AcDb3dPolyline
 66
     1
 10
0.0
 20
0.0
 30
0.0
 70
     8
  0
VERTEX
  5
7560B
330
7560A
100
AcDbEntity
  8
0
  6
Continuous
100
AcDbVertex
100
AcDb3dPolylineVertex
 10
1.765199999999999
 20
-1.845500000000001
 30
4.609375
 70
    32
1001
ACAD
1000
R13OBJECT
1002
{
1005
7560A
1002
}
  0
VERTEX
  5
7560C
330
7560A
100
AcDbEntity
  8
0
  6
Continuous
100
AcDbVertex
100
AcDb3dPolylineVertex
 10
1.765199999999999
 20
-1.845500000000001
 30
3.587375
 70
    32
1001
ACAD
1000
R13OBJECT
1002
{
1005
7560A
1002
}
  0
SEQEND
  5
7560D
330
7560A
100
AcDbEntity
  8
0
  6
Continuous
  0
POLYLINE
  5
7560E
330
458D6
100
AcDbEntity
  8
0
  6
Continuous
100
AcDb3dPolyline
 66
     1
 10
0.0
 20
0.0
 30
0.0
 70
     8
1001
ACAD
1000
R13OBJECT
1002
{
1005
7560A
1002
}
  0
VERTEX
  5
7560F
330
7560E
100
AcDbEntity
  8
0
  6
Continuous
100
AcDbVertex
100
AcDb3dPolylineVertex
 10
1.765199999999999
 20
0.3984999999999994
 30
3.587375
 70
    32
1001
ACAD
1000
R13OBJECT
1002
{
1005
7560A
1002
}
  0
VERTEX
  5
75610
330
7560E
100
AcDbEntity
  8
0
  6
Continuous
100
AcDbVertex
100
AcDb3dPolylineVertex
 10
1.765199999999999
 20
-1.845500000000001
 30
3.587375
 70
    32
1001
ACAD
1000
R13OBJECT
1002
{
1005
7560A
1002
}
  0
SEQEND
  5
75611
330
7560E
100
AcDbEntity
  8
0
  6
Continuous
  0
POLYLINE
  5
75612
330
458D6
100
AcDbEntity
  8
0
  6
Continuous
100
AcDb3dPolyline
 66
     1
 10
0.0
 20
0.0
 30
0.0
 70
     8
1001
ACAD
1000
R13OBJECT
1002
{
1005
7560A
1002
}
  0
VERTEX
  5
75613
330
75612
100
AcDbEntity
  8
0
  6
Continuous
100
AcDbVertex
100
AcDb3dPolylineVertex
 10
1.765199999999999
 20
0.3984999999999994
 30
4.609375
 70
    32
1001
ACAD
1000
R13OBJECT
1002
{
1005
7560A
1002
}
  0
VERTEX
  5
75614
330
75612
100
AcDbEntity
  8
0
  6
Continuous
100
AcDbVertex
100
AcDb3dPolylineVertex
 10
1.765199999999999
 20
0.3984999999999994
 30
3.587375
 70
    32
1001
ACAD
1000
R13OBJECT
1002
{
1005
7560A
1002
}
  0
SEQEND
  5
75615
330
75612
100
AcDbEntity
  8
0
  6
Continuous
  0
POLYLINE
  5
75616
330
458D6
100
AcDbEntity
  8
0
  6
Continuous
100
AcDb3dPolyline
 66
     1
 10
0.0
 20
0.0
 30
0.0
 70
     8
1001
ACAD
1000
R13OBJECT
1002
{
1005
7560A
1002
}
  0
VERTEX
  5
75617
330
75616
100
AcDbEntity
  8
0
  6
Continuous
100
AcDbVertex
100
AcDb3dPolylineVertex
 10
1.765199999999999
 20
-1.845500000000001
 30
4.609375
 70
    32
1001
ACAD
1000
R13OBJECT
1002
{
1005
7560A
1002
}
  0
VERTEX
  5
75618
330
75616
100
AcDbEntity
  8
0
  6
Continuous
100
AcDbVertex
100
AcDb3dPolylineVertex
 10
1.765199999999999
 20
0.3984999999999994
 30
4.609375
 70
    32
1001
ACAD
1000
R13OBJECT
1002
{
1005
7560A
1002
}
  0
SEQEND
  5
75619
330
75616
100
AcDbEntity
  8
0
  6
Continuous
  0
LINE
  5
7561A
330
458D6
100
AcDbEntity
  8
0
100
AcDbLine
 10
0.0002000000000001
 20
0.3984999999999994
 30
4.609375
 11
0.0002000000000001
 21
0.3984999999999994
 31
3.587375
210
-1.0
220
0.0
230
0.0
  0
LINE
  5
7561B
330
458D6
100
AcDbEntity
  8
0
100
AcDbLine
 10
0.0002000000000001
 20
0.3984999999999994
 30
4.609375
 11
0.0002000000000001
 21
-1.845500000000001
 31
4.609375
210
-1.0
220
0.0
230
0.0
  0
LINE
  5
7561C
330
458D6
100
AcDbEntity
  8
0
100
AcDbLine
 10
0.0002000000000001
 20
-1.845500000000001
 30
4.609375
 11
0.0002000000000001
 21
-1.845500000000001
 31
3.587375
210
-1.0
220
0.0
230
0.0
  0
3DFACE
  5
7561D
330
458D6
100
AcDbEntity
  8
0
100
AcDbFace
 10
1.765199999999999
 20
0.3984999999999985
 30
4.609375
 11
1.765199999999999
 21
-1.845500000000001
 31
4.609375
 12
0.0002000000000001
 22
-1.845500000000001
 32
4.609375
 13
0.0002000000000001
 23
0.3984999999999985
 33
4.609375
  0
POLYLINE
  5
7561E
330
458D6
100
AcDbEntity
  8
0
100
AcDbPolygonMesh
 66
     1
 10
0.0
 20
0.0
 30
0.0
 70
    16
 71
     6
 72
     3
  0
VERTEX
  5
7561F
330
7561E
100
AcDbEntity
  8
0
100
AcDbVertex
100
AcDbPolygonMeshVertex
 10
1.250699999999999
 20
-0.4394862069696881
 30
4.820375
 70
    64
  0
VERTEX
  5
75620
330
7561E
100
AcDbEntity
  8
0
100
AcDbVertex
100
AcDbPolygonMeshVertex
 10
1.250699999999999
 20
-0.4394862069696881
 30
4.643375
 70
    64
  0
VERTEX
  5
75621
330
7561E
100
AcDbEntity
  8
0
100
AcDbVertex
100
AcDbPolygonMeshVertex
 10
1.250699999999999
 20
-0.4394862069696881
 30
4.643375
 70
    64
  0
VERTEX
  5
75622
330
7561E
100
AcDbEntity
  8
0
100
AcDbVertex
100
AcDbPolygonMeshVertex
 10
1.081199999999998
 20
-0.4394862069696881
 30
4.820375
 70
    64
  0
VERTEX
  5
75623
330
7561E
100
AcDbEntity
  8
0
100
AcDbVertex
100
AcDbPolygonMeshVertex
 10
1.081199999999998
 20
-0.4394862069696881
 30
4.643375
 70
    64
  0
VERTEX
  5
75624
330
7561E
100
AcDbEntity
  8
0
100
AcDbVertex
100
AcDbPolygonMeshVertex
 10
1.081199999999998
 20
-0.4394862069696881
 30
4.643375
 70
    64
  0
VERTEX
  5
75625
330
7561E
100
AcDbEntity
  8
0
100
AcDbVertex
100
AcDbPolygonMeshVertex
 10
1.081199999999998
 20
-0.0864862069696884
 30
4.820375
 70
    64
  0
VERTEX
  5
75626
330
7561E
100
AcDbEntity
  8
0
100
AcDbVertex
100
AcDbPolygonMeshVertex
 10
1.081199999999998
 20
-0.0864862069696884
 30
4.643375
 70
    64
  0
VERTEX
  5
75627
330
7561E
100
AcDbEntity
  8
0
100
AcDbVertex
100
AcDbPolygonMeshVertex
 10
1.081199999999998
 20
-0.4394862069696881
 30
4.643375
 70
    64
  0
VERTEX
  5
75628
330
7561E
100
AcDbEntity
  8
0
100
AcDbVertex
100
AcDbPolygonMeshVertex
 10
1.250699999999999
 20
-0.0864862069696884
 30
4.820375
 70
    64
  0
VERTEX
  5
75629
330
7561E
100
AcDbEntity
  8
0
100
AcDbVertex
100
AcDbPolygonMeshVertex
 10
1.250699999999999
 20
-0.0864862069696884
 30
4.643375
 70
    64
  0
VERTEX
  5
7562A
330
7561E
100
AcDbEntity
  8
0
100
AcDbVertex
100
AcDbPolygonMeshVertex
 10
1.250699999999999
 20
-0.4394862069696881
 30
4.643375
 70
    64
  0
VERTEX
  5
7562B
330
7561E
100
AcDbEntity
  8
0
100
AcDbVertex
100
AcDbPolygonMeshVertex
 10
1.250699999999999
 20
-0.0864862069696884
 30
4.820375
 70
    64
  0
VERTEX
  5
7562C
330
7561E
100
AcDbEntity
  8
0
100
AcDbVertex
100
AcDbPolygonMeshVertex
 10
1.250699999999999
 20
-0.0864862069696884
 30
4.820375
 70
    64
  0
VERTEX
  5
7562D
330
7561E
100
AcDbEntity
  8
0
100
AcDbVertex
100
AcDbPolygonMeshVertex
 10
1.250699999999999
 20
-0.4394862069696881
 30
4.820375
 70
    64
  0
VERTEX
  5
7562E
330
7561E
100
AcDbEntity
  8
0
100
AcDbVertex
100
AcDbPolygonMeshVertex
 10
1.081199999999998
 20
-0.0864862069696884
 30
4.820375
 70
    64
  0
VERTEX
  5
7562F
330
7561E
100
AcDbEntity
  8
0
100
AcDbVertex
100
AcDbPolygonMeshVertex
 10
1.081199999999998
 20
-0.0864862069696884
 30
4.820375
 70
    64
  0
VERTEX
  5
75630
330
7561E
100
AcDbEntity
  8
0
100
AcDbVertex
100
AcDbPolygonMeshVertex
 10
1.081199999999998
 20
-0.4394862069696881
 30
4.820375
 70
    64
  0
SEQEND
  5
75631
330
7561E
100
AcDbEntity
  8
0
  0
POLYLINE
  5
75632
330
458D6
100
AcDbEntity
  8
0
100
AcDbPolygonMesh
 66
     1
 10
0.0
 20
0.0
 30
0.0
 70
    16
 71
     6
 72
     3
  0
VERTEX
  5
75633
330
75632
100
AcDbEntity
  8
0
100
AcDbVertex
100
AcDbPolygonMeshVertex
 10
1.122699999999998
 20
-0.8944862069696878
 30
4.859375000000001
 70
    64
  0
VERTEX
  5
75634
330
75632
100
AcDbEntity
  8
0
100
AcDbVertex
100
AcDbPolygonMeshVertex
 10
1.122699999999998
 20
-0.8944862069696878
 30
4.643375
 70
    64
  0
VERTEX
  5
75635
330
75632
100
AcDbEntity
  8
0
100
AcDbVertex
100
AcDbPolygonMeshVertex
 10
1.122699999999998
 20
-0.8944862069696878
 30
4.643375
 70
    64
  0
VERTEX
  5
75636
330
75632
100
AcDbEntity
  8
0
100
AcDbVertex
100
AcDbPolygonMeshVertex
 10
0.987699999999999
 20
-0.8944862069696878
 30
4.859375000000001
 70
    64
  0
VERTEX
  5
75637
330
75632
100
AcDbEntity
  8
0
100
AcDbVertex
100
AcDbPolygonMeshVertex
 10
0.987699999999999
 20
-0.8944862069696878
 30
4.643375
 70
    64
  0
VERTEX
  5
75638
330
75632
100
AcDbEntity
  8
0
100
AcDbVertex
100
AcDbPolygonMeshVertex
 10
0.987699999999999
 20
-0.8944862069696878
 30
4.643375
 70
    64
  0
VERTEX
  5
75639
330
75632
100
AcDbEntity
  8
0
100
AcDbVertex
100
AcDbPolygonMeshVertex
 10
0.987699999999999
 20
-0.5494862069696876
 30
4.859375000000001
 70
    64
  0
VERTEX
  5
7563A
330
75632
100
AcDbEntity
  8
0
100
AcDbVertex
100
AcDbPolygonMeshVertex
 10
0.987699999999999
 20
-0.5494862069696876
 30
4.643375
 70
    64
  0
VERTEX
  5
7563B
330
75632
100
AcDbEntity
  8
0
100
AcDbVertex
100
AcDbPolygonMeshVertex
 10
0.987699999999999
 20
-0.8944862069696878
 30
4.643375
 70
    64
  0
VERTEX
  5
7563C
330
75632
100
AcDbEntity
  8
0
100
AcDbVertex
100
AcDbPolygonMeshVertex
 10
1.122699999999998
 20
-0.5494862069696876
 30
4.859375000000001
 70
    64
  0
VERTEX
  5
7563D
330
75632
100
AcDbEntity
  8
0
100
AcDbVertex
100
AcDbPolygonMeshVertex
 10
1.122699999999998
 20
-0.5494862069696876
 30
4.643375
 70
    64
  0
VERTEX
  5
7563E
330
75632
100
AcDbEntity
  8
0
100
AcDbVertex
100
AcDbPolygonMeshVertex
 10
1.122699999999998
 20
-0.8944862069696878
 30
4.643375
 70
    64
  0
VERTEX
  5
7563F
330
75632
100
AcDbEntity
  8
0
100
AcDbVertex
100
AcDbPolygonMeshVertex
 10
1.122699999999998
 20
-0.5494862069696876
 30
4.859375000000001
 70
    64
  0
VERTEX
  5
75640
330
75632
100
AcDbEntity
  8
0
100
AcDbVertex
100
AcDbPolygonMeshVertex
 10
1.122699999999998
 20
-0.5494862069696876
 30
4.859375000000001
 70
    64
  0
VERTEX
  5
75641
330
75632
100
AcDbEntity
  8
0
100
AcDbVertex
100
AcDbPolygonMeshVertex
 10
1.122699999999998
 20
-0.8944862069696878
 30
4.859375000000001
 70
    64
  0
VERTEX
  5
75642
330
75632
100
AcDbEntity
  8
0
100
AcDbVertex
100
AcDbPolygonMeshVertex
 10
0.987699999999999
 20
-0.5494862069696876
 30
4.859375000000001
 70
    64
  0
VERTEX
  5
75643
330
75632
100
AcDbEntity
  8
0
100
AcDbVertex
100
AcDbPolygonMeshVertex
 10
0.987699999999999
 20
-0.5494862069696876
 30
4.859375000000001
 70
    64
  0
VERTEX
  5
75644
330
75632
100
AcDbEntity
  8
0
100
AcDbVertex
100
AcDbPolygonMeshVertex
 10
0.987699999999999
 20
-0.8944862069696878
 30
4.859375000000001
 70
    64
  0
SEQEND
  5
75645
330
75632
100
AcDbEntity
  8
0
  0
3DFACE
  5
75646
330
458D6
100
AcDbEntity
  8
0
100
AcDbFace
 10
1.765199999999999
 20
0.3984999999999985
 30
4.609375
 11
1.765199999999999
 21
0.3984999999999985
 31
4.609375
 12
0.0002000000000001
 22
0.3984999999999985
 32
4.609375
 13
0.0002000000000001
 23
0.3984999999999985
 33
4.609375
  0
CIRCLE
  5
75647
330
458D6
100
AcDbEntity
  8
0
100
AcDbCircle
 10
0.2380749999999995
 20
0.1549075779401257
 30
4.609375
 40
0.138
  0
TEXT
  5
75648
330
458D6
100
AcDbEntity
  8
0
100
AcDbText
 10
0.0726171893171534
 20
0.301596169847989
 30
4.609375
 40
0.0834654981097751
  1
1
100
AcDbText
  0
TEXT
  5
75649
330
458D6
100
AcDbEntity
  8
0
100
AcDbText
 10
1.169566170998377
 20
0.304735651778393
 30
4.609375
 40
0.0834654981097751
  1
L3
100
AcDbText
  0
TEXT
  5
7564A
330
458D6
100
AcDbEntity
  8
0
100
AcDbText
 10
0.7630191193613373
 20
0.3013239366769129
 30
4.609375
 40
0.0834654981097751
  1
L2
100
AcDbText
  0
TEXT
  5
7564B
330
458D6
100
AcDbEntity
  8
0
100
AcDbText
 10
0.3363953097455404
 20
0.3007543037421421
 30
4.609375
 40
0.0834654981097751
  1
L1
100
AcDbText
  0
TEXT
  5
7564C
330
458D6
100
AcDbEntity
  8
0
100
AcDbText
 10
0.5233684387662298
 20
0.299912437636296
 30
4.609375
 40
0.0834654981097751
  1
3
100
AcDbText
  0
TEXT
  5
7564D
330
458D6
100
AcDbEntity
  8
0
100
AcDbText
 10
0.9649023543462657
 20
0.3027354357175298
 30
4.609375
 40
0.0834654981097751
  1
5
100
AcDbText
  0
TEXT
  5
7564E
330
458D6
100
AcDbEntity
  8
0
100
AcDbText
 10
1.599316170998377
 20
0.304735651778393
 30
4.609375
 40
0.0834654981097751
  1
NC
100
AcDbText
  0
TEXT
  5
7564F
330
458D6
100
AcDbEntity
  8
0
100
AcDbText
 10
1.370108047435937
 20
0.3027354357175298
 30
4.609375
 40
0.0834654981097751
  1
21
100
AcDbText
  0
POLYLINE
  5
75650
330
458D6
100
AcDbEntity
  8
0
100
AcDbPolygonMesh
 66
     1
 10
0.0
 20
0.0
 30
0.0
 70
    16
 71
     6
 72
     3
  0
VERTEX
  5
75651
330
75650
100
AcDbEntity
  8
0
100
AcDbVertex
100
AcDbPolygonMeshVertex
 10
1.2707
 20
-1.376486206969687
 30
4.809375000000001
 70
    64
  0
VERTEX
  5
75652
330
75650
100
AcDbEntity
  8
0
100
AcDbVertex
100
AcDbPolygonMeshVertex
 10
1.2707
 20
-1.376486206969687
 30
4.609375
 70
    64
  0
VERTEX
  5
75653
330
75650
100
AcDbEntity
  8
0
100
AcDbVertex
100
AcDbPolygonMeshVertex
 10
1.2707
 20
-1.376486206969687
 30
4.609375
 70
    64
  0
VERTEX
  5
75654
330
75650
100
AcDbEntity
  8
0
100
AcDbVertex
100
AcDbPolygonMeshVertex
 10
0.4996999999999995
 20
-1.376486206969687
 30
4.809375000000001
 70
    64
  0
VERTEX
  5
75655
330
75650
100
AcDbEntity
  8
0
100
AcDbVertex
100
AcDbPolygonMeshVertex
 10
0.4996999999999995
 20
-1.376486206969687
 30
4.609375
 70
    64
  0
VERTEX
  5
75656
330
75650
100
AcDbEntity
  8
0
100
AcDbVertex
100
AcDbPolygonMeshVertex
 10
0.4996999999999995
 20
-1.376486206969687
 30
4.609375
 70
    64
  0
VERTEX
  5
75657
330
75650
100
AcDbEntity
  8
0
100
AcDbVertex
100
AcDbPolygonMeshVertex
 10
0.4996999999999995
 20
-1.094486206969687
 30
4.809375000000001
 70
    64
  0
VERTEX
  5
75658
330
75650
100
AcDbEntity
  8
0
100
AcDbVertex
100
AcDbPolygonMeshVertex
 10
0.4996999999999995
 20
-1.094486206969687
 30
4.609375
 70
    64
  0
VERTEX
  5
75659
330
75650
100
AcDbEntity
  8
0
100
AcDbVertex
100
AcDbPolygonMeshVertex
 10
0.4996999999999995
 20
-1.376486206969687
 30
4.609375
 70
    64
  0
VERTEX
  5
7565A
330
75650
100
AcDbEntity
  8
0
100
AcDbVertex
100
AcDbPolygonMeshVertex
 10
1.2707
 20
-1.094486206969687
 30
4.809375000000001
 70
    64
  0
VERTEX
  5
7565B
330
75650
100
AcDbEntity
  8
0
100
AcDbVertex
100
AcDbPolygonMeshVertex
 10
1.2707
 20
-1.094486206969687
 30
4.609375
 70
    64
  0
VERTEX
  5
7565C
330
75650
100
AcDbEntity
  8
0
100
AcDbVertex
100
AcDbPolygonMeshVertex
 10
1.2707
 20
-1.376486206969687
 30
4.609375
 70
    64
  0
VERTEX
  5
7565D
330
75650
100
AcDbEntity
  8
0
100
AcDbVertex
100
AcDbPolygonMeshVertex
 10
1.2707
 20
-1.094486206969687
 30
4.809375000000001
 70
    64
  0
VERTEX
  5
7565E
330
75650
100
AcDbEntity
  8
0
100
AcDbVertex
100
AcDbPolygonMeshVertex
 10
1.2707
 20
-1.094486206969687
 30
4.809375000000001
 70
    64
  0
VERTEX
  5
7565F
330
75650
100
AcDbEntity
  8
0
100
AcDbVertex
100
AcDbPolygonMeshVertex
 10
1.2707
 20
-1.376486206969687
 30
4.809375000000001
 70
    64
  0
VERTEX
  5
75660
330
75650
100
AcDbEntity
  8
0
100
AcDbVertex
100
AcDbPolygonMeshVertex
 10
0.4996999999999995
 20
-1.094486206969687
 30
4.809375000000001
 70
    64
  0
VERTEX
  5
75661
330
75650
100
AcDbEntity
  8
0
100
AcDbVertex
100
AcDbPolygonMeshVertex
 10
0.4996999999999995
 20
-1.094486206969687
 30
4.809375000000001
 70
    64
  0
VERTEX
  5
75662
330
75650
100
AcDbEntity
  8
0
100
AcDbVertex
100
AcDbPolygonMeshVertex
 10
0.4996999999999995
 20
-1.376486206969687
 30
4.809375000000001
 70
    64
  0
SEQEND
  5
75663
330
75650
100
AcDbEntity
  8
0
  0
POLYLINE
  5
75664
330
458D6
100
AcDbEntity
  8
0
100
AcDbPolygonMesh
 66
     1
 10
0.0
 20
0.0
 30
0.0
 70
    16
 71
     6
 72
     3
  0
VERTEX
  5
75665
330
75664
100
AcDbEntity
  8
0
100
AcDbVertex
100
AcDbPolygonMeshVertex
 10
1.250699999999999
 20
-0.4394862069696881
 30
4.643375
 70
    64
  0
VERTEX
  5
75666
330
75664
100
AcDbEntity
  8
0
100
AcDbVertex
100
AcDbPolygonMeshVertex
 10
1.250699999999999
 20
-0.4394862069696881
 30
4.609375
 70
    64
  0
VERTEX
  5
75667
330
75664
100
AcDbEntity
  8
0
100
AcDbVertex
100
AcDbPolygonMeshVertex
 10
1.250699999999999
 20
-0.4394862069696881
 30
4.609375
 70
    64
  0
VERTEX
  5
75668
330
75664
100
AcDbEntity
  8
0
100
AcDbVertex
100
AcDbPolygonMeshVertex
 10
0.5196999999999991
 20
-0.4394862069696881
 30
4.643375
 70
    64
  0
VERTEX
  5
75669
330
75664
100
AcDbEntity
  8
0
100
AcDbVertex
100
AcDbPolygonMeshVertex
 10
0.5196999999999991
 20
-0.4394862069696881
 30
4.609375
 70
    64
  0
VERTEX
  5
7566A
330
75664
100
AcDbEntity
  8
0
100
AcDbVertex
100
AcDbPolygonMeshVertex
 10
0.5196999999999991
 20
-0.4394862069696881
 30
4.609375
 70
    64
  0
VERTEX
  5
7566B
330
75664
100
AcDbEntity
  8
0
100
AcDbVertex
100
AcDbPolygonMeshVertex
 10
0.5196999999999991
 20
-0.0864862069696884
 30
4.643375
 70
    64
  0
VERTEX
  5
7566C
330
75664
100
AcDbEntity
  8
0
100
AcDbVertex
100
AcDbPolygonMeshVertex
 10
0.5196999999999991
 20
-0.0864862069696884
 30
4.609375
 70
    64
  0
VERTEX
  5
7566D
330
75664
100
AcDbEntity
  8
0
100
AcDbVertex
100
AcDbPolygonMeshVertex
 10
0.5196999999999991
 20
-0.4394862069696881
 30
4.609375
 70
    64
  0
VERTEX
  5
7566E
330
75664
100
AcDbEntity
  8
0
100
AcDbVertex
100
AcDbPolygonMeshVertex
 10
1.250699999999999
 20
-0.0864862069696884
 30
4.643375
 70
    64
  0
VERTEX
  5
7566F
330
75664
100
AcDbEntity
  8
0
100
AcDbVertex
100
AcDbPolygonMeshVertex
 10
1.250699999999999
 20
-0.0864862069696884
 30
4.609375
 70
    64
  0
VERTEX
  5
75670
330
75664
100
AcDbEntity
  8
0
100
AcDbVertex
100
AcDbPolygonMeshVertex
 10
1.250699999999999
 20
-0.4394862069696881
 30
4.609375
 70
    64
  0
VERTEX
  5
75671
330
75664
100
AcDbEntity
  8
0
100
AcDbVertex
100
AcDbPolygonMeshVertex
 10
1.250699999999999
 20
-0.0864862069696884
 30
4.643375
 70
    64
  0
VERTEX
  5
75672
330
75664
100
AcDbEntity
  8
0
100
AcDbVertex
100
AcDbPolygonMeshVertex
 10
1.250699999999999
 20
-0.0864862069696884
 30
4.643375
 70
    64
  0
VERTEX
  5
75673
330
75664
100
AcDbEntity
  8
0
100
AcDbVertex
100
AcDbPolygonMeshVertex
 10
1.250699999999999
 20
-0.4394862069696881
 30
4.643375
 70
    64
  0
VERTEX
  5
75674
330
75664
100
AcDbEntity
  8
0
100
AcDbVertex
100
AcDbPolygonMeshVertex
 10
0.5196999999999991
 20
-0.0864862069696884
 30
4.643375
 70
    64
  0
VERTEX
  5
75675
330
75664
100
AcDbEntity
  8
0
100
AcDbVertex
100
AcDbPolygonMeshVertex
 10
0.5196999999999991
 20
-0.0864862069696884
 30
4.643375
 70
    64
  0
VERTEX
  5
75676
330
75664
100
AcDbEntity
  8
0
100
AcDbVertex
100
AcDbPolygonMeshVertex
 10
0.5196999999999991
 20
-0.4394862069696881
 30
4.643375
 70
    64
  0
SEQEND
  5
75677
330
75664
100
AcDbEntity
  8
0
  0
POLYLINE
  5
75678
330
458D6
100
AcDbEntity
  8
0
100
AcDbPolygonMesh
 66
     1
 10
0.0
 20
0.0
 30
0.0
 70
    16
 71
     6
 72
     3
  0
VERTEX
  5
75679
330
75678
100
AcDbEntity
  8
0
100
AcDbVertex
100
AcDbPolygonMeshVertex
 10
0.6891999999999993
 20
-0.4394862069696881
 30
4.820375
 70
    64
  0
VERTEX
  5
7567A
330
75678
100
AcDbEntity
  8
0
100
AcDbVertex
100
AcDbPolygonMeshVertex
 10
0.6891999999999993
 20
-0.4394862069696881
 30
4.643375
 70
    64
  0
VERTEX
  5
7567B
330
75678
100
AcDbEntity
  8
0
100
AcDbVertex
100
AcDbPolygonMeshVertex
 10
0.6891999999999993
 20
-0.4394862069696881
 30
4.643375
 70
    64
  0
VERTEX
  5
7567C
330
75678
100
AcDbEntity
  8
0
100
AcDbVertex
100
AcDbPolygonMeshVertex
 10
0.5196999999999991
 20
-0.4394862069696881
 30
4.820375
 70
    64
  0
VERTEX
  5
7567D
330
75678
100
AcDbEntity
  8
0
100
AcDbVertex
100
AcDbPolygonMeshVertex
 10
0.5196999999999991
 20
-0.4394862069696881
 30
4.643375
 70
    64
  0
VERTEX
  5
7567E
330
75678
100
AcDbEntity
  8
0
100
AcDbVertex
100
AcDbPolygonMeshVertex
 10
0.5196999999999991
 20
-0.4394862069696881
 30
4.643375
 70
    64
  0
VERTEX
  5
7567F
330
75678
100
AcDbEntity
  8
0
100
AcDbVertex
100
AcDbPolygonMeshVertex
 10
0.5196999999999991
 20
-0.0864862069696884
 30
4.820375
 70
    64
  0
VERTEX
  5
75680
330
75678
100
AcDbEntity
  8
0
100
AcDbVertex
100
AcDbPolygonMeshVertex
 10
0.5196999999999991
 20
-0.0864862069696884
 30
4.643375
 70
    64
  0
VERTEX
  5
75681
330
75678
100
AcDbEntity
  8
0
100
AcDbVertex
100
AcDbPolygonMeshVertex
 10
0.5196999999999991
 20
-0.4394862069696881
 30
4.643375
 70
    64
  0
VERTEX
  5
75682
330
75678
100
AcDbEntity
  8
0
100
AcDbVertex
100
AcDbPolygonMeshVertex
 10
0.6891999999999993
 20
-0.0864862069696884
 30
4.820375
 70
    64
  0
VERTEX
  5
75683
330
75678
100
AcDbEntity
  8
0
100
AcDbVertex
100
AcDbPolygonMeshVertex
 10
0.6891999999999993
 20
-0.0864862069696884
 30
4.643375
 70
    64
  0
VERTEX
  5
75684
330
75678
100
AcDbEntity
  8
0
100
AcDbVertex
100
AcDbPolygonMeshVertex
 10
0.6891999999999993
 20
-0.4394862069696881
 30
4.643375
 70
    64
  0
VERTEX
  5
75685
330
75678
100
AcDbEntity
  8
0
100
AcDbVertex
100
AcDbPolygonMeshVertex
 10
0.6891999999999993
 20
-0.0864862069696884
 30
4.820375
 70
    64
  0
VERTEX
  5
75686
330
75678
100
AcDbEntity
  8
0
100
AcDbVertex
100
AcDbPolygonMeshVertex
 10
0.6891999999999993
 20
-0.0864862069696884
 30
4.820375
 70
    64
  0
VERTEX
  5
75687
330
75678
100
AcDbEntity
  8
0
100
AcDbVertex
100
AcDbPolygonMeshVertex
 10
0.6891999999999993
 20
-0.4394862069696881
 30
4.820375
 70
    64
  0
VERTEX
  5
75688
330
75678
100
AcDbEntity
  8
0
100
AcDbVertex
100
AcDbPolygonMeshVertex
 10
0.5196999999999991
 20
-0.0864862069696884
 30
4.820375
 70
    64
  0
VERTEX
  5
75689
330
75678
100
AcDbEntity
  8
0
100
AcDbVertex
100
AcDbPolygonMeshVertex
 10
0.5196999999999991
 20
-0.0864862069696884
 30
4.820375
 70
    64
  0
VERTEX
  5
7568A
330
75678
100
AcDbEntity
  8
0
100
AcDbVertex
100
AcDbPolygonMeshVertex
 10
0.5196999999999991
 20
-0.4394862069696881
 30
4.820375
 70
    64
  0
SEQEND
  5
7568B
330
75678
100
AcDbEntity
  8
0
  0
POLYLINE
  5
7568C
330
458D6
100
AcDbEntity
  8
0
100
AcDbPolygonMesh
 66
     1
 10
0.0
 20
0.0
 30
0.0
 70
    16
 71
     6
 72
     3
  0
VERTEX
  5
7568D
330
7568C
100
AcDbEntity
  8
0
100
AcDbVertex
100
AcDbPolygonMeshVertex
 10
0.782699999999999
 20
-0.8944862069696878
 30
4.859375000000001
 70
    64
  0
VERTEX
  5
7568E
330
7568C
100
AcDbEntity
  8
0
100
AcDbVertex
100
AcDbPolygonMeshVertex
 10
0.782699999999999
 20
-0.8944862069696878
 30
4.643375
 70
    64
  0
VERTEX
  5
7568F
330
7568C
100
AcDbEntity
  8
0
100
AcDbVertex
100
AcDbPolygonMeshVertex
 10
0.782699999999999
 20
-0.8944862069696878
 30
4.643375
 70
    64
  0
VERTEX
  5
75690
330
7568C
100
AcDbEntity
  8
0
100
AcDbVertex
100
AcDbPolygonMeshVertex
 10
0.6476999999999992
 20
-0.8944862069696878
 30
4.859375000000001
 70
    64
  0
VERTEX
  5
75691
330
7568C
100
AcDbEntity
  8
0
100
AcDbVertex
100
AcDbPolygonMeshVertex
 10
0.6476999999999992
 20
-0.8944862069696878
 30
4.643375
 70
    64
  0
VERTEX
  5
75692
330
7568C
100
AcDbEntity
  8
0
100
AcDbVertex
100
AcDbPolygonMeshVertex
 10
0.6476999999999992
 20
-0.8944862069696878
 30
4.643375
 70
    64
  0
VERTEX
  5
75693
330
7568C
100
AcDbEntity
  8
0
100
AcDbVertex
100
AcDbPolygonMeshVertex
 10
0.6476999999999992
 20
-0.5494862069696876
 30
4.859375000000001
 70
    64
  0
VERTEX
  5
75694
330
7568C
100
AcDbEntity
  8
0
100
AcDbVertex
100
AcDbPolygonMeshVertex
 10
0.6476999999999992
 20
-0.5494862069696876
 30
4.643375
 70
    64
  0
VERTEX
  5
75695
330
7568C
100
AcDbEntity
  8
0
100
AcDbVertex
100
AcDbPolygonMeshVertex
 10
0.6476999999999992
 20
-0.8944862069696878
 30
4.643375
 70
    64
  0
VERTEX
  5
75696
330
7568C
100
AcDbEntity
  8
0
100
AcDbVertex
100
AcDbPolygonMeshVertex
 10
0.782699999999999
 20
-0.5494862069696876
 30
4.859375000000001
 70
    64
  0
VERTEX
  5
75697
330
7568C
100
AcDbEntity
  8
0
100
AcDbVertex
100
AcDbPolygonMeshVertex
 10
0.782699999999999
 20
-0.5494862069696876
 30
4.643375
 70
    64
  0
VERTEX
  5
75698
330
7568C
100
AcDbEntity
  8
0
100
AcDbVertex
100
AcDbPolygonMeshVertex
 10
0.782699999999999
 20
-0.8944862069696878
 30
4.643375
 70
    64
  0
VERTEX
  5
75699
330
7568C
100
AcDbEntity
  8
0
100
AcDbVertex
100
AcDbPolygonMeshVertex
 10
0.782699999999999
 20
-0.5494862069696876
 30
4.859375000000001
 70
    64
  0
VERTEX
  5
7569A
330
7568C
100
AcDbEntity
  8
0
100
AcDbVertex
100
AcDbPolygonMeshVertex
 10
0.782699999999999
 20
-0.5494862069696876
 30
4.859375000000001
 70
    64
  0
VERTEX
  5
7569B
330
7568C
100
AcDbEntity
  8
0
100
AcDbVertex
100
AcDbPolygonMeshVertex
 10
0.782699999999999
 20
-0.8944862069696878
 30
4.859375000000001
 70
    64
  0
VERTEX
  5
7569C
330
7568C
100
AcDbEntity
  8
0
100
AcDbVertex
100
AcDbPolygonMeshVertex
 10
0.6476999999999992
 20
-0.5494862069696876
 30
4.859375000000001
 70
    64
  0
VERTEX
  5
7569D
330
7568C
100
AcDbEntity
  8
0
100
AcDbVertex
100
AcDbPolygonMeshVertex
 10
0.6476999999999992
 20
-0.5494862069696876
 30
4.859375000000001
 70
    64
  0
VERTEX
  5
7569E
330
7568C
100
AcDbEntity
  8
0
100
AcDbVertex
100
AcDbPolygonMeshVertex
 10
0.6476999999999992
 20
-0.8944862069696878
 30
4.859375000000001
 70
    64
  0
SEQEND
  5
7569F
330
7568C
100
AcDbEntity
  8
0
  0
CIRCLE
  5
756A0
330
458D6
100
AcDbEntity
  8
0
100
AcDbCircle
 10
0.6678249999999998
 20
-1.587879991879503
 30
4.609375
 40
0.138
  0
TEXT
  5
756A1
330
458D6
100
AcDbEntity
  8
0
100
AcDbText
 10
0.7497214061352758
 20
-1.81957131621648
 30
4.609375
 40
0.0834654981097751
  1
T2
100
AcDbText
  0
TEXT
  5
756A2
330
458D6
100
AcDbEntity
  8
0
100
AcDbText
 10
0.9687721570885658
 20
-1.820413182322326
 30
4.609375
 40
0.0834654981097751
  1
6
100
AcDbText
  0
CIRCLE
  5
756A3
330
458D6
100
AcDbEntity
  8
0
100
AcDbCircle
 10
1.097574999999999
 20
-1.587879991879503
 30
4.609375
 40
0.138
  0
POLYLINE
  5
756A4
330
458D6
100
AcDbEntity
  8
0
100
AcDbPolygonMesh
 66
     1
 10
0.0
 20
0.0
 30
0.0
 70
    16
 71
     6
 72
     3
  0
VERTEX
  5
756A5
330
756A4
100
AcDbEntity
  8
0
100
AcDbVertex
100
AcDbPolygonMeshVertex
 10
1.122699999999998
 20
-0.8944862069696878
 30
4.643375
 70
    64
  0
VERTEX
  5
756A6
330
756A4
100
AcDbEntity
  8
0
100
AcDbVertex
100
AcDbPolygonMeshVertex
 10
1.122699999999998
 20
-0.8944862069696878
 30
4.609375
 70
    64
  0
VERTEX
  5
756A7
330
756A4
100
AcDbEntity
  8
0
100
AcDbVertex
100
AcDbPolygonMeshVertex
 10
1.122699999999998
 20
-0.8944862069696878
 30
4.609375
 70
    64
  0
VERTEX
  5
756A8
330
756A4
100
AcDbEntity
  8
0
100
AcDbVertex
100
AcDbPolygonMeshVertex
 10
0.6476999999999992
 20
-0.8944862069696878
 30
4.643375
 70
    64
  0
VERTEX
  5
756A9
330
756A4
100
AcDbEntity
  8
0
100
AcDbVertex
100
AcDbPolygonMeshVertex
 10
0.6476999999999992
 20
-0.8944862069696878
 30
4.609375
 70
    64
  0
VERTEX
  5
756AA
330
756A4
100
AcDbEntity
  8
0
100
AcDbVertex
100
AcDbPolygonMeshVertex
 10
0.6476999999999992
 20
-0.8944862069696878
 30
4.609375
 70
    64
  0
VERTEX
  5
756AB
330
756A4
100
AcDbEntity
  8
0
100
AcDbVertex
100
AcDbPolygonMeshVertex
 10
0.6476999999999992
 20
-0.5494862069696876
 30
4.643375
 70
    64
  0
VERTEX
  5
756AC
330
756A4
100
AcDbEntity
  8
0
100
AcDbVertex
100
AcDbPolygonMeshVertex
 10
0.6476999999999992
 20
-0.5494862069696876
 30
4.609375
 70
    64
  0
VERTEX
  5
756AD
330
756A4
100
AcDbEntity
  8
0
100
AcDbVertex
100
AcDbPolygonMeshVertex
 10
0.6476999999999992
 20
-0.8944862069696878
 30
4.609375
 70
    64
  0
VERTEX
  5
756AE
330
756A4
100
AcDbEntity
  8
0
100
AcDbVertex
100
AcDbPolygonMeshVertex
 10
1.122699999999998
 20
-0.5494862069696876
 30
4.643375
 70
    64
  0
VERTEX
  5
756AF
330
756A4
100
AcDbEntity
  8
0
100
AcDbVertex
100
AcDbPolygonMeshVertex
 10
1.122699999999998
 20
-0.5494862069696876
 30
4.609375
 70
    64
  0
VERTEX
  5
756B0
330
756A4
100
AcDbEntity
  8
0
100
AcDbVertex
100
AcDbPolygonMeshVertex
 10
1.122699999999998
 20
-0.8944862069696878
 30
4.609375
 70
    64
  0
VERTEX
  5
756B1
330
756A4
100
AcDbEntity
  8
0
100
AcDbVertex
100
AcDbPolygonMeshVertex
 10
1.122699999999998
 20
-0.5494862069696876
 30
4.643375
 70
    64
  0
VERTEX
  5
756B2
330
756A4
100
AcDbEntity
  8
0
100
AcDbVertex
100
AcDbPolygonMeshVertex
 10
1.122699999999998
 20
-0.5494862069696876
 30
4.643375
 70
    64
  0
VERTEX
  5
756B3
330
756A4
100
AcDbEntity
  8
0
100
AcDbVertex
100
AcDbPolygonMeshVertex
 10
1.122699999999998
 20
-0.8944862069696878
 30
4.643375
 70
    64
  0
VERTEX
  5
756B4
330
756A4
100
AcDbEntity
  8
0
100
AcDbVertex
100
AcDbPolygonMeshVertex
 10
0.6476999999999992
 20
-0.5494862069696876
 30
4.643375
 70
    64
  0
VERTEX
  5
756B5
330
756A4
100
AcDbEntity
  8
0
100
AcDbVertex
100
AcDbPolygonMeshVertex
 10
0.6476999999999992
 20
-0.5494862069696876
 30
4.643375
 70
    64
  0
VERTEX
  5
756B6
330
756A4
100
AcDbEntity
  8
0
100
AcDbVertex
100
AcDbPolygonMeshVertex
 10
0.6476999999999992
 20
-0.8944862069696878
 30
4.643375
 70
    64
  0
SEQEND
  5
756B7
330
756A4
100
AcDbEntity
  8
0
  0
TEXT
  5
756B8
330
458D6
100
AcDbEntity
  8
0
100
AcDbText
 10
1.168744176302742
 20
-1.81900168328171
 30
4.609375
 40
0.0834654981097751
  1
T3
100
AcDbText
  0
TEXT
  5
756B9
330
458D6
100
AcDbEntity
  8
0
100
AcDbText
 10
0.3250117058396814
 20
-1.817524560975508
 30
4.609375
 40
0.0834654981097751
  1
T1
100
AcDbText
  0
CIRCLE
  5
756BA
330
458D6
100
AcDbEntity
  8
0
100
AcDbCircle
 10
0.2380749999999995
 20
-1.587879991879503
 30
4.609375
 40
0.138
  0
TEXT
  5
756BB
330
458D6
100
AcDbEntity
  8
0
100
AcDbText
 10
0.080558581031785
 20
-1.821552448191868
 30
4.609375
 40
0.0834654981097751
  1
2
100
AcDbText
  0
TEXT
  5
756BC
330
458D6
100
AcDbEntity
  8
0
100
AcDbText
 10
1.598494176302742
 20
-1.81900168328171
 30
4.609375
 40
0.0834654981097751
  1
NC
100
AcDbText
  0
TEXT
  5
756BD
330
458D6
100
AcDbEntity
  8
0
100
AcDbText
 10
1.398522157088566
 20
-1.820413182322326
 30
4.609375
 40
0.0834654981097751
  1
22
100
AcDbText
  0
CIRCLE
  5
756BE
330
458D6
100
AcDbEntity
  8
0
100
AcDbCircle
 10
1.527325
 20
-1.587879991879503
 30
4.609375
 40
0.138
  0
LWPOLYLINE
  5
756BF
330
458D6
100
AcDbEntity
  8
0
100
AcDbPolyline
 90
        2
 70
     0
 43
0.0
 38
3.587375
 10
0.0002000000000001
 20
-1.845500000000001
 10
0.0002000000000001
 20
0.3984999999999994
  0
POLYLINE
  5
756C0
330
458D6
100
AcDbEntity
  8
0
100
AcDbPolygonMesh
 66
     1
 10
0.0
 20
0.0
 30
0.0
 70
    16
 71
     6
 72
     3
  0
VERTEX
  5
756C1
330
756C0
100
AcDbEntity
  8
0
100
AcDbVertex
100
AcDbPolygonMeshVertex
 10
1.765199999999999
 20
-1.845499999999999
 30
4.609375
 70
    64
  0
VERTEX
  5
756C2
330
756C0
100
AcDbEntity
  8
0
100
AcDbVertex
100
AcDbPolygonMeshVertex
 10
1.765199999999999
 20
-1.845499999999999
 30
3.587375
 70
    64
  0
VERTEX
  5
756C3
330
756C0
100
AcDbEntity
  8
0
100
AcDbVertex
100
AcDbPolygonMeshVertex
 10
1.765199999999999
 20
-1.845499999999999
 30
3.587375
 70
    64
  0
VERTEX
  5
756C4
330
756C0
100
AcDbEntity
  8
0
100
AcDbVertex
100
AcDbPolygonMeshVertex
 10
0.0002000000000001
 20
-1.845500000000001
 30
4.609375
 70
    64
  0
VERTEX
  5
756C5
330
756C0
100
AcDbEntity
  8
0
100
AcDbVertex
100
AcDbPolygonMeshVertex
 10
0.0002000000000001
 20
-1.845500000000001
 30
3.587375
 70
    64
  0
VERTEX
  5
756C6
330
756C0
100
AcDbEntity
  8
0
100
AcDbVertex
100
AcDbPolygonMeshVertex
 10
0.0002000000000001
 20
-1.845500000000001
 30
3.587375
 70
    64
  0
VERTEX
  5
756C7
330
756C0
100
AcDbEntity
  8
0
100
AcDbVertex
100
AcDbPolygonMeshVertex
 10
0.0001999999999984
 20
0.3984999999999994
 30
4.609375
 70
    64
  0
VERTEX
  5
756C8
330
756C0
100
AcDbEntity
  8
0
100
AcDbVertex
100
AcDbPolygonMeshVertex
 10
0.0001999999999984
 20
0.3984999999999994
 30
3.587375
 70
    64
  0
VERTEX
  5
756C9
330
756C0
100
AcDbEntity
  8
0
100
AcDbVertex
100
AcDbPolygonMeshVertex
 10
0.0002000000000001
 20
-1.845500000000001
 30
3.587375
 70
    64
  0
VERTEX
  5
756CA
330
756C0
100
AcDbEntity
  8
0
100
AcDbVertex
100
AcDbPolygonMeshVertex
 10
1.765199999999998
 20
0.3985000000000003
 30
4.609375
 70
    64
  0
VERTEX
  5
756CB
330
756C0
100
AcDbEntity
  8
0
100
AcDbVertex
100
AcDbPolygonMeshVertex
 10
1.765199999999998
 20
0.3985000000000003
 30
3.587375
 70
    64
  0
VERTEX
  5
756CC
330
756C0
100
AcDbEntity
  8
0
100
AcDbVertex
100
AcDbPolygonMeshVertex
 10
1.765199999999999
 20
-1.845499999999999
 30
3.587375
 70
    64
  0
VERTEX
  5
756CD
330
756C0
100
AcDbEntity
  8
0
100
AcDbVertex
100
AcDbPolygonMeshVertex
 10
1.765199999999998
 20
0.3985000000000003
 30
4.609375
 70
    64
  0
VERTEX
  5
756CE
330
756C0
100
AcDbEntity
  8
0
100
AcDbVertex
100
AcDbPolygonMeshVertex
 10
1.765199999999998
 20
0.3985000000000003
 30
4.609375
 70
    64
  0
VERTEX
  5
756CF
330
756C0
100
AcDbEntity
  8
0
100
AcDbVertex
100
AcDbPolygonMeshVertex
 10
1.765199999999999
 20
-1.845499999999999
 30
4.609375
 70
    64
  0
VERTEX
  5
756D0
330
756C0
100
AcDbEntity
  8
0
100
AcDbVertex
100
AcDbPolygonMeshVertex
 10
0.0001999999999984
 20
0.3984999999999994
 30
4.609375
 70
    64
  0
VERTEX
  5
756D1
330
756C0
100
AcDbEntity
  8
0
100
AcDbVertex
100
AcDbPolygonMeshVertex
 10
0.0001999999999984
 20
0.3984999999999994
 30
4.609375
 70
    64
  0
VERTEX
  5
756D2
330
756C0
100
AcDbEntity
  8
0
100
AcDbVertex
100
AcDbPolygonMeshVertex
 10
0.0002000000000001
 20
-1.845500000000001
 30
4.609375
 70
    64
  0
SEQEND
  5
756D3
330
756C0
100
AcDbEntity
  8
0
  0
POLYLINE
  5
756D4
330
458D6
100
AcDbEntity
  8
0
100
AcDb3dPolyline
 66
     1
 10
0.0
 20
0.0
 30
0.0
 70
     8
  0
VERTEX
  5
756D5
330
756D4
100
AcDbEntity
  8
0
100
AcDbVertex
100
AcDb3dPolylineVertex
 10
1.765410349403541
 20
-0.6404999999999999
 30
3.119375
 70
    32
  0
VERTEX
  5
756D6
330
756D4
100
AcDbEntity
  8
0
100
AcDbVertex
100
AcDb3dPolylineVertex
 10
1.765410349403541
 20
-0.6404999999999999
 30
3.692375
 70
    32
  0
VERTEX
  5
756D7
330
756D4
100
AcDbEntity
  8
0
100
AcDbVertex
100
AcDb3dPolylineVertex
 10
1.765410349403541
 20
-0.8064999999999997
 30
3.692375
 70
    32
  0
VERTEX
  5
756D8
330
756D4
100
AcDbEntity
  8
0
100
AcDbVertex
100
AcDb3dPolylineVertex
 10
1.765410349403541
 20
-0.8065000000000001
 30
3.119375
 70
    32
  0
VERTEX
  5
756D9
330
756D4
100
AcDbEntity
  8
0
100
AcDbVertex
100
AcDb3dPolylineVertex
 10
1.765410349403541
 20
-0.6404999999999999
 30
3.119375
 70
    32
  0
SEQEND
  5
756DA
330
756D4
100
AcDbEntity
  8
0
  0
LINE
  5
756DB
330
458D6
100
AcDbEntity
  8
0
100
AcDbLine
 10
1.765410349403541
 20
-0.8065000000000001
 30
3.405874999999999
 11
1.765410349403541
 21
-0.6404999999999999
 31
3.405874999999999
  0
LINE
  5
756DC
330
458D6
100
AcDbEntity
  8
0
100
AcDbLine
 10
1.765410349403541
 20
-0.8065000000000001
 30
3.595875
 11
1.765410349403541
 21
-0.6404999999999999
 31
3.595875
  0
POINT
  5
756DD
330
458D6
100
AcDbEntity
  8
SNAP_POINTS
100
AcDbPoint
 10
0.8851999999999989
 20
-0.7219862069696879
 30
4.643375
  0
POINT
  5
756DE
330
458D6
100
AcDbEntity
  8
SNAP_POINTS
100
AcDbPoint
 10
-0.0000103494035411
 20
-0.7734999999999999
 30
3.595875
  0
POINT
  5
756DF
330
458D6
100
AcDbEntity
  8
SNAP_POINTS
100
AcDbPoint
 10
1.765410349403541
 20
-0.6734999999999998
 30
3.595875
  0
POLYLINE
  5
756E0
330
458D6
100
AcDbEntity
  8
0
100
AcDbPolygonMesh
 66
     1
 10
0.0
 20
0.0
 30
0.0
 70
    16
 71
     6
 72
     3
  0
VERTEX
  5
756E1
330
756E0
100
AcDbEntity
  8
0
100
AcDbVertex
100
AcDbPolygonMeshVertex
 10
1.765199999999999
 20
-2.165499999999999
 30
1.042499999999999
 70
    64
  0
VERTEX
  5
756E2
330
756E0
100
AcDbEntity
  8
0
100
AcDbVertex
100
AcDbPolygonMeshVertex
 10
1.765199999999999
 20
-2.165499999999999
 30
0.8554999999999999
 70
    64
  0
VERTEX
  5
756E3
330
756E0
100
AcDbEntity
  8
0
100
AcDbVertex
100
AcDbPolygonMeshVertex
 10
1.765199999999999
 20
-2.165499999999999
 30
0.8554999999999999
 70
    64
  0
VERTEX
  5
756E4
330
756E0
100
AcDbEntity
  8
0
100
AcDbVertex
100
AcDbPolygonMeshVertex
 10
0.8852000000000007
 20
-2.165499999999999
 30
1.042499999999999
 70
    64
  0
VERTEX
  5
756E5
330
756E0
100
AcDbEntity
  8
0
100
AcDbVertex
100
AcDbPolygonMeshVertex
 10
0.8852000000000007
 20
-2.165499999999999
 30
0.8554999999999999
 70
    64
  0
VERTEX
  5
756E6
330
756E0
100
AcDbEntity
  8
0
100
AcDbVertex
100
AcDbPolygonMeshVertex
 10
0.8852000000000007
 20
-2.165499999999999
 30
0.8554999999999999
 70
    64
  0
VERTEX
  5
756E7
330
756E0
100
AcDbEntity
  8
0
100
AcDbVertex
100
AcDbPolygonMeshVertex
 10
0.8852000000000007
 20
-1.9685
 30
1.042499999999999
 70
    64
  0
VERTEX
  5
756E8
330
756E0
100
AcDbEntity
  8
0
100
AcDbVertex
100
AcDbPolygonMeshVertex
 10
0.8852000000000007
 20
-1.9685
 30
0.8554999999999999
 70
    64
  0
VERTEX
  5
756E9
330
756E0
100
AcDbEntity
  8
0
100
AcDbVertex
100
AcDbPolygonMeshVertex
 10
0.8852000000000007
 20
-2.165499999999999
 30
0.8554999999999999
 70
    64
  0
VERTEX
  5
756EA
330
756E0
100
AcDbEntity
  8
0
100
AcDbVertex
100
AcDbPolygonMeshVertex
 10
1.765199999999999
 20
-1.9685
 30
1.042499999999999
 70
    64
  0
VERTEX
  5
756EB
330
756E0
100
AcDbEntity
  8
0
100
AcDbVertex
100
AcDbPolygonMeshVertex
 10
1.765199999999999
 20
-1.9685
 30
0.8554999999999999
 70
    64
  0
VERTEX
  5
756EC
330
756E0
100
AcDbEntity
  8
0
100
AcDbVertex
100
AcDbPolygonMeshVertex
 10
1.765199999999999
 20
-2.165499999999999
 30
0.8554999999999999
 70
    64
  0
VERTEX
  5
756ED
330
756E0
100
AcDbEntity
  8
0
100
AcDbVertex
100
AcDbPolygonMeshVertex
 10
1.765199999999999
 20
-1.9685
 30
1.042499999999999
 70
    64
  0
VERTEX
  5
756EE
330
756E0
100
AcDbEntity
  8
0
100
AcDbVertex
100
AcDbPolygonMeshVertex
 10
1.765199999999999
 20
-1.9685
 30
1.042499999999999
 70
    64
  0
VERTEX
  5
756EF
330
756E0
100
AcDbEntity
  8
0
100
AcDbVertex
100
AcDbPolygonMeshVertex
 10
1.765199999999999
 20
-2.165499999999999
 30
1.042499999999999
 70
    64
  0
VERTEX
  5
756F0
330
756E0
100
AcDbEntity
  8
0
100
AcDbVertex
100
AcDbPolygonMeshVertex
 10
0.8852000000000007
 20
-1.9685
 30
1.042499999999999
 70
    64
  0
VERTEX
  5
756F1
330
756E0
100
AcDbEntity
  8
0
100
AcDbVertex
100
AcDbPolygonMeshVertex
 10
0.8852000000000007
 20
-1.9685
 30
1.042499999999999
 70
    64
  0
VERTEX
  5
756F2
330
756E0
100
AcDbEntity
  8
0
100
AcDbVertex
100
AcDbPolygonMeshVertex
 10
0.8852000000000007
 20
-2.165499999999999
 30
1.042499999999999
 70
    64
  0
SEQEND
  5
756F3
330
756E0
100
AcDbEntity
  8
0
  0
POLYLINE
  5
756F4
330
458D6
100
AcDbEntity
  8
0
100
AcDbPolygonMesh
 66
     1
 10
0.0
 20
0.0
 30
0.0
 70
    16
 71
     6
 72
     3
  0
VERTEX
  5
756F5
330
756F4
100
AcDbEntity
  8
0
100
AcDbVertex
100
AcDbPolygonMeshVertex
 10
0.0052
 20
0.7184999999999994
 30
1.042499999999999
 70
    64
  0
VERTEX
  5
756F6
330
756F4
100
AcDbEntity
  8
0
100
AcDbVertex
100
AcDbPolygonMeshVertex
 10
0.0052
 20
0.7184999999999994
 30
0.8555000000000001
 70
    64
  0
VERTEX
  5
756F7
330
756F4
100
AcDbEntity
  8
0
100
AcDbVertex
100
AcDbPolygonMeshVertex
 10
0.0052
 20
0.7184999999999994
 30
0.8555000000000001
 70
    64
  0
VERTEX
  5
756F8
330
756F4
100
AcDbEntity
  8
0
100
AcDbVertex
100
AcDbPolygonMeshVertex
 10
0.885199999999998
 20
0.7184999999999994
 30
1.042499999999999
 70
    64
  0
VERTEX
  5
756F9
330
756F4
100
AcDbEntity
  8
0
100
AcDbVertex
100
AcDbPolygonMeshVertex
 10
0.885199999999998
 20
0.7184999999999994
 30
0.8555000000000001
 70
    64
  0
VERTEX
  5
756FA
330
756F4
100
AcDbEntity
  8
0
100
AcDbVertex
100
AcDbPolygonMeshVertex
 10
0.885199999999998
 20
0.7184999999999994
 30
0.8555000000000001
 70
    64
  0
VERTEX
  5
756FB
330
756F4
100
AcDbEntity
  8
0
100
AcDbVertex
100
AcDbPolygonMeshVertex
 10
0.885199999999998
 20
0.5215000000000002
 30
1.042499999999999
 70
    64
  0
VERTEX
  5
756FC
330
756F4
100
AcDbEntity
  8
0
100
AcDbVertex
100
AcDbPolygonMeshVertex
 10
0.885199999999998
 20
0.5215000000000002
 30
0.8555000000000001
 70
    64
  0
VERTEX
  5
756FD
330
756F4
100
AcDbEntity
  8
0
100
AcDbVertex
100
AcDbPolygonMeshVertex
 10
0.885199999999998
 20
0.7184999999999994
 30
0.8555000000000001
 70
    64
  0
VERTEX
  5
756FE
330
756F4
100
AcDbEntity
  8
0
100
AcDbVertex
100
AcDbPolygonMeshVertex
 10
0.0052
 20
0.5215000000000002
 30
1.042499999999999
 70
    64
  0
VERTEX
  5
756FF
330
756F4
100
AcDbEntity
  8
0
100
AcDbVertex
100
AcDbPolygonMeshVertex
 10
0.0052
 20
0.5215000000000002
 30
0.8555000000000001
 70
    64
  0
VERTEX
  5
75700
330
756F4
100
AcDbEntity
  8
0
100
AcDbVertex
100
AcDbPolygonMeshVertex
 10
0.0052
 20
0.7184999999999994
 30
0.8555000000000001
 70
    64
  0
VERTEX
  5
75701
330
756F4
100
AcDbEntity
  8
0
100
AcDbVertex
100
AcDbPolygonMeshVertex
 10
0.0052
 20
0.5215000000000002
 30
1.042499999999999
 70
    64
  0
VERTEX
  5
75702
330
756F4
100
AcDbEntity
  8
0
100
AcDbVertex
100
AcDbPolygonMeshVertex
 10
0.0052
 20
0.5215000000000002
 30
1.042499999999999
 70
    64
  0
VERTEX
  5
75703
330
756F4
100
AcDbEntity
  8
0
100
AcDbVertex
100
AcDbPolygonMeshVertex
 10
0.0052
 20
0.7184999999999994
 30
1.042499999999999
 70
    64
  0
VERTEX
  5
75704
330
756F4
100
AcDbEntity
  8
0
100
AcDbVertex
100
AcDbPolygonMeshVertex
 10
0.885199999999998
 20
0.5215000000000002
 30
1.042499999999999
 70
    64
  0
VERTEX
  5
75705
330
756F4
100
AcDbEntity
  8
0
100
AcDbVertex
100
AcDbPolygonMeshVertex
 10
0.885199999999998
 20
0.5215000000000002
 30
1.042499999999999
 70
    64
  0
VERTEX
  5
75706
330
756F4
100
AcDbEntity
  8
0
100
AcDbVertex
100
AcDbPolygonMeshVertex
 10
0.885199999999998
 20
0.7184999999999994
 30
1.042499999999999
 70
    64
  0
SEQEND
  5
75707
330
756F4
100
AcDbEntity
  8
0
  0
POLYLINE
  5
75708
330
458D6
100
AcDbEntity
  8
0
100
AcDb3dPolyline
 66
     1
 10
0.0
 20
0.0
 30
0.0
 70
     8
  0
VERTEX
  5
75709
330
75708
100
AcDbEntity
  8
0
100
AcDbVertex
100
AcDb3dPolylineVertex
 10
0.2778666666666655
 20
0.5215000000000002
 30
0.8554999999999999
 70
    32
  0
VERTEX
  5
7570A
330
75708
100
AcDbEntity
  8
0
100
AcDbVertex
100
AcDb3dPolylineVertex
 10
0.2778666666666655
 20
0.6565
 30
0.8555000000000001
 70
    32
  0
VERTEX
  5
7570B
330
75708
100
AcDbEntity
  8
0
100
AcDbVertex
100
AcDb3dPolylineVertex
 10
0.0672000000000007
 20
0.6565
 30
0.8555000000000001
 70
    32
  0
VERTEX
  5
7570C
330
75708
100
AcDbEntity
  8
0
100
AcDbVertex
100
AcDb3dPolylineVertex
 10
0.0672000000000007
 20
0.5215000000000002
 30
0.8554999999999999
 70
    32
  0
SEQEND
  5
7570D
330
75708
100
AcDbEntity
  8
0
  0
LINE
  5
7570E
330
458D6
100
AcDbEntity
  8
0
100
AcDbLine
 10
0.0672000000000007
 20
0.5215000000000002
 30
0.8554999999999999
 11
0.2778666666666655
 21
0.5215000000000002
 31
0.8554999999999999
  0
POLYLINE
  5
7570F
330
458D6
100
AcDbEntity
  8
0
100
AcDb3dPolyline
 66
     1
 10
0.0
 20
0.0
 30
0.0
 70
     8
  0
VERTEX
  5
75710
330
7570F
100
AcDbEntity
  8
0
100
AcDbVertex
100
AcDb3dPolylineVertex
 10
0.2778666666666655
 20
0.5215000000000002
 30
1.042499999999999
 70
    32
  0
VERTEX
  5
75711
330
7570F
100
AcDbEntity
  8
0
100
AcDbVertex
100
AcDb3dPolylineVertex
 10
0.2778666666666655
 20
0.6565
 30
1.042499999999999
 70
    32
  0
VERTEX
  5
75712
330
7570F
100
AcDbEntity
  8
0
100
AcDbVertex
100
AcDb3dPolylineVertex
 10
0.0672000000000007
 20
0.6565
 30
1.042499999999999
 70
    32
  0
VERTEX
  5
75713
330
7570F
100
AcDbEntity
  8
0
100
AcDbVertex
100
AcDb3dPolylineVertex
 10
0.0672000000000007
 20
0.5215000000000002
 30
1.042499999999999
 70
    32
  0
SEQEND
  5
75714
330
7570F
100
AcDbEntity
  8
0
  0
POLYLINE
  5
75715
330
458D6
100
AcDbEntity
  8
0
100
AcDb3dPolyline
 66
     1
 10
0.0
 20
0.0
 30
0.0
 70
     8
  0
VERTEX
  5
75716
330
75715
100
AcDbEntity
  8
0
100
AcDbVertex
100
AcDb3dPolylineVertex
 10
0.5505333333333314
 20
0.5215000000000002
 30
1.042499999999999
 70
    32
  0
VERTEX
  5
75717
330
75715
100
AcDbEntity
  8
0
100
AcDbVertex
100
AcDb3dPolylineVertex
 10
0.5505333333333314
 20
0.6565
 30
1.042499999999999
 70
    32
  0
VERTEX
  5
75718
330
75715
100
AcDbEntity
  8
0
100
AcDbVertex
100
AcDb3dPolylineVertex
 10
0.3398666666666666
 20
0.6565
 30
1.042499999999999
 70
    32
  0
VERTEX
  5
75719
330
75715
100
AcDbEntity
  8
0
100
AcDbVertex
100
AcDb3dPolylineVertex
 10
0.3398666666666666
 20
0.5215000000000002
 30
1.042499999999999
 70
    32
  0
SEQEND
  5
7571A
330
75715
100
AcDbEntity
  8
0
  0
POLYLINE
  5
7571B
330
458D6
100
AcDbEntity
  8
0
100
AcDb3dPolyline
 66
     1
 10
0.0
 20
0.0
 30
0.0
 70
     8
  0
VERTEX
  5
7571C
330
7571B
100
AcDbEntity
  8
0
100
AcDbVertex
100
AcDb3dPolylineVertex
 10
0.5505333333333314
 20
0.5215000000000002
 30
0.8554999999999999
 70
    32
  0
VERTEX
  5
7571D
330
7571B
100
AcDbEntity
  8
0
100
AcDbVertex
100
AcDb3dPolylineVertex
 10
0.5505333333333314
 20
0.6565
 30
0.8555000000000001
 70
    32
  0
VERTEX
  5
7571E
330
7571B
100
AcDbEntity
  8
0
100
AcDbVertex
100
AcDb3dPolylineVertex
 10
0.3398666666666666
 20
0.6565
 30
0.8555000000000001
 70
    32
  0
VERTEX
  5
7571F
330
7571B
100
AcDbEntity
  8
0
100
AcDbVertex
100
AcDb3dPolylineVertex
 10
0.3398666666666666
 20
0.5215000000000002
 30
0.8554999999999999
 70
    32
  0
SEQEND
  5
75720
330
7571B
100
AcDbEntity
  8
0
  0
LINE
  5
75721
330
458D6
100
AcDbEntity
  8
0
100
AcDbLine
 10
0.3398666666666666
 20
0.5215000000000002
 30
0.8554999999999999
 11
0.5505333333333314
 21
0.5215000000000002
 31
0.8554999999999999
  0
POLYLINE
  5
75722
330
458D6
100
AcDbEntity
  8
0
100
AcDb3dPolyline
 66
     1
 10
0.0
 20
0.0
 30
0.0
 70
     8
  0
VERTEX
  5
75723
330
75722
100
AcDbEntity
  8
0
100
AcDbVertex
100
AcDb3dPolylineVertex
 10
0.8231999999999969
 20
0.5215000000000002
 30
0.8554999999999999
 70
    32
  0
VERTEX
  5
75724
330
75722
100
AcDbEntity
  8
0
100
AcDbVertex
100
AcDb3dPolylineVertex
 10
0.8231999999999969
 20
0.6565
 30
0.8555000000000001
 70
    32
  0
VERTEX
  5
75725
330
75722
100
AcDbEntity
  8
0
100
AcDbVertex
100
AcDb3dPolylineVertex
 10
0.6125333333333326
 20
0.6565
 30
0.8555000000000001
 70
    32
  0
VERTEX
  5
75726
330
75722
100
AcDbEntity
  8
0
100
AcDbVertex
100
AcDb3dPolylineVertex
 10
0.6125333333333326
 20
0.5215000000000002
 30
0.8554999999999999
 70
    32
  0
SEQEND
  5
75727
330
75722
100
AcDbEntity
  8
0
  0
LINE
  5
75728
330
458D6
100
AcDbEntity
  8
0
100
AcDbLine
 10
0.6125333333333326
 20
0.5215000000000002
 30
0.8554999999999999
 11
0.8231999999999969
 21
0.5215000000000002
 31
0.8554999999999999
  0
POLYLINE
  5
75729
330
458D6
100
AcDbEntity
  8
0
100
AcDb3dPolyline
 66
     1
 10
0.0
 20
0.0
 30
0.0
 70
     8
  0
VERTEX
  5
7572A
330
75729
100
AcDbEntity
  8
0
100
AcDbVertex
100
AcDb3dPolylineVertex
 10
0.8231999999999969
 20
0.5215000000000002
 30
1.042499999999999
 70
    32
  0
VERTEX
  5
7572B
330
75729
100
AcDbEntity
  8
0
100
AcDbVertex
100
AcDb3dPolylineVertex
 10
0.8231999999999969
 20
0.6565
 30
1.042499999999999
 70
    32
  0
VERTEX
  5
7572C
330
75729
100
AcDbEntity
  8
0
100
AcDbVertex
100
AcDb3dPolylineVertex
 10
0.6125333333333326
 20
0.6565
 30
1.042499999999999
 70
    32
  0
VERTEX
  5
7572D
330
75729
100
AcDbEntity
  8
0
100
AcDbVertex
100
AcDb3dPolylineVertex
 10
0.6125333333333326
 20
0.5215000000000002
 30
1.042499999999999
 70
    32
  0
SEQEND
  5
7572E
330
75729
100
AcDbEntity
  8
0
  0
LWPOLYLINE
  5
7572F
330
458D6
100
AcDbEntity
  8
0
100
AcDbPolyline
 90
        4
 70
     1
 43
0.0
 38
3.589375
 10
0.7492000000000007
 20
0.7224999999999993
 10
1.016200000000001
 20
0.7224999999999993
 10
1.016200000000001
 20
0.5734999999999993
 10
0.7492000000000007
 20
0.5734999999999993
  0
POLYLINE
  5
75730
330
458D6
100
AcDbEntity
  8
0
100
AcDbPolygonMesh
 66
     1
 10
0.0
 20
0.0
 30
0.0
 70
    16
 71
     6
 72
     3
  0
VERTEX
  5
75731
330
75730
100
AcDbEntity
  8
0
100
AcDbVertex
100
AcDbPolygonMeshVertex
 10
1.068199999999999
 20
0.5214999999999997
 30
3.587375
 70
    64
  0
VERTEX
  5
75732
330
75730
100
AcDbEntity
  8
0
100
AcDbVertex
100
AcDbPolygonMeshVertex
 10
1.068199999999999
 20
0.5214999999999997
 30
2.913375
 70
    64
  0
VERTEX
  5
75733
330
75730
100
AcDbEntity
  8
0
100
AcDbVertex
100
AcDbPolygonMeshVertex
 10
1.068199999999999
 20
0.5214999999999997
 30
2.913375
 70
    64
  0
VERTEX
  5
75734
330
75730
100
AcDbEntity
  8
0
100
AcDbVertex
100
AcDbPolygonMeshVertex
 10
0.6972000000000002
 20
0.5214999999999997
 30
3.587375
 70
    64
  0
VERTEX
  5
75735
330
75730
100
AcDbEntity
  8
0
100
AcDbVertex
100
AcDbPolygonMeshVertex
 10
0.6972000000000002
 20
0.5214999999999997
 30
2.913375
 70
    64
  0
VERTEX
  5
75736
330
75730
100
AcDbEntity
  8
0
100
AcDbVertex
100
AcDbPolygonMeshVertex
 10
0.6972000000000002
 20
0.5214999999999997
 30
2.913375
 70
    64
  0
VERTEX
  5
75737
330
75730
100
AcDbEntity
  8
0
100
AcDbVertex
100
AcDbPolygonMeshVertex
 10
0.6972000000000002
 20
0.7744999999999998
 30
3.587375
 70
    64
  0
VERTEX
  5
75738
330
75730
100
AcDbEntity
  8
0
100
AcDbVertex
100
AcDbPolygonMeshVertex
 10
0.6972000000000002
 20
0.7744999999999998
 30
2.913375
 70
    64
  0
VERTEX
  5
75739
330
75730
100
AcDbEntity
  8
0
100
AcDbVertex
100
AcDbPolygonMeshVertex
 10
0.6972000000000002
 20
0.5214999999999997
 30
2.913375
 70
    64
  0
VERTEX
  5
7573A
330
75730
100
AcDbEntity
  8
0
100
AcDbVertex
100
AcDbPolygonMeshVertex
 10
1.068199999999999
 20
0.7744999999999998
 30
3.587375
 70
    64
  0
VERTEX
  5
7573B
330
75730
100
AcDbEntity
  8
0
100
AcDbVertex
100
AcDbPolygonMeshVertex
 10
1.068199999999999
 20
0.7744999999999998
 30
2.913375
 70
    64
  0
VERTEX
  5
7573C
330
75730
100
AcDbEntity
  8
0
100
AcDbVertex
100
AcDbPolygonMeshVertex
 10
1.068199999999999
 20
0.5214999999999997
 30
2.913375
 70
    64
  0
VERTEX
  5
7573D
330
75730
100
AcDbEntity
  8
0
100
AcDbVertex
100
AcDbPolygonMeshVertex
 10
1.068199999999999
 20
0.7744999999999998
 30
3.587375
 70
    64
  0
VERTEX
  5
7573E
330
75730
100
AcDbEntity
  8
0
100
AcDbVertex
100
AcDbPolygonMeshVertex
 10
1.068199999999999
 20
0.7744999999999998
 30
3.587375
 70
    64
  0
VERTEX
  5
7573F
330
75730
100
AcDbEntity
  8
0
100
AcDbVertex
100
AcDbPolygonMeshVertex
 10
1.068199999999999
 20
0.5214999999999997
 30
3.587375
 70
    64
  0
VERTEX
  5
75740
330
75730
100
AcDbEntity
  8
0
100
AcDbVertex
100
AcDbPolygonMeshVertex
 10
0.6972000000000002
 20
0.7744999999999998
 30
3.587375
 70
    64
  0
VERTEX
  5
75741
330
75730
100
AcDbEntity
  8
0
100
AcDbVertex
100
AcDbPolygonMeshVertex
 10
0.6972000000000002
 20
0.7744999999999998
 30
3.587375
 70
    64
  0
VERTEX
  5
75742
330
75730
100
AcDbEntity
  8
0
100
AcDbVertex
100
AcDbPolygonMeshVertex
 10
0.6972000000000002
 20
0.5214999999999997
 30
3.587375
 70
    64
  0
SEQEND
  5
75743
330
75730
100
AcDbEntity
  8
0
  0
LWPOLYLINE
  5
75744
330
458D6
100
AcDbEntity
  8
0
100
AcDbPolyline
 90
        4
 70
     1
 43
0.0
 38
2.915375
 10
0.7492000000000007
 20
0.7224999999999993
 10
1.016200000000001
 20
0.7224999999999993
 10
1.016200000000001
 20
0.5734999999999993
 10
0.7492000000000007
 20
0.5734999999999993
  0
POLYLINE
  5
75745
330
458D6
100
AcDbEntity
  8
0
100
AcDbPolygonMesh
 66
     1
 10
0.0
 20
0.0
 30
0.0
 70
    16
 71
     6
 72
     3
  0
VERTEX
  5
75746
330
75745
100
AcDbEntity
  8
0
100
AcDbVertex
100
AcDbPolygonMeshVertex
 10
1.437699999999999
 20
-2.4055
 30
3.587375
 70
    64
  0
VERTEX
  5
75747
330
75745
100
AcDbEntity
  8
0
100
AcDbVertex
100
AcDbPolygonMeshVertex
 10
1.437699999999999
 20
-2.4055
 30
2.913375
 70
    64
  0
VERTEX
  5
75748
330
75745
100
AcDbEntity
  8
0
100
AcDbVertex
100
AcDbPolygonMeshVertex
 10
1.437699999999999
 20
-2.4055
 30
2.913375
 70
    64
  0
VERTEX
  5
75749
330
75745
100
AcDbEntity
  8
0
100
AcDbVertex
100
AcDbPolygonMeshVertex
 10
0.3326999999999992
 20
-2.4055
 30
3.587375
 70
    64
  0
VERTEX
  5
7574A
330
75745
100
AcDbEntity
  8
0
100
AcDbVertex
100
AcDbPolygonMeshVertex
 10
0.3326999999999992
 20
-2.4055
 30
2.913375
 70
    64
  0
VERTEX
  5
7574B
330
75745
100
AcDbEntity
  8
0
100
AcDbVertex
100
AcDbPolygonMeshVertex
 10
0.3326999999999992
 20
-2.4055
 30
2.913375
 70
    64
  0
VERTEX
  5
7574C
330
75745
100
AcDbEntity
  8
0
100
AcDbVertex
100
AcDbPolygonMeshVertex
 10
0.3326999999999992
 20
-1.968499999999999
 30
3.587375
 70
    64
  0
VERTEX
  5
7574D
330
75745
100
AcDbEntity
  8
0
100
AcDbVertex
100
AcDbPolygonMeshVertex
 10
0.3326999999999992
 20
-1.968499999999999
 30
2.913375
 70
    64
  0
VERTEX
  5
7574E
330
75745
100
AcDbEntity
  8
0
100
AcDbVertex
100
AcDbPolygonMeshVertex
 10
0.3326999999999992
 20
-2.4055
 30
2.913375
 70
    64
  0
VERTEX
  5
7574F
330
75745
100
AcDbEntity
  8
0
100
AcDbVertex
100
AcDbPolygonMeshVertex
 10
1.437699999999999
 20
-1.968499999999999
 30
3.587375
 70
    64
  0
VERTEX
  5
75750
330
75745
100
AcDbEntity
  8
0
100
AcDbVertex
100
AcDbPolygonMeshVertex
 10
1.437699999999999
 20
-1.968499999999999
 30
2.913375
 70
    64
  0
VERTEX
  5
75751
330
75745
100
AcDbEntity
  8
0
100
AcDbVertex
100
AcDbPolygonMeshVertex
 10
1.437699999999999
 20
-2.4055
 30
2.913375
 70
    64
  0
VERTEX
  5
75752
330
75745
100
AcDbEntity
  8
0
100
AcDbVertex
100
AcDbPolygonMeshVertex
 10
1.437699999999999
 20
-1.968499999999999
 30
3.587375
 70
    64
  0
VERTEX
  5
75753
330
75745
100
AcDbEntity
  8
0
100
AcDbVertex
100
AcDbPolygonMeshVertex
 10
1.437699999999999
 20
-1.968499999999999
 30
3.587375
 70
    64
  0
VERTEX
  5
75754
330
75745
100
AcDbEntity
  8
0
100
AcDbVertex
100
AcDbPolygonMeshVertex
 10
1.437699999999999
 20
-2.4055
 30
3.587375
 70
    64
  0
VERTEX
  5
75755
330
75745
100
AcDbEntity
  8
0
100
AcDbVertex
100
AcDbPolygonMeshVertex
 10
0.3326999999999992
 20
-1.968499999999999
 30
3.587375
 70
    64
  0
VERTEX
  5
75756
330
75745
100
AcDbEntity
  8
0
100
AcDbVertex
100
AcDbPolygonMeshVertex
 10
0.3326999999999992
 20
-1.968499999999999
 30
3.587375
 70
    64
  0
VERTEX
  5
75757
330
75745
100
AcDbEntity
  8
0
100
AcDbVertex
100
AcDbPolygonMeshVertex
 10
0.3326999999999992
 20
-2.4055
 30
3.587375
 70
    64
  0
SEQEND
  5
75758
330
75745
100
AcDbEntity
  8
0
  0
CIRCLE
  5
75759
330
458D6
100
AcDbEntity
  8
0
100
AcDbCircle
 10
0.5461999999999973
 20
-2.186999999999999
 30
3.587375
 40
0.12
  0
TEXT
  5
7575A
330
458D6
100
AcDbEntity
  8
0
100
AcDbText
 39
0.0000001
 10
0.3583342008449784
 20
-2.381974306253014
 30
3.587375
 40
0.0834654981097751
  1
A1
100
AcDbText
  0
TEXT
  5
7575B
330
458D6
100
AcDbEntity
  8
0
100
AcDbText
 39
0.0000001
 10
1.274128940335714
 20
-2.369060193513128
 30
3.587375
 40
0.0834654981097751
  1
A2
100
AcDbText
  0
CIRCLE
  5
7575C
330
458D6
100
AcDbEntity
  8
0
100
AcDbCircle
 10
1.224200000000001
 20
-2.186999999999999
 30
3.587375
 40
0.12
  0
LINE
  5
7575D
330
458D6
100
AcDbEntity
  8
0
100
AcDbLine
 10
0.7046999999999991
 20
-2.4055
 30
3.166375
 11
0.3876999999999989
 21
-2.4055
 31
3.166375
  0
LINE
  5
7575E
330
458D6
100
AcDbEntity
  8
0
100
AcDbLine
 10
0.3876999999999989
 20
-2.4055
 30
3.366375
 11
0.3876999999999989
 21
-2.4055
 31
3.166375
  0
LINE
  5
7575F
330
458D6
100
AcDbEntity
  8
0
100
AcDbLine
 10
0.7046999999999991
 20
-2.4055
 30
3.366375
 11
0.3876999999999989
 21
-2.4055
 31
3.366375
  0
LINE
  5
75760
330
458D6
100
AcDbEntity
  8
0
100
AcDbLine
 10
0.7046999999999991
 20
-2.4055
 30
3.366375
 11
0.7046999999999991
 21
-2.4055
 31
3.166375
  0
POINT
  5
75761
330
458D6
100
AcDbEntity
  8
SNAP_POINTS
100
AcDbPoint
 10
1.065699999999999
 20
-2.4055
 30
3.166375
  0
LINE
  5
75762
330
458D6
100
AcDbEntity
  8
0
100
AcDbLine
 10
1.065699999999999
 20
-2.4055
 30
3.366375
 11
1.065699999999999
 21
-2.4055
 31
3.166375
  0
LINE
  5
75763
330
458D6
100
AcDbEntity
  8
0
100
AcDbLine
 10
1.065699999999999
 20
-2.4055
 30
3.166375
 11
1.3827
 21
-2.4055
 31
3.166375
  0
LINE
  5
75764
330
458D6
100
AcDbEntity
  8
0
100
AcDbLine
 10
1.065699999999999
 20
-2.4055
 30
3.366375
 11
1.3827
 21
-2.4055
 31
3.366375
  0
LINE
  5
75765
330
458D6
100
AcDbEntity
  8
0
100
AcDbLine
 10
1.3827
 20
-2.4055
 30
3.366375
 11
1.3827
 21
-2.4055
 31
3.166375
  0
POINT
  5
75766
330
458D6
100
AcDbEntity
  8
DIMS-MTG-HOLES
100
AcDbPoint
 10
0.1911999999999991
 20
-1.934499999999999
 30
0.0
  0
POINT
  5
75767
330
458D6
100
AcDbEntity
  8
DIMS-MTG-HOLES
100
AcDbPoint
 10
1.571199999999999
 20
0.4255
 30
0.0
  0
LWPOLYLINE
  5
75768
330
458D6
100
AcDbEntity
  8
0
100
AcDbPolyline
 90
        6
 70
     0
 43
0.0
 38
3.587375
 10
0.5661999999999973
 20
-2.068678404338003
 10
0.5661999999999973
 20
-2.166999999999999
 10
0.6261999999999973
 20
-2.166999999999999
 10
0.6261999999999973
 20
-2.206999999999999
 10
0.5661999999999973
 20
-2.206999999999999
 10
0.5661999999999973
 20
-2.305321595661987
  0
LWPOLYLINE
  5
75769
330
458D6
100
AcDbEntity
  8
0
100
AcDbPolyline
 90
        6
 70
     0
 43
0.0
 38
3.587375
 10
0.5261999999999972
 20
-2.068678404338011
 10
0.5261999999999972
 20
-2.166999999999999
 10
0.4661999999999972
 20
-2.166999999999999
 10
0.4661999999999972
 20
-2.206999999999999
 10
0.5261999999999972
 20
-2.206999999999999
 10
0.5261999999999972
 20
-2.305321595661996
  0
LWPOLYLINE
  5
7576A
330
458D6
100
AcDbEntity
  8
0
100
AcDbPolyline
 90
        6
 70
     0
 43
0.0
 38
3.587375
 10
1.244200000000001
 20
-2.068678404338003
 10
1.244200000000001
 20
-2.166999999999999
 10
1.304200000000001
 20
-2.166999999999999
 10
1.304200000000001
 20
-2.206999999999999
 10
1.244200000000001
 20
-2.206999999999999
 10
1.244200000000001
 20
-2.305321595661987
  0
LWPOLYLINE
  5
7576B
330
458D6
100
AcDbEntity
  8
0
100
AcDbPolyline
 90
        6
 70
     0
 43
0.0
 38
3.587375
 10
1.204200000000001
 20
-2.068678404338011
 10
1.204200000000001
 20
-2.166999999999999
 10
1.144200000000001
 20
-2.166999999999999
 10
1.144200000000001
 20
-2.206999999999999
 10
1.204200000000001
 20
-2.206999999999999
 10
1.204200000000001
 20
-2.305321595661996
  0
LWPOLYLINE
  5
7576C
330
458D6
100
AcDbEntity
  8
0
100
AcDbPolyline
 90
        6
 70
     0
 43
0.0
 38
4.609375
 10
0.2580749999999995
 20
-1.451336958369917
 10
0.2580749999999995
 20
-1.567879991879503
 10
0.3180749999999995
 20
-1.567879991879503
 10
0.3180749999999995
 20
-1.607879991879503
 10
0.2580749999999995
 20
-1.607879991879503
 10
0.2580749999999995
 20
-1.72442302538909
  0
LWPOLYLINE
  5
7576D
330
458D6
100
AcDbEntity
  8
0
100
AcDbPolyline
 90
        6
 70
     0
 43
0.0
 38
4.609375
 10
0.2180749999999995
 20
-1.451336958369917
 10
0.2180749999999995
 20
-1.567879991879503
 10
0.1580749999999994
 20
-1.567879991879503
 10
0.1580749999999994
 20
-1.607879991879503
 10
0.2180749999999995
 20
-1.607879991879503
 10
0.2180749999999995
 20
-1.72442302538909
  0
LWPOLYLINE
  5
7576E
330
458D6
100
AcDbEntity
  8
0
100
AcDbPolyline
 90
        6
 70
     0
 43
0.0
 38
4.609375
 10
0.6878249999999998
 20
-1.451336958369917
 10
0.6878249999999998
 20
-1.567879991879503
 10
0.7478249999999999
 20
-1.567879991879503
 10
0.7478249999999999
 20
-1.607879991879503
 10
0.6878249999999998
 20
-1.607879991879503
 10
0.6878249999999998
 20
-1.72442302538909
  0
LWPOLYLINE
  5
7576F
330
458D6
100
AcDbEntity
  8
0
100
AcDbPolyline
 90
        6
 70
     0
 43
0.0
 38
4.609375
 10
0.6478249999999998
 20
-1.451336958369917
 10
0.6478249999999998
 20
-1.567879991879503
 10
0.5878249999999997
 20
-1.567879991879503
 10
0.5878249999999997
 20
-1.607879991879503
 10
0.6478249999999998
 20
-1.607879991879503
 10
0.6478249999999998
 20
-1.72442302538909
  0
LWPOLYLINE
  5
75770
330
458D6
100
AcDbEntity
  8
0
100
AcDbPolyline
 90
        6
 70
     0
 43
0.0
 38
4.609375
 10
1.117574999999999
 20
-1.451336958369917
 10
1.117574999999999
 20
-1.567879991879503
 10
1.177574999999999
 20
-1.567879991879503
 10
1.177574999999999
 20
-1.607879991879503
 10
1.117574999999999
 20
-1.607879991879503
 10
1.117574999999999
 20
-1.72442302538909
  0
LWPOLYLINE
  5
75771
330
458D6
100
AcDbEntity
  8
0
100
AcDbPolyline
 90
        6
 70
     0
 43
0.0
 38
4.609375
 10
1.077574999999999
 20
-1.451336958369917
 10
1.077574999999999
 20
-1.567879991879503
 10
1.017574999999999
 20
-1.567879991879503
 10
1.017574999999999
 20
-1.607879991879503
 10
1.077574999999999
 20
-1.607879991879503
 10
1.077574999999999
 20
-1.72442302538909
  0
LWPOLYLINE
  5
75772
330
458D6
100
AcDbEntity
  8
0
100
AcDbPolyline
 90
        6
 70
     0
 43
0.0
 38
4.609375
 10
1.547325
 20
-1.451336958369917
 10
1.547325
 20
-1.567879991879503
 10
1.607325
 20
-1.567879991879503
 10
1.607325
 20
-1.607879991879503
 10
1.547325
 20
-1.607879991879503
 10
1.547325
 20
-1.72442302538909
  0
LWPOLYLINE
  5
75773
330
458D6
100
AcDbEntity
  8
0
100
AcDbPolyline
 90
        6
 70
     0
 43
0.0
 38
4.609375
 10
1.507324999999999
 20
-1.451336958369917
 10
1.507324999999999
 20
-1.567879991879503
 10
1.447325
 20
-1.567879991879503
 10
1.447325
 20
-1.607879991879503
 10
1.507324999999999
 20
-1.607879991879503
 10
1.507324999999999
 20
-1.72442302538909
  0
LWPOLYLINE
  5
75774
330
458D6
100
AcDbEntity
  8
0
100
AcDbPolyline
 90
        6
 70
     0
 43
0.0
 38
4.609375
 10
0.2580749999999995
 20
0.291450611449712
 10
0.2580749999999995
 20
0.1749075779401257
 10
0.3180749999999995
 20
0.1749075779401257
 10
0.3180749999999995
 20
0.1349075779401256
 10
0.2580749999999995
 20
0.1349075779401256
 10
0.2580749999999995
 20
0.0183645444305394
  0
LWPOLYLINE
  5
75775
330
458D6
100
AcDbEntity
  8
0
100
AcDbPolyline
 90
        6
 70
     0
 43
0.0
 38
4.609375
 10
0.2180749999999995
 20
0.291450611449712
 10
0.2180749999999995
 20
0.1749075779401257
 10
0.1580749999999994
 20
0.1749075779401257
 10
0.1580749999999994
 20
0.1349075779401256
 10
0.2180749999999995
 20
0.1349075779401256
 10
0.2180749999999995
 20
0.0183645444305394
  0
CIRCLE
  5
75776
330
458D6
100
AcDbEntity
  8
0
100
AcDbCircle
 10
0.6678249999999998
 20
0.1549075779401257
 30
4.609375
 40
0.138
  0
LWPOLYLINE
  5
75777
330
458D6
100
AcDbEntity
  8
0
100
AcDbPolyline
 90
        6
 70
     0
 43
0.0
 38
4.609375
 10
0.6478249999999998
 20
0.291450611449712
 10
0.6478249999999998
 20
0.1749075779401257
 10
0.5878249999999997
 20
0.1749075779401257
 10
0.5878249999999997
 20
0.1349075779401256
 10
0.6478249999999998
 20
0.1349075779401256
 10
0.6478249999999998
 20
0.0183645444305394
  0
LWPOLYLINE
  5
75778
330
458D6
100
AcDbEntity
  8
0
100
AcDbPolyline
 90
        6
 70
     0
 43
0.0
 38
4.609375
 10
0.6878249999999998
 20
0.291450611449712
 10
0.6878249999999998
 20
0.1749075779401257
 10
0.7478249999999999
 20
0.1749075779401257
 10
0.7478249999999999
 20
0.1349075779401256
 10
0.6878249999999998
 20
0.1349075779401256
 10
0.6878249999999998
 20
0.0183645444305394
  0
LWPOLYLINE
  5
75779
330
458D6
100
AcDbEntity
  8
0
100
AcDbPolyline
 90
        6
 70
     0
 43
0.0
 38
4.609375
 10
1.077574999999999
 20
0.291450611449712
 10
1.077574999999999
 20
0.1749075779401257
 10
1.017574999999999
 20
0.1749075779401257
 10
1.017574999999999
 20
0.1349075779401256
 10
1.077574999999999
 20
0.1349075779401256
 10
1.077574999999999
 20
0.0183645444305394
  0
LWPOLYLINE
  5
7577A
330
458D6
100
AcDbEntity
  8
0
100
AcDbPolyline
 90
        6
 70
     0
 43
0.0
 38
4.609375
 10
1.117574999999999
 20
0.291450611449712
 10
1.117574999999999
 20
0.1749075779401257
 10
1.177574999999999
 20
0.1749075779401257
 10
1.177574999999999
 20
0.1349075779401256
 10
1.117574999999999
 20
0.1349075779401256
 10
1.117574999999999
 20
0.0183645444305394
  0
CIRCLE
  5
7577B
330
458D6
100
AcDbEntity
  8
0
100
AcDbCircle
 10
1.097574999999999
 20
0.1549075779401257
 30
4.609375
 40
0.138
  0
CIRCLE
  5
7577C
330
458D6
100
AcDbEntity
  8
0
100
AcDbCircle
 10
1.527325
 20
0.1549075779401257
 30
4.609375
 40
0.138
  0
LWPOLYLINE
  5
7577D
330
458D6
100
AcDbEntity
  8
0
100
AcDbPolyline
 90
        6
 70
     0
 43
0.0
 38
4.609375
 10
1.547325
 20
0.291450611449712
 10
1.547325
 20
0.1749075779401257
 10
1.607325
 20
0.1749075779401257
 10
1.607325
 20
0.1349075779401256
 10
1.547325
 20
0.1349075779401256
 10
1.547325
 20
0.0183645444305394
  0
LWPOLYLINE
  5
7577E
330
458D6
100
AcDbEntity
  8
0
100
AcDbPolyline
 90
        6
 70
     0
 43
0.0
 38
4.609375
 10
1.507324999999999
 20
0.291450611449712
 10
1.507324999999999
 20
0.1749075779401257
 10
1.447325
 20
0.1749075779401257
 10
1.447325
 20
0.1349075779401256
 10
1.507324999999999
 20
0.1349075779401256
 10
1.507324999999999
 20
0.0183645444305394
  0
POLYLINE
  5
7577F
330
458D6
100
AcDbEntity
  8
0
100
AcDbPolygonMesh
 66
     1
 10
0.0
 20
0.0
 30
0.0
 70
    16
 71
     6
 72
     3
  0
VERTEX
  5
75780
330
7577F
100
AcDbEntity
  8
0
100
AcDbVertex
100
AcDbPolygonMeshVertex
 10
1.765199999999999
 20
-1.9685
 30
3.587375
 70
    64
  0
VERTEX
  5
75781
330
7577F
100
AcDbEntity
  8
0
100
AcDbVertex
100
AcDbPolygonMeshVertex
 10
1.765199999999999
 20
-1.9685
 30
1.318
 70
    64
  0
VERTEX
  5
75782
330
7577F
100
AcDbEntity
  8
0
100
AcDbVertex
100
AcDbPolygonMeshVertex
 10
1.765199999999999
 20
-1.9685
 30
1.318
 70
    64
  0
VERTEX
  5
75783
330
7577F
100
AcDbEntity
  8
0
100
AcDbVertex
100
AcDbPolygonMeshVertex
 10
0.0002000000000001
 20
-1.9685
 30
3.587375
 70
    64
  0
VERTEX
  5
75784
330
7577F
100
AcDbEntity
  8
0
100
AcDbVertex
100
AcDbPolygonMeshVertex
 10
0.0002000000000001
 20
-1.9685
 30
1.318
 70
    64
  0
VERTEX
  5
75785
330
7577F
100
AcDbEntity
  8
0
100
AcDbVertex
100
AcDbPolygonMeshVertex
 10
0.0002000000000001
 20
-1.9685
 30
1.318
 70
    64
  0
VERTEX
  5
75786
330
7577F
100
AcDbEntity
  8
0
100
AcDbVertex
100
AcDbPolygonMeshVertex
 10
0.0002000000000001
 20
0.5215050200752609
 30
3.587375
 70
    64
  0
VERTEX
  5
75787
330
7577F
100
AcDbEntity
  8
0
100
AcDbVertex
100
AcDbPolygonMeshVertex
 10
0.0002000000000001
 20
0.5215050200752609
 30
1.318
 70
    64
  0
VERTEX
  5
75788
330
7577F
100
AcDbEntity
  8
0
100
AcDbVertex
100
AcDbPolygonMeshVertex
 10
0.0002000000000001
 20
-1.9685
 30
1.318
 70
    64
  0
VERTEX
  5
75789
330
7577F
100
AcDbEntity
  8
0
100
AcDbVertex
100
AcDbPolygonMeshVertex
 10
1.765199999999999
 20
0.5215050200752609
 30
3.587375
 70
    64
  0
VERTEX
  5
7578A
330
7577F
100
AcDbEntity
  8
0
100
AcDbVertex
100
AcDbPolygonMeshVertex
 10
1.765199999999999
 20
0.5215050200752609
 30
1.318
 70
    64
  0
VERTEX
  5
7578B
330
7577F
100
AcDbEntity
  8
0
100
AcDbVertex
100
AcDbPolygonMeshVertex
 10
1.765199999999999
 20
-1.9685
 30
1.318
 70
    64
  0
VERTEX
  5
7578C
330
7577F
100
AcDbEntity
  8
0
100
AcDbVertex
100
AcDbPolygonMeshVertex
 10
1.765199999999999
 20
0.5215050200752609
 30
3.587375
 70
    64
  0
VERTEX
  5
7578D
330
7577F
100
AcDbEntity
  8
0
100
AcDbVertex
100
AcDbPolygonMeshVertex
 10
1.765199999999999
 20
0.5215050200752609
 30
3.587375
 70
    64
  0
VERTEX
  5
7578E
330
7577F
100
AcDbEntity
  8
0
100
AcDbVertex
100
AcDbPolygonMeshVertex
 10
1.765199999999999
 20
-1.9685
 30
3.587375
 70
    64
  0
VERTEX
  5
7578F
330
7577F
100
AcDbEntity
  8
0
100
AcDbVertex
100
AcDbPolygonMeshVertex
 10
0.0002000000000001
 20
0.5215050200752609
 30
3.587375
 70
    64
  0
VERTEX
  5
75790
330
7577F
100
AcDbEntity
  8
0
100
AcDbVertex
100
AcDbPolygonMeshVertex
 10
0.0002000000000001
 20
0.5215050200752609
 30
3.587375
 70
    64
  0
VERTEX
  5
75791
330
7577F
100
AcDbEntity
  8
0
100
AcDbVertex
100
AcDbPolygonMeshVertex
 10
0.0002000000000001
 20
-1.9685
 30
3.587375
 70
    64
  0
SEQEND
  5
75792
330
7577F
100
AcDbEntity
  8
0
  0
TEXT
  5
75793
330
458D6
100
AcDbEntity
  8
0
100
AcDbText
 10
0.5104128777889084
 20
-1.820413182322326
 30
4.609375
 40
0.0834654981097751
  1
4
100
AcDbText
  0
DIMENSION
  5
75794
330
458D6
100
AcDbEntity
  8
AREA1
100
AcDbDimension
  2
*D1
 10
-0.4555206924418406
 20
-2.4055
 30
0.0
 11
-0.4555206924418403
 21
-0.797623110154003
 31
0.0
 70
   160
 71
     5
 42
-1.0
 73
     0
 74
     0
 75
     0
  3
ABECAD_3D
100
AcDbAlignedDimension
 13
0.6972000000000002
 23
0.7744999999999998
 33
2.913375
 14
0.3326999999999993
 24
-2.4055
 34
2.913375
 50
90.0
100
AcDbRotatedDimension
  0
DIMENSION
  5
757A2
330
458D6
100
AcDbEntity
  8
AREA1
100
AcDbDimension
  2
*D2
 10
1.765199999999999
 20
0.9860469926897241
 30
0.0
 11
0.8765883191364419
 21
1.293888541163717
 31
0.0
 70
   160
 71
     5
 42
-1.0
 73
     0
 74
     0
 75
     0
  3
ABECAD_3D
100
AcDbAlignedDimension
 13
0.0002000000000001
 23
0.5384999999999991
 33
3.587375
 14
1.765199999999999
 24
0.5745
 34
0.0
100
AcDbRotatedDimension
  0
LWPOLYLINE
  5
757C7
330
458D6
100
AcDbEntity
  8
SCALE
100
AcDbPolyline
 90
        4
 70
     1
 43
0.0
 10
0.3111195652406349
 20
-2.500002281268479
 10
1.446748384782607
 20
-2.500002281268479
 10
1.446748384782607
 20
-3.341611848046494
 10
0.3111195652406349
 20
-3.341611848046494
  0
LINE
  5
757C8
330
458D6
100
AcDbEntity
  8
SCALE
100
AcDbLine
 10
0.3691182294673969
 20
-2.880080599972695
 30
0.0
 11
1.369118229467396
 21
-2.880080599972695
 31
0.0
  0
LINE
  5
757C9
330
458D6
100
AcDbEntity
  8
SCALE
100
AcDbLine
 10
0.3691182294673969
 20
-3.180080599972694
 30
0.0
 11
0.7628182294673969
 21
-3.180080599972694
 31
0.0
  0
LINE
  5
757CA
330
458D6
100
AcDbEntity
  8
SCALE
100
AcDbLine
 10
0.3691182294673969
 20
-2.980080599972695
 30
0.0
 11
0.3691182294673969
 21
-2.780080599972694
 31
0.0
  0
TEXT
  5
757CB
330
458D6
100
AcDbEntity
  8
SCALE
100
AcDbText
 10
0.4250942113978718
 20
-3.132395510209852
 30
0.0
 40
0.0625
  1
[10mm]
100
AcDbText
  0
LINE
  5
757CC
330
458D6
100
AcDbEntity
  8
SCALE
100
AcDbLine
 10
0.3691182294673969
 20
-3.280080599972694
 30
0.0
 11
0.3691182294673969
 21
-3.080080599972695
 31
0.0
  0
TEXT
  5
757CD
330
458D6
100
AcDbEntity
  8
SCALE
100
AcDbText
 10
0.3706484947139228
 20
-2.605203478699081
 30
0.0
 40
0.0625
  1
SCALE:
100
AcDbText
  0
LINE
  5
757CE
330
458D6
100
AcDbEntity
  8
SCALE
100
AcDbLine
 10
0.7628182294673969
 20
-3.280080599972694
 30
0.0
 11
0.7628182294673969
 21
-3.080080599972695
 31
0.0
  0
TEXT
  5
757CF
330
458D6
100
AcDbEntity
  8
SCALE
100
AcDbText
 10
0.7324012179513067
 20
-2.811031904599493
 30
0.0
 40
0.0625
  1
1 Inch
100
AcDbText
  0
LINE
  5
757D0
330
458D6
100
AcDbEntity
  8
SCALE
100
AcDbLine
 10
1.369118229467396
 20
-2.880080599972695
 30
0.0
 11
1.369118229467396
 21
-2.980080599972695
 31
0.0
  0
LINE
  5
757D1
330
458D6
100
AcDbEntity
  8
SCALE
100
AcDbLine
 10
1.369118229467396
 20
-2.980080599972695
 30
0.0
 11
1.369118229467396
 21
-2.780080599972694
 31
0.0
  0
VIEWPORT
  5
5677D
330
458D3
100
AcDbEntity
 67
     1
  8
0
100
AcDbViewport
 10
5.249999639556163
 20
3.999999883606677
 30
0.0
 40
16.38686186943767
 41
8.992999745766947
 68
     1
 69
     1
 12
5.249999639556163
 22
3.999999883606677
 13
0.0
 23
0.0
 14
0.5
 24
0.5
 15
0.5
 25
0.5
 16
0.0
 26
0.0
 36
1.0
 17
0.0
 27
0.0
 37
0.0
 42
50.0
 43
0.0
 44
0.0
 45
8.992999745766947
 50
0.0
 51
0.0
 72
 20000
 90
    32800
  1

281
     0
 71
     1
 74
     0
110
0.0
120
0.0
130
0.0
111
1.0
121
0.0
131
0.0
112
0.0
122
1.0
132
0.0
 79
     0
146
0.0
170
     0
 61
     5
348
75879
292
     1
282
     1
141
0.0
142
0.0
 63
   250
421
  3355443
  0
VIEWPORT
  5
5677F
330
458D3
100
AcDbEntity
 67
     1
  8
AREA1
100
AcDbViewport
 10
5.24999976158142
 20
3.99999976158142
 30
0.0
 40
8.399999618530271
 41
6.399999618530272
 68
     2
 69
     2
 12
-1.017175299537903
 22
0.747812767808223
 13
0.0
 23
0.0
 14
0.25
 24
0.25
 15
0.25
 25
0.25
 16
0.0
 26
0.0
 36
1.0
 17
0.5634438949382106
 27
-0.8801371703728531
 37
1.68649307151727
 42
50.0
 43
0.0
 44
0.0
 45
4.58291448918931
 50
0.0
 51
0.0
 72
 20000
 90
    32800
  1

281
     1
 71
     1
 74
     0
110
0.0
120
0.0
130
0.0
111
1.0
121
0.0
131
0.0
112
0.0
122
1.0
132
0.0
 79
     1
146
0.0
170
     0
 61
     5
348
7587A
292
     1
282
     1
141
0.0
142
0.0
 63
   250
421
  3355443
  0
ENDSEC
  0
SECTION
  2
OBJECTS
  0
DICTIONARY
  5
458CB
330
0
100
AcDbDictionary
281
     1
  3
ACAD_BACKGROUND
350
75889
  3
ACAD_COLOR
350
75884
  3
ACAD_GROUP
350
458CC
  3
ACAD_LAYOUT
350
458FB
  3
ACAD_MATERIAL
350
7586F
  3
ACAD_MLINESTYLE
350
458D9
  3
ACAD_PLOTSETTINGS
350
458FC
  3
ACAD_PLOTSTYLENAME
350
458F9
  3
ACAD_TABLESTYLE
350
75885
  3
ACAD_VISUALSTYLE
350
75873
  3
ACADE_WIRETYPE
350
7589E
  3
ACDBVARIABLEDICTIONARY
350
458E1
  3
ASE_INDEX_DICTIONARY
350
75891
  0
DICTIONARY
  5
758A0
330
458C7
100
AcDbDictionary
280
     1
281
     1
  0
DICTIONARY
  5
7588E
330
7588D
100
AcDbDictionary
280
     1
281
     1
  3
ACADE_WIRETYPE
360
7588F
  0
DICTIONARY
  5
4592C
330
458D6
100
AcDbDictionary
280
     1
281
     1
  3
ACAD_LAYOUTSELFREF
360
75863
  0
DICTIONARY
  5
4592A
330
458D3
100
AcDbDictionary
280
     1
281
     1
  3
ACAD_LAYOUTSELFREF
360
75862
  0
DICTIONARY
  5
75889
102
{ACAD_REACTORS
330
458CB
102
}
330
458CB
100
AcDbDictionary
281
     1
  0
DICTIONARY
  5
75884
102
{ACAD_REACTORS
330
458CB
102
}
330
458CB
100
AcDbDictionary
281
     1
  0
DICTIONARY
  5
458CC
102
{ACAD_REACTORS
330
458CB
102
}
330
458CB
100
AcDbDictionary
281
     1
  0
DICTIONARY
  5
458FB
102
{ACAD_REACTORS
330
458CB
102
}
330
458CB
100
AcDbDictionary
281
     1
  3
Layout1
350
458FE
  3
Model
350
458FD
  0
DICTIONARY
  5
7586F
102
{ACAD_REACTORS
330
458CB
102
}
330
458CB
100
AcDbDictionary
281
     1
  3
ByBlock
350
75871
  3
ByLayer
350
75870
  3
Global
350
75872
  0
DICTIONARY
  5
458D9
102
{ACAD_REACTORS
330
458CB
102
}
330
458CB
100
AcDbDictionary
281
     1
  3
STANDARD
350
458DA
  0
DICTIONARY
  5
458FC
102
{ACAD_REACTORS
330
458CB
102
}
330
458CB
100
AcDbDictionary
281
     1
  0
ACDBDICTIONARYWDFLT
  5
458F9
102
{ACAD_REACTORS
330
458CB
102
}
330
458CB
100
AcDbDictionary
281
     1
  3
Normal
350
458FA
100
AcDbDictionaryWithDefault
340
458FA
  0
DICTIONARY
  5
75885
102
{ACAD_REACTORS
330
458CB
102
}
330
458CB
100
AcDbDictionary
281
     1
  3
Standard
350
75886
  0
DICTIONARY
  5
75873
102
{ACAD_REACTORS
330
458CB
102
}
330
458CB
100
AcDbDictionary
281
     1
  3
2dWireframe
350
75879
  3
3D Hidden
350
7587B
  3
3dWireframe
350
7587A
  3
Basic
350
75878
  3
Brighten
350
7587F
  3
ColorChange
350
75883
  3
Conceptual
350
7587C
  3
Dim
350
7587E
  3
Facepattern
350
75882
  3
Flat
350
75874
  3
FlatWithEdges
350
75875
  3
Gouraud
350
75876
  3
GouraudWithEdges
350
75877
  3
Linepattern
350
75881
  3
Realistic
350
7587D
  3
Thicken
350
75880
  0
DICTIONARY
  5
7589E
102
{ACAD_REACTORS
330
458CB
102
}
330
458CB
100
AcDbDictionary
281
     1
  3
CURRENT_WIRELAY
350
7589F
  0
DICTIONARY
  5
458E1
102
{ACAD_REACTORS
330
458CB
102
}
330
458CB
100
AcDbDictionary
281
     1
  3
CTABLESTYLE
350
75894
  3
DIMADEC
350
458E2
  0
DICTIONARY
  5
75891
102
{ACAD_REACTORS
330
458CB
102
}
330
458CB
100
AcDbDictionary
281
     1
  3
ASEBlockHierarchyIndexRecord
350
75893
1001
DCO15
1040
1582952504.88
  0
XRECORD
  5
7588F
102
{ACAD_REACTORS
330
7588E
102
}
330
7588E
100
AcDbXrecord
280
     1
  1

  2

  3
WIRE
 90
        0
  0
XRECORD
  5
75863
102
{ACAD_REACTORS
330
4592C
102
}
330
4592C
100
AcDbXrecord
280
     1
340
458D6
  0
XRECORD
  5
75862
102
{ACAD_REACTORS
330
4592A
102
}
330
4592A
100
AcDbXrecord
280
     1
340
458D3
  0
LAYOUT
  5
458FE
102
{ACAD_REACTORS
330
458FB
102
}
330
458FB
100
AcDbPlotSettings
  1

  2
none_device
  4
Letter_(8.50_x_11.00_Inches)
  6

 40
6.349999904632568
 41
6.349999904632568
 42
6.350006103515625
 43
6.350006103515625
 44
215.8999938964844
 45
279.3999938964844
 46
0.0
 47
0.0
 48
0.0
 49
0.0
140
0.0
141
0.0
142
1.0
143
1.0
 70
   688
 72
     0
 73
     1
 74
     5
  7
Default R14 pen assignments.ctb
 75
    16
147
1.0
 76
     0
 77
     2
 78
   300
148
0.0
149
0.0
100
AcDbLayout
  1
Layout1
 70
     1
 71
     1
 10
-0.2500002402958907
 20
-0.2499999962453767
 11
10.74999951940821
 21
8.249999763458731
 12
0.0
 22
0.0
 32
0.0
 14
1.049999952316284
 24
0.7999999523162842
 34
0.0
 15
9.449999570846555
 25
7.199999570846556
 35
0.0
146
0.0
 13
0.0
 23
0.0
 33
0.0
 16
1.0
 26
0.0
 36
0.0
 17
0.0
 27
1.0
 37
0.0
 76
     0
330
458D3
331
5677D
  0
LAYOUT
  5
458FD
102
{ACAD_REACTORS
330
458FB
102
}
330
458FB
100
AcDbPlotSettings
  1

  2
HP LaserJet 5000 Series PCL 6
  4

  6

 40
0.0
 41
0.0
 42
0.0
 43
0.0
 44
0.0
 45
0.0
 46
0.0
 47
0.0
 48
0.0
 49
0.0
140
0.0
141
0.0
142
1.0
143
1.0
 70
  1712
 72
     0
 73
     0
 74
     0
  7
Default R14 pen assignments.ctb
 75
     0
147
1.0
 76
     0
 77
     2
 78
   300
148
0.0
149
0.0
100
AcDbLayout
  1
Model
 70
     1
 71
     0
 10
0.0
 20
0.0
 11
12.0
 21
9.0
 12
0.0
 22
0.0
 32
0.0
 14
0.0
 24
0.0
 34
0.0
 15
0.0
 25
0.0
 35
0.0
146
0.0
 13
0.0
 23
0.0
 33
0.0
 16
1.0
 26
0.0
 36
0.0
 17
0.0
 27
1.0
 37
0.0
 76
     0
330
458D6
331
7583C
  0
MATERIAL
  5
75871
102
{ACAD_REACTORS
330
7586F
102
}
330
7586F
100
AcDbMaterial
  1
ByBlock
  0
MATERIAL
  5
75870
102
{ACAD_REACTORS
330
7586F
102
}
330
7586F
100
AcDbMaterial
  1
ByLayer
  0
MATERIAL
  5
75872
102
{ACAD_REACTORS
330
7586F
102
}
330
7586F
100
AcDbMaterial
  1
Global
  0
MLINESTYLE
  5
458DA
102
{ACAD_REACTORS
330
458D9
102
}
330
458D9
100
AcDbMlineStyle
  2
STANDARD
 70
     0
  3

 62
   256
 51
90.0
 52
90.0
 71
     2
 49
0.5
 62
   256
  6
BYLAYER
 49
-0.5
 62
   256
  6
BYLAYER
  0
ACDBPLACEHOLDER
  5
458FA
102
{ACAD_REACTORS
330
458F9
102
}
330
458F9
  0
TABLESTYLE
  5
75886
102
{ACAD_REACTORS
330
75885
102
}
330
75885
100
AcDbTableStyle
  3
Standard
 70
     0
 71
     0
 40
0.06
 41
0.06
280
     0
281
     0
  7
STANDARD
140
0.18
170
     2
 62
     0
 63
     7
283
     0
 90
      512
 91
        0
  1

274
    -2
284
     1
 64
     0
275
    -2
285
     1
 65
     0
276
    -2
286
     1
 66
     0
277
    -2
287
     1
 67
     0
278
    -2
288
     1
 68
     0
279
    -2
289
     1
 69
     0
  7
STANDARD
140
0.25
170
     5
 62
     0
 63
     7
283
     0
 90
      512
 91
        0
  1

274
    -2
284
     1
 64
     0
275
    -2
285
     1
 65
     0
276
    -2
286
     1
 66
     0
277
    -2
287
     1
 67
     0
278
    -2
288
     1
 68
     0
279
    -2
289
     1
 69
     0
  7
STANDARD
140
0.18
170
     5
 62
     0
 63
     7
283
     0
 90
      512
 91
        0
  1

274
    -2
284
     1
 64
     0
275
    -2
285
     1
 65
     0
276
    -2
286
     1
 66
     0
277
    -2
287
     1
 67
     0
278
    -2
288
     1
 68
     0
279
    -2
289
     1
 69
     0
  0
VISUALSTYLE
  5
75879
102
{ACAD_REACTORS
330
75873
102
}
330
75873
100
AcDbVisualStyle
  2
2dWireframe
 70
     4
 71
     0
 72
     2
 73
     0
 90
        0
 40
-0.6
 41
-30.0
 62
     5
 63
     7
421
 16777215
 74
     1
 91
        4
 64
     7
 65
   257
 75
     1
175
     1
 42
1.0
 92
        0
 66
   257
 43
1.0
 76
     1
 77
     6
 78
     2
 67
     7
 79
     5
170
     0
171
     0
290
     0
174
     0
 93
        1
 44
0.0
173
     0
291
     0
 45
0.0
  0
VISUALSTYLE
  5
7587B
102
{ACAD_REACTORS
330
75873
102
}
330
75873
100
AcDbVisualStyle
  2
3D Hidden
 70
     6
 71
     1
 72
     2
 73
     2
 90
        0
 40
-0.6
 41
-30.0
 62
     5
 63
     7
421
 16777215
 74
     2
 91
        2
 64
     7
 65
   257
 75
     2
175
     1
 42
40.0
 92
        0
 66
   257
 43
1.0
 76
     1
 77
     6
 78
     2
 67
     7
 79
     3
170
     0
171
     0
290
     0
174
     0
 93
        1
 44
0.0
173
     0
291
     0
 45
0.0
  0
VISUALSTYLE
  5
7587A
102
{ACAD_REACTORS
330
75873
102
}
330
75873
100
AcDbVisualStyle
  2
3dWireframe
 70
     5
 71
     0
 72
     2
 73
     0
 90
        0
 40
-0.6
 41
-30.0
 62
     5
 63
     7
421
 16777215
 74
     1
 91
        4
 64
     7
 65
   257
 75
     1
175
     1
 42
1.0
 92
        0
 66
   257
 43
1.0
 76
     1
 77
     6
 78
     2
 67
     7
 79
     5
170
     0
171
     0
290
     0
174
     0
 93
        1
 44
0.0
173
     0
291
     0
 45
0.0
  0
VISUALSTYLE
  5
75878
102
{ACAD_REACTORS
330
75873
102
}
330
75873
100
AcDbVisualStyle
  2
Basic
 70
     7
 71
     1
 72
     0
 73
     1
 90
        0
 40
-0.6
 41
-30.0
 62
     5
 63
     7
421
 16777215
 74
     0
 91
        4
 64
     7
 65
   257
 75
     1
175
     1
 42
1.0
 92
        8
 66
     7
 43
1.0
 76
     1
 77
     6
 78
     2
 67
     7
 79
     5
170
     0
171
     0
290
     0
174
     0
 93
        1
 44
0.0
173
     0
291
     1
 45
0.0
  0
VISUALSTYLE
  5
7587F
102
{ACAD_REACTORS
330
75873
102
}
330
75873
100
AcDbVisualStyle
  2
Brighten
 70
    12
 71
     2
 72
     2
 73
     0
 90
        0
 40
-0.6
 41
-30.0
 62
     5
 63
     7
421
 16777215
 74
     1
 91
        4
 64
     7
 65
   257
 75
     1
175
     1
 42
1.0
 92
        8
 66
     7
 43
1.0
 76
     1
 77
     6
 78
     2
 67
     7
 79
     5
170
     0
171
     0
290
     0
174
     0
 93
        1
 44
50.0
173
     0
291
     1
 45
0.0
  0
VISUALSTYLE
  5
75883
102
{ACAD_REACTORS
330
75873
102
}
330
75873
100
AcDbVisualStyle
  2
ColorChange
 70
    16
 71
     2
 72
     2
 73
     3
 90
        0
 40
-0.6
 41
-30.0
 62
     5
 63
     8
421
  8421504
 74
     1
 91
        4
 64
     7
 65
   257
 75
     1
175
     1
 42
1.0
 92
        8
 66
     8
424
  8421504
 43
1.0
 76
     1
 77
     6
 78
     2
 67
     7
 79
     5
170
     0
171
     0
290
     0
174
     0
 93
        1
 44
0.0
173
     0
291
     1
 45
0.0
  0
VISUALSTYLE
  5
7587C
102
{ACAD_REACTORS
330
75873
102
}
330
75873
100
AcDbVisualStyle
  2
Conceptual
 70
     9
 71
     3
 72
     2
 73
     0
 90
        0
 40
-0.6
 41
-30.0
 62
     5
 63
     7
421
 16777215
 74
     2
 91
        2
 64
     7
 65
   257
 75
     1
175
     1
 42
40.0
 92
        8
 66
     7
 43
1.0
 76
     1
 77
     6
 78
     2
 67
     7
 79
     3
170
     0
171
     0
290
     0
174
     0
 93
        1
 44
0.0
173
     0
291
     0
 45
0.0
  0
VISUALSTYLE
  5
7587E
102
{ACAD_REACTORS
330
75873
102
}
330
75873
100
AcDbVisualStyle
  2
Dim
 70
    11
 71
     2
 72
     2
 73
     0
 90
        0
 40
-0.6
 41
-30.0
 62
     5
 63
     7
421
 16777215
 74
     1
 91
        4
 64
     7
 65
   257
 75
     1
175
     1
 42
1.0
 92
        8
 66
     7
 43
1.0
 76
     1
 77
     6
 78
     2
 67
     7
 79
     5
170
     0
171
     0
290
     0
174
     0
 93
        1
 44
-50.0
173
     0
291
     1
 45
0.0
  0
VISUALSTYLE
  5
75882
102
{ACAD_REACTORS
330
75873
102
}
330
75873
100
AcDbVisualStyle
  2
Facepattern
 70
    15
 71
     2
 72
     2
 73
     0
 90
        0
 40
-0.6
 41
-30.0
 62
     5
 63
     7
421
 16777215
 74
     1
 91
        4
 64
     7
 65
   257
 75
     1
175
     1
 42
1.0
 92
        8
 66
     7
 43
1.0
 76
     1
 77
     6
 78
     2
 67
     7
 79
     5
170
     0
171
     0
290
     0
174
     0
 93
        1
 44
0.0
173
     0
291
     1
 45
0.0
  0
VISUALSTYLE
  5
75874
102
{ACAD_REACTORS
330
75873
102
}
330
75873
100
AcDbVisualStyle
  2
Flat
 70
     0
 71
     2
 72
     1
 73
     1
 90
        2
 40
-0.6
 41
30.0
 62
     5
 63
     7
421
 16777215
 74
     0
 91
        4
 64
     7
 65
   257
 75
     1
175
     1
 42
1.0
 92
        8
 66
     7
 43
1.0
 76
     1
 77
     6
 78
     2
 67
     7
 79
     5
170
     0
171
     0
290
     0
174
     0
 93
       13
 44
0.0
173
     0
291
     1
 45
0.0
  0
VISUALSTYLE
  5
75875
102
{ACAD_REACTORS
330
75873
102
}
330
75873
100
AcDbVisualStyle
  2
FlatWithEdges
 70
     1
 71
     2
 72
     1
 73
     1
 90
        2
 40
-0.6
 41
30.0
 62
     5
 63
     7
421
 16777215
 74
     1
 91
        4
 64
     7
 65
   257
 75
     1
175
     1
 42
1.0
 92
        0
 66
   257
 43
1.0
 76
     1
 77
     6
 78
     2
 67
     7
 79
     5
170
     0
171
     0
290
     0
174
     0
 93
       13
 44
0.0
173
     0
291
     1
 45
0.0
  0
VISUALSTYLE
  5
75876
102
{ACAD_REACTORS
330
75873
102
}
330
75873
100
AcDbVisualStyle
  2
Gouraud
 70
     2
 71
     2
 72
     2
 73
     1
 90
        2
 40
-0.6
 41
30.0
 62
     5
 63
     7
421
 16777215
 74
     0
 91
        4
 64
     7
 65
   257
 75
     1
175
     1
 42
1.0
 92
        0
 66
     7
 43
1.0
 76
     1
 77
     6
 78
     2
 67
     7
 79
     5
170
     0
171
     0
290
     0
174
     0
 93
       13
 44
0.0
173
     0
291
     1
 45
0.0
  0
VISUALSTYLE
  5
75877
102
{ACAD_REACTORS
330
75873
102
}
330
75873
100
AcDbVisualStyle
  2
GouraudWithEdges
 70
     3
 71
     2
 72
     2
 73
     1
 90
        2
 40
-0.6
 41
30.0
 62
     5
 63
     7
421
 16777215
 74
     1
 91
        4
 64
     7
 65
   257
 75
     1
175
     1
 42
1.0
 92
        0
 66
   257
 43
1.0
 76
     1
 77
     6
 78
     2
 67
     7
 79
     5
170
     0
171
     0
290
     0
174
     0
 93
       13
 44
0.0
173
     0
291
     1
 45
0.0
  0
VISUALSTYLE
  5
75881
102
{ACAD_REACTORS
330
75873
102
}
330
75873
100
AcDbVisualStyle
  2
Linepattern
 70
    14
 71
     2
 72
     2
 73
     0
 90
        0
 40
-0.6
 41
-30.0
 62
     5
 63
     7
421
 16777215
 74
     1
 91
        4
 64
     7
 65
   257
 75
     7
175
     7
 42
1.0
 92
        8
 66
     7
 43
1.0
 76
     1
 77
     6
 78
     2
 67
     7
 79
     5
170
     0
171
     0
290
     0
174
     0
 93
        1
 44
0.0
173
     0
291
     1
 45
0.0
  0
VISUALSTYLE
  5
7587D
102
{ACAD_REACTORS
330
75873
102
}
330
75873
100
AcDbVisualStyle
  2
Realistic
 70
     8
 71
     2
 72
     2
 73
     0
 90
        0
 40
-0.6
 41
-30.0
 62
     5
 63
     7
421
 16777215
 74
     1
 91
        0
 64
     7
 65
   257
 75
     1
175
     1
 42
1.0
 92
        8
 66
     8
424
  7895160
 43
1.0
 76
     1
 77
     6
 78
     2
 67
     7
 79
     5
170
     0
171
     0
290
     0
174
     0
 93
       13
 44
0.0
173
     0
291
     0
 45
0.0
  0
VISUALSTYLE
  5
75880
102
{ACAD_REACTORS
330
75873
102
}
330
75873
100
AcDbVisualStyle
  2
Thicken
 70
    13
 71
     2
 72
     2
 73
     0
 90
        0
 40
-0.6
 41
-30.0
 62
     5
 63
     7
421
 16777215
 74
     1
 91
        4
 64
     7
 65
   257
 75
     1
175
     1
 42
1.0
 92
       12
 66
     7
 43
1.0
 76
     1
 77
     6
 78
     2
 67
     7
 79
     5
170
     0
171
     0
290
     0
174
     0
 93
        1
 44
0.0
173
     0
291
     1
 45
0.0
  0
XRECORD
  5
7589F
102
{ACAD_REACTORS
330
7589E
102
}
330
7589E
100
AcDbXrecord
280
     1
  1
WIRES
  1
WIRES
  1

290
     0
  0
DICTIONARYVAR
  5
75894
102
{ACAD_REACTORS
330
458E1
102
}
330
458E1
100
DictionaryVariables
280
     0
  1
STANDARD
  0
DICTIONARYVAR
  5
458E2
102
{ACAD_REACTORS
330
458E1
102
}
330
458E1
100
DictionaryVariables
280
     0
  1
0
  0
XRECORD
  5
75893
102
{ACAD_REACTORS
330
75891
102
}
330
75891
100
AcDbXrecord
280
     1
330
75452
330
75453
330
75454
  0
ENDSEC
  0
EOF
